osu file format v12

[General]
AudioFilename: Bombshell Blonde.mp3
AudioLeadIn: 0
PreviewTime: 44759
Countdown: 0
SampleSet: Soft
StackLeniency: 0.7
Mode: 0
LetterboxInBreaks: 1

[Editor]
Bookmarks: 15227,82737,112737,120355,143665
DistanceSpacing: 1
BeatDivisor: 4
GridSize: 4

[Metadata]
Title:Bombshell Blonde
TitleUnicode:Bombshell Blonde
Artist:Owl City
ArtistUnicode:Owl City
Creator:Kiddo-Kun
Version:Challenging
Source:
Tags:The Midsummer Station Elly-chan
BeatmapID:215060
BeatmapSetID:60290

[Difficulty]
HPDrainRate:8
CircleSize:5
OverallDifficulty:8
ApproachRate:8
SliderMultiplier:2.2
SliderTickRate:2

[Events]
//Background and Video events
0,0,"1afgd.png",0,0
//Break Periods
2,60437,66800
2,112937,126987
//Storyboard Layer 0 (Background)
//Storyboard Layer 1 (Fail)
//Storyboard Layer 2 (Pass)
//Storyboard Layer 3 (Foreground)
//Storyboard Sound Samples
//Background Colour Transformations
3,100,128,128,64

[TimingPoints]
237.923076923077,468.75,4,2,0,60,1,0
29886,-100,4,1,0,50,0,0
30237,-100,4,2,0,80,0,0
45237,-100,4,2,0,80,0,1
60237,-100,4,2,0,80,0,0
67737,-100,4,2,0,60,0,0
82386,-100,4,1,0,40,0,0
82737,-100,4,2,0,80,0,0
97737,-100,4,2,0,80,0,1
112737,-100,4,2,0,80,0,0
127737,-133.333333333333,4,2,0,80,0,0
131136,-133.333333333333,4,2,0,5,0,0
131370,-133.333333333333,4,2,0,80,0,0
135472,-100,4,1,0,50,0,0
142737,-100,4,2,0,80,0,1
157737,-100,4,2,0,80,0,0
172737,-100,4,2,0,80,0,1
187737,-100,4,2,0,100,0,0

[Colours]
Combo1 : 0,128,255
Combo2 : 103,206,0
Combo3 : 151,75,0
Combo4 : 255,170,85
SliderBorder : 63,63,63

[HitObjects]
256,60,15237,1,2,0:0:0:0:
396,228,15706,2,0,P|386:284|430:326,1,110,8|0,0:0|0:0,0:0:0:0:
495,242,16175,2,0,P|504:185|460:143,1,110
364,140,16644,2,0,L|324:180|324:180,1,55,8|0,0:0|0:0,0:0:0:0:
286,217,16878,2,0,P|240:200|235:135,1,110
308,66,17347,5,0,0:0:0:0:
204,276,17581,1,8,0:0:0:0:
96,248,17816,1,0,0:0:0:0:
132,144,18050,2,0,P|184:124|208:68,1,110
317,77,18519,2,0,P|337:153|459:151,1,220,8|0,0:0|0:0,0:0:0:0:
396,84,19222,5,0,0:0:0:0:
240,304,19456,2,0,P|184:304|160:252,1,110,8|0,0:0|0:0,0:0:0:0:
60,216,19925,2,0,P|20:216|-4:184,2,73.3333333333333
132,196,20394,1,8,0:0:0:0:
256,32,20628,1,0,0:0:0:0:
391,84,20862,6,0,P|416:132|392:188,1,110
320,260,21331,1,8,0:0:0:0:
220,304,21566,2,0,P|168:320|128:288,1,110,0|2,0:0|0:0,0:0:0:0:
108,268,21917,1,2,0:0:0:0:
88,248,22034,1,2,0:0:0:0:
68,228,22151,1,2,0:0:0:0:
48,208,22269,2,0,P|-24:144|64:80,1,220,8|0,0:0|0:0,0:0:0:0:
140,136,22972,5,0,0:0:0:0:
140,136,23206,2,0,B|192:120|192:120|212:56,1,110,8|0,0:0|0:0,0:0:0:0:
316,44,23675,2,0,P|392:60|384:156,1,165
360,172,24144,2,0,L|352:288,1,110,8|0,0:0|0:0,0:0:0:0:
159,281,24612,6,0,L|152:172,1,110
152,61,25081,1,8,0:0:0:0:
256,24,25316,1,0,0:0:0:0:
352,92,25550,2,0,P|304:92|272:144,1,110
296,188,25901,2,0,L|244:228,1,55,0|8,0:0|0:0,0:0:0:0:
176,288,26253,6,0,P|120:296|88:252,1,110
104,148,26722,1,0,0:0:0:0:
408,148,26956,1,8,0:0:0:0:
408,148,27425,2,0,P|404:212|312:224,1,165
268,204,27894,1,8,0:0:0:0:
188,280,28128,6,0,P|148:324|88:316,1,110
52,208,28597,2,0,P|104:208|132:256,1,110,0|8,0:0|0:0,0:0:0:0:
48,360,29066,2,0,P|40:308|84:260,1,110,0|0,0:0|0:0,0:0:0:0:
140,188,29534,1,2,0:0:0:0:
140,188,29651,1,2,0:0:0:0:
140,188,29769,1,2,0:0:0:0:
256,128,30003,5,0,0:0:0:0:
256,128,30120,1,0,0:0:0:0:
256,128,30238,1,4,0:0:0:0:
428,200,30706,6,0,P|404:252|436:300,1,110,8|0,0:0|0:0,0:0:0:0:
320,320,31175,2,0,P|284:284|232:300,1,110
140,360,31644,1,8,0:0:0:0:
44,208,31878,2,0,P|120:208|128:112,1,165,0|0,0:0|0:0,0:0:0:0:
141,77,32347,1,0,0:0:0:0:
240,28,32581,5,8,0:0:0:0:
344,68,32816,1,0,0:0:0:0:
412,156,33050,2,0,L|368:264,1,110
184,220,33519,2,0,L|228:112,1,110,8|0,0:0|0:0,0:0:0:0:
344,68,33987,1,0,0:0:0:0:
184,220,34222,6,0,P|152:268|100:264,1,110,0|8,0:0|0:0,0:0:0:0:
104,156,34691,1,0,0:0:0:0:
136,52,34925,2,0,P|172:12|232:36,1,110
299,101,35394,1,8,0:0:0:0:
392,156,35628,1,0,0:0:0:0:
384,264,35862,2,0,P|348:308|296:300,1,110
256,200,36331,5,8,0:0:0:0:
204,296,36566,2,0,P|144:320|84:240,1,165
83,199,37034,1,0,0:0:0:0:
128,100,37269,1,8,0:0:0:0:
232,140,37503,1,2,0:0:0:0:
232,140,37620,1,0,0:0:0:0:
232,140,37737,1,2,0:0:0:0:
323,78,37972,5,0,0:0:0:0:
404,152,38206,2,0,B|396:213|444:229|444:229|432:308,1,165,8|0,0:0|0:0,0:0:0:0:
394,336,38675,2,0,P|343:319|321:263,1,110
298,162,39144,1,8,0:0:0:0:
128,32,39378,2,0,P|72:48|72:148,1,165
115,166,39847,1,0,0:0:0:0:
192,243,40081,5,8,0:0:0:0:
268,324,40316,2,0,P|328:312|344:264,1,110
344,161,40784,1,0,0:0:0:0:
344,161,40901,1,0,0:0:0:0:
344,161,41019,2,0,L|232:161,1,110,8|0,0:0|0:0,0:0:0:0:
16,160,41487,2,0,P|52:204|32:256,1,110
96,344,41956,6,0,P|120:292|172:288,1,110,8|0,0:0|0:0,0:0:0:0:
300,304,42425,2,0,P|348:272|344:212,1,110
260,96,42894,2,0,P|204:112|168:72,1,110,8|0,0:0|0:0,0:0:0:0:
40,196,43362,2,0,L|72:304,1,110
260,360,43831,6,0,P|312:344|324:288,1,110,8|0,0:0|0:0,0:0:0:0:
344,96,44300,2,0,P|316:56|260:60,1,110
181,138,44769,1,8,0:0:0:0:
181,138,44886,1,0,0:0:0:0:
181,138,45003,1,0,0:0:0:0:
80,180,45237,6,0,P|100:260|224:244,1,220,4|8,0:0|0:0,0:0:0:0:
256,148,45941,1,0,0:0:0:0:
432,180,46175,2,0,P|412:260|294:252,1,220,0|8,0:0|0:0,0:0:0:0:
176,52,46878,1,4,0:0:0:0:
287,39,47113,5,0,0:0:0:0:
391,77,47347,1,0,0:0:0:0:
228,112,47581,1,8,0:0:0:0:
336,136,47816,1,0,0:0:0:0:
264,204,48050,2,0,P|256:260|204:288,1,110
191,287,48401,1,0,0:0:0:0:
169,281,48519,1,8,0:0:0:0:
44,128,48753,5,0,0:0:0:0:
44,128,48987,2,0,P|116:144|168:72,1,165,4|0,0:0|0:0,0:0:0:0:
200,32,49456,1,8,0:0:0:0:
304,64,49691,1,0,0:0:0:0:
404,108,49925,2,0,P|392:184|456:232,1,165
495,271,50394,1,8,0:0:0:0:
416,348,50628,1,4,0:0:0:0:
416,348,51097,6,0,P|360:348|332:296,1,110,0|8,0:0|0:0,0:0:0:0:
416,204,51566,2,0,P|424:257|388:296,1,110,0|0,0:0|0:0,0:0:0:0:
272,280,52034,2,0,P|304:236|360:248,2,110,0|8|0,0:0|0:0|0:0,0:0:0:0:
152,344,52737,6,0,P|64:364|12:260,1,220,4|8,0:0|0:0,0:0:0:0:
11,152,53441,1,0,0:0:0:0:
28,44,53675,2,0,P|108:16|160:80,1,165
180,116,54144,1,8,0:0:0:0:
304,288,54378,6,0,P|368:296|404:264,1,110,4|0,0:0|0:0,0:0:0:0:
476,188,54847,1,0,0:0:0:0:
400,108,55081,1,8,0:0:0:0:
328,24,55316,1,0,0:0:0:0:
400,176,55550,2,0,P|344:152|336:96,1,110
400,40,56019,2,0,P|456:64|466:107,1,110,8|0,0:0|0:0,0:0:0:0:
472,304,56487,5,4,0:0:0:0:
256,192,56956,1,8,0:0:0:0:
40,80,57425,2,0,P|8:136|40:232,1,165
72,268,57894,1,8,0:0:0:0:
140,356,58128,2,0,P|196:344|220:296,1,110,4|0,0:0|0:0,0:0:0:0:
372,356,58597,2,0,P|316:344|292:296,1,110,0|8,0:0|0:0,0:0:0:0:
256,196,59066,1,0,0:0:0:0:
212,96,59300,2,0,P|238:20|284:112,2,220,0|8|4,0:0|0:0|0:0,0:0:0:0:
256,308,67737,5,4,0:0:0:0:
452,208,68206,2,0,P|468:136|392:92,1,165,8|0,0:0|0:0,0:0:0:0:
408,156,68675,2,0,P|372:184|312:148,1,110
239,82,69144,1,8,0:0:0:0:
128,80,69378,1,0,0:0:0:0:
40,244,69612,6,0,P|88:304|172:280,1,165
205,247,70081,1,8,0:0:0:0:
307,247,70316,1,0,0:0:0:0:
416,228,70550,2,0,P|448:184|428:124,1,110
356,56,71019,1,8,0:0:0:0:
246,56,71253,1,0,0:0:0:0:
156,116,71487,5,0,0:0:0:0:
80,280,71722,1,0,0:0:0:0:
164,348,71956,2,0,P|208:324|216:268,1,110,8|0,0:0|0:0,0:0:0:0:
124,208,72425,2,0,P|84:220|48:208,2,73.3333333333333
196,200,72894,1,8,0:0:0:0:
256,108,73128,1,0,0:0:0:0:
328,24,73362,6,0,P|392:32|408:76,1,110
408,178,73831,2,0,P|360:196|320:156,1,110,8|0,0:0|0:0,0:0:0:0:
213,133,74300,1,2,0:0:0:0:
186,140,74417,1,2,0:0:0:0:
160,152,74534,1,2,0:0:0:0:
136,160,74651,1,2,0:0:0:0:
108,168,74769,2,0,P|104:264|208:284,1,220,8|0,0:0|0:0,0:0:0:0:
468,204,75472,5,0,0:0:0:0:
468,204,75706,2,0,B|476:148|476:148|448:100,1,110,8|0,0:0|0:0,0:0:0:0:
340,128,76175,2,0,B|312:176|312:176|260:192,1,110
148,188,76644,2,0,P|116:236|28:200,1,165,8|0,0:0|0:0,0:0:0:0:
84,176,77112,6,0,P|104:128|160:116,1,110,0|0,0:0|0:0,3:0:0:0:
256,160,77581,1,8,0:0:0:0:
352,212,77816,1,0,0:0:0:0:
312,316,78050,1,0,0:0:0:0:
324,132,78284,1,0,0:0:0:0:
228,272,78519,2,0,P|184:304|108:240,1,165,8|0,0:0|0:0,0:0:0:0:
108,189,78987,5,0,0:0:0:0:
200,128,79222,2,0,P|220:76|200:28,1,110,0|8,0:0|0:0,0:0:0:0:
312,28,79691,2,0,P|292:80|312:128,2,110
408,80,80394,1,8,0:0:0:0:
408,189,80628,1,0,0:0:0:0:
364,288,80862,6,0,P|312:216|240:276,1,165
216,280,81331,2,0,P|172:308|120:276,1,110,8|0,0:0|0:0,0:0:0:0:
22,242,81800,1,2,0:0:0:0:
22,214,81917,1,2,0:0:0:0:
32,188,82034,1,2,0:0:0:0:
44,164,82151,1,2,0:0:0:0:
68,152,82269,1,8,0:0:0:0:
164,96,82503,5,0,0:0:0:0:
164,96,82620,1,0,0:0:0:0:
164,96,82737,1,4,0:0:0:0:
384,96,83206,5,8,0:0:0:0:
411,202,83441,1,0,0:0:0:0:
344,292,83675,2,0,P|308:276|304:203,1,110
411,202,84144,1,8,0:0:0:0:
328,356,84378,2,0,P|256:348|232:216,1,220,0|0,0:0|0:0,0:0:0:0:
304,144,85081,5,8,0:0:0:0:
388,72,85316,1,0,0:0:0:0:
464,216,85550,1,0,0:0:0:0:
376,148,85784,1,0,0:0:0:0:
372,260,86019,2,0,P|336:308|240:264,1,165,8|0,0:0|0:0,0:0:0:0:
207,242,86487,5,0,0:0:0:0:
129,164,86722,1,0,0:0:0:0:
152,56,86956,2,0,P|204:72|248:40,1,110,8|0,0:0|0:0,0:0:0:0:
356,42,87425,1,0,0:0:0:0:
433,119,87659,1,0,0:0:0:0:
432,336,87894,1,8,0:0:0:0:
380,228,88128,2,0,P|336:196|276:212,1,110
224,332,88597,6,0,L|172:296,1,55
132,276,88831,2,0,P|116:228|160:184,1,110,8|0,0:0|0:0,0:0:0:0:
252,228,89300,2,0,P|308:222|334:162,1,110
334,153,89651,1,0,0:0:0:0:
331,126,89769,2,0,P|347:63|478:75,1,220,8|0,0:0|0:0,0:0:0:0:
488,332,90472,5,0,0:0:0:0:
378,332,90706,2,0,B|316:332|316:332|292:264|224:300,1,165,8|0,0:0|0:0,0:0:0:0:
196,333,91175,2,0,P|144:354|100:318,1,110
164,232,91644,1,8,0:0:0:0:
256,172,91878,6,0,P|312:156|308:56,1,165
275,23,92347,1,0,0:0:0:0:
176,72,92581,1,8,0:0:0:0:
168,184,92816,1,0,0:0:0:0:
224,280,93050,2,0,B|268:312|268:312|324:304,1,110
420,256,93519,2,0,P|448:200|336:132,1,220,8|0,0:0|0:0,0:0:0:0:
256,204,94222,1,0,0:0:0:0:
72,328,94456,6,0,P|36:264|84:184,1,165,8|0,0:0|0:0,0:0:0:0:
114,149,94925,1,0,0:0:0:0:
208,92,95159,1,0,0:0:0:0:
318,92,95394,1,8,0:0:0:0:
395,169,95628,1,0,0:0:0:0:
472,246,95862,2,0,P|408:357|356:329,1,220,0|8,0:0|0:0,0:0:0:0:
155,329,96566,2,0,P|103:357|40:246,1,220,0|0,0:0|0:0,0:0:0:0:
92,148,97269,2,0,B|128:144|144:168|144:168|156:144|200:148,1,110,8|0,0:0|0:0,0:0:0:0:
384,245,97737,6,0,P|423:286|503:182,1,220,4|8,0:0|0:0,0:0:0:0:
510,84,98441,1,0,0:0:0:0:
400,84,98675,2,0,P|320:60|308:136,1,165
300,176,99144,1,8,0:0:0:0:
332,280,99378,6,0,P|304:328|252:324,1,110,4|0,0:0|0:0,0:0:0:0:
144,325,99847,1,0,0:0:0:0:
48,272,100081,1,8,0:0:0:0:
120,188,100316,1,0,0:0:0:0:
204,116,100550,2,0,P|224:64|204:12,1,110
305,15,101019,2,0,P|288:64|308:116,1,110,8|0,0:0|0:0,0:0:0:0:
480,224,101487,6,0,P|452:296|368:268,1,165,4|0,0:0|0:0,0:0:0:0:
420,240,101956,2,0,P|376:212|328:244,1,110,8|0,0:0|0:0,0:0:0:0:
256,320,102425,2,0,P|204:336|152:200,1,220,0|8,0:0|0:0,0:0:0:0:
218,137,103128,1,4,0:0:0:0:
216,136,103597,6,0,P|270:139|294:87,1,110,0|8,0:0|0:0,0:0:0:0:
352,196,104066,2,0,P|298:193|274:245,1,110,0|0,0:0|0:0,0:0:0:0:
256,344,104534,1,0,0:0:0:0:
148,332,104769,2,0,B|80:344|64:280|64:280|80:208,1,165,8|0,0:0|0:0,0:0:0:0:
91,175,105237,5,4,0:0:0:0:
168,97,105472,1,0,0:0:0:0:
288,208,105706,2,0,P|336:180|340:124,1,110,8|0,0:0|0:0,0:0:0:0:
420,52,106175,2,0,B|472:72|472:72|496:128,2,110,0|0|8,0:0|0:0|0:0,0:0:0:0:
200,40,106878,6,0,P|168:88|240:168,1,165,4|0,0:0|0:0,0:0:0:0:
256,212,107347,2,0,L|256:328,1,110,0|8,0:0|0:0,0:0:0:0:
352,268,107816,2,0,L|352:156,1,110
160,116,108284,2,0,L|160:228,1,110,0|8,0:0|0:0,0:0:0:0:
256,280,108753,5,0,0:0:0:0:
456,192,108987,1,4,0:0:0:0:
56,192,109456,1,8,0:0:0:0:
184,44,109925,2,0,P|256:80|332:40,1,165
384,48,110394,1,8,0:0:0:0:
464,240,110628,6,0,P|436:288|380:280,1,110,4|0,0:0|0:0,0:0:0:0:
428,184,111097,2,0,P|379:181|351:229,1,110,0|8,0:0|0:0,0:0:0:0:
273,307,111566,1,0,0:0:0:0:
164,308,111800,2,0,B|108:308|108:308|52:308|16:272|16:192,2,220,0|8|4,0:0|0:0|0:0,0:0:0:0:
368,332,127737,6,0,B|420:332|436:300|436:256|436:256|436:204,1,165.000006294251,4|0,0:0|0:0,0:0:0:0:
319,91,128675,2,0,P|304:128|260:140,1,82.5000031471254
64,276,129378,2,0,P|88:316|192:280,1,165.000006294251
256,248,130081,5,0,0:0:0:0:
340,252,130316,1,0,0:0:0:0:
374,177,130550,1,0,0:0:0:0:
300,320,130784,1,0,0:0:0:0:
244,172,131019,2,0,P|200:140|144:216,1,165.000006294251
142,293,131722,5,0,0:0:0:0:
212,340,131956,2,0,L|308:340,1,82.5000031471254
332,268,132425,2,0,L|248:268,1,82.5000031471254
180,204,132894,2,0,L|264:204,1,82.5000031471254
344,139,133362,2,0,B|200:124|200:48|254:30|312:48|312:128|166:134,1,330.000012588501
48,328,135237,5,4,0:0:0:0:
256,208,135706,1,8,0:0:0:0:
464,328,136175,1,4,0:0:0:0:
80,184,136644,1,8,0:0:0:0:
256,348,137112,1,0,0:0:0:0:
432,184,137581,2,0,P|412:112|304:156,2,220,8|0|8,0:0|0:0|0:0,0:0:0:0:
256,348,138987,5,0,0:0:0:0:
140,340,139222,1,0,0:0:0:0:
100,224,139456,1,8,0:0:0:0:
140,108,139691,2,0,P|110:67|58:79,2,110,0|0|0,0:0|0:0|0:0,0:0:0:0:
160,228,140394,2,0,L|188:336,1,110,8|0,0:0|0:0,0:0:0:0:
297,334,140862,5,0,0:0:0:0:
316,314,140980,1,0,0:0:0:0:
316,286,141097,1,0,0:0:0:0:
335,266,141214,1,0,0:0:0:0:
332,240,141331,1,8,0:0:0:0:
358,231,141448,1,0,0:0:0:0:
358,203,141566,1,0,0:0:0:0:
350,176,141683,1,0,0:0:0:0:
372,160,141800,1,4,0:0:0:0:
432,204,142737,6,0,P|412:124|288:140,1,220,4|8,0:0|0:0,0:0:0:0:
256,236,143441,1,0,0:0:0:0:
80,204,143675,2,0,P|100:124|218:132,1,220,0|8,0:0|0:0,0:0:0:0:
336,332,144378,1,4,0:0:0:0:
225,345,144613,5,0,0:0:0:0:
121,307,144847,1,0,0:0:0:0:
284,272,145081,1,8,0:0:0:0:
176,248,145316,1,0,0:0:0:0:
248,180,145550,2,0,P|256:124|308:96,1,110
321,97,145901,1,0,0:0:0:0:
343,103,146019,1,8,0:0:0:0:
468,256,146253,5,0,0:0:0:0:
468,256,146487,2,0,P|396:240|344:312,1,165,4|0,0:0|0:0,0:0:0:0:
312,352,146956,1,8,0:0:0:0:
208,320,147191,1,0,0:0:0:0:
108,276,147425,2,0,P|120:200|56:152,1,165
17,113,147894,1,8,0:0:0:0:
96,36,148128,1,4,0:0:0:0:
96,36,148597,6,0,P|152:36|180:88,1,110,0|8,0:0|0:0,0:0:0:0:
96,180,149066,2,0,P|88:127|124:88,1,110,0|0,0:0|0:0,0:0:0:0:
240,104,149534,2,0,P|208:148|152:136,2,110,0|8|0,0:0|0:0|0:0,0:0:0:0:
360,40,150237,6,0,P|448:20|500:124,1,220,4|8,0:0|0:0,0:0:0:0:
501,232,150941,1,0,0:0:0:0:
484,340,151175,2,0,P|404:368|352:304,1,165
332,268,151644,1,8,0:0:0:0:
208,96,151878,6,0,P|144:88|108:120,1,110,4|0,0:0|0:0,0:0:0:0:
36,196,152347,1,0,0:0:0:0:
112,276,152581,1,8,0:0:0:0:
184,360,152816,1,0,0:0:0:0:
112,208,153050,2,0,P|168:232|176:288,1,110
112,344,153519,2,0,P|56:320|46:277,1,110,8|0,0:0|0:0,0:0:0:0:
40,80,153987,5,4,0:0:0:0:
256,192,154456,1,8,0:0:0:0:
472,304,154925,2,0,P|504:248|472:152,1,165
440,116,155394,1,8,0:0:0:0:
372,28,155628,2,0,P|316:40|292:88,1,110,4|0,0:0|0:0,0:0:0:0:
140,28,156097,2,0,P|196:40|220:88,1,110,0|8,0:0|0:0,0:0:0:0:
256,188,156566,1,0,0:0:0:0:
300,288,156800,2,0,P|274:364|228:272,2,220,0|8|2,0:0|0:0|0:0,0:0:0:0:
84,184,158206,6,0,P|108:132|76:84,1,110,4|0,0:0|0:0,0:0:0:0:
192,64,158675,2,0,P|228:100|280:84,1,110
372,24,159144,1,8,0:0:0:0:
468,176,159378,2,0,P|392:176|384:272,1,165,0|0,0:0|0:0,0:0:0:0:
371,307,159847,1,0,0:0:0:0:
272,356,160081,5,8,0:0:0:0:
168,316,160316,1,0,0:0:0:0:
100,228,160550,2,0,L|144:120,1,110
328,164,161019,2,0,L|284:272,1,110,8|0,0:0|0:0,0:0:0:0:
100,228,161487,1,0,0:0:0:0:
328,164,161722,6,0,P|360:116|412:120,1,110,0|8,0:0|0:0,0:0:0:0:
408,228,162191,1,0,0:0:0:0:
376,332,162425,2,0,P|340:372|280:348,1,110
213,283,162894,1,8,0:0:0:0:
120,228,163128,1,0,0:0:0:0:
128,120,163362,2,0,P|164:76|216:84,1,110
256,184,163831,5,8,0:0:0:0:
308,88,164066,2,0,P|368:64|428:144,1,165
429,185,164534,1,0,0:0:0:0:
384,284,164769,1,8,0:0:0:0:
280,244,165003,1,2,0:0:0:0:
280,244,165120,1,0,0:0:0:0:
280,244,165237,1,2,0:0:0:0:
189,306,165472,5,0,0:0:0:0:
108,232,165706,2,0,B|116:171|68:155|68:155|80:76,1,165,8|0,0:0|0:0,0:0:0:0:
118,48,166175,2,0,P|169:65|191:121,1,110
214,222,166644,1,8,0:0:0:0:
384,352,166878,2,0,P|440:336|440:236,1,165
397,218,167347,1,0,0:0:0:0:
320,141,167581,5,8,0:0:0:0:
244,60,167816,2,0,P|184:72|168:120,1,110
168,223,168284,1,0,0:0:0:0:
168,223,168401,1,0,0:0:0:0:
168,223,168519,2,0,L|280:223,1,110,8|0,0:0|0:0,0:0:0:0:
496,224,168987,2,0,P|460:180|480:128,1,110
416,40,169456,6,0,P|392:92|340:96,1,110,8|0,0:0|0:0,0:0:0:0:
212,80,169925,2,0,P|164:112|168:172,1,110
252,288,170394,2,0,P|308:272|344:312,1,110,8|0,0:0|0:0,0:0:0:0:
472,188,170862,2,0,L|440:80,1,110
252,24,171331,6,0,P|200:40|188:96,1,110,8|0,0:0|0:0,0:0:0:0:
168,288,171800,2,0,P|196:328|252:324,1,110
236,216,172269,5,8,0:0:0:0:
236,216,172386,1,0,0:0:0:0:
236,216,172503,1,0,0:0:0:0:
128,139,172737,6,0,P|88:104|12:208,1,220,4|8,0:0|0:0,0:0:0:0:
2,300,173441,1,0,0:0:0:0:
112,300,173675,2,0,P|192:324|204:248,1,165
212,208,174144,1,8,0:0:0:0:
180,104,174378,6,0,P|208:56|260:60,1,110,4|0,0:0|0:0,0:0:0:0:
368,59,174847,1,0,0:0:0:0:
464,112,175081,1,8,0:0:0:0:
392,196,175316,1,0,0:0:0:0:
308,268,175550,2,0,P|288:320|308:372,1,110
206,368,176019,2,0,P|224:320|204:268,1,110,8|0,0:0|0:0,0:0:0:0:
32,160,176487,6,0,P|60:88|144:116,1,165,4|0,0:0|0:0,0:0:0:0:
92,144,176956,2,0,P|136:172|184:140,1,110,8|0,0:0|0:0,0:0:0:0:
256,64,177425,2,0,P|308:48|360:184,1,220,0|8,0:0|0:0,0:0:0:0:
294,247,178128,1,4,0:0:0:0:
296,248,178597,6,0,P|242:245|218:297,1,110,0|8,0:0|0:0,0:0:0:0:
160,188,179066,2,0,P|214:191|238:139,1,110,0|0,0:0|0:0,0:0:0:0:
256,40,179534,1,0,0:0:0:0:
364,52,179769,2,0,B|432:40|448:104|448:104|432:176,1,165,8|0,0:0|0:0,0:0:0:0:
421,209,180237,5,4,0:0:0:0:
344,287,180472,1,0,0:0:0:0:
224,176,180706,2,0,P|176:204|172:260,1,110,8|0,0:0|0:0,0:0:0:0:
92,332,181175,2,0,B|40:312|40:312|16:256,2,110,0|0|8,0:0|0:0|0:0,0:0:0:0:
312,344,181878,6,0,P|344:296|272:216,1,165,4|0,0:0|0:0,0:0:0:0:
256,172,182347,2,0,L|256:56,1,110,0|8,0:0|0:0,0:0:0:0:
160,116,182816,2,0,L|160:228,1,110
352,268,183284,2,0,L|352:156,1,110,0|8,0:0|0:0,0:0:0:0:
256,104,183753,5,0,0:0:0:0:
56,192,183987,1,4,0:0:0:0:
456,192,184456,1,8,0:0:0:0:
328,340,184925,2,0,P|256:304|180:344,1,165
128,336,185394,1,8,0:0:0:0:
48,144,185628,6,0,P|76:96|132:104,1,110,4|0,0:0|0:0,0:0:0:0:
84,200,186097,2,0,P|132:202|160:154,1,110,0|8,0:0|0:0,0:0:0:0:
239,77,186566,1,0,0:0:0:0:
348,76,186800,2,0,B|404:76|404:76|460:76|496:112|496:192,2,220,0|8|4,0:0|0:0|0:0,0:0:0:0:
