osu file format v12

[General]
AudioFilename: Bombshell Blonde.mp3
AudioLeadIn: 0
PreviewTime: 44759
Countdown: 0
SampleSet: Soft
StackLeniency: 0.7
Mode: 0
LetterboxInBreaks: 1

[Editor]
Bookmarks: 15227,127727,143665
DistanceSpacing: 1
BeatDivisor: 4
GridSize: 4

[Metadata]
Title:Bombshell Blonde
TitleUnicode:Bombshell Blonde
Artist:Owl City
ArtistUnicode:Owl City
Creator:Kiddo-Kun
Version:Average
Source:
Tags:The Midsummer Station Elly-chan
BeatmapID:180292
BeatmapSetID:60290

[Difficulty]
HPDrainRate:4
CircleSize:4
OverallDifficulty:4
ApproachRate:5
SliderMultiplier:1.6
SliderTickRate:2

[Events]
//Background and Video events
0,0,"1afgd.png",0,0
//Break Periods
2,60437,66537
2,112937,126537
//Storyboard Layer 0 (Background)
//Storyboard Layer 1 (Fail)
//Storyboard Layer 2 (Pass)
//Storyboard Layer 3 (Foreground)
//Storyboard Sound Samples
//Background Colour Transformations
3,100,128,128,64

[TimingPoints]
237.923076923077,468.75,4,2,0,60,1,0
30237,-100,4,2,0,80,0,0
45237,-100,4,2,0,80,0,1
60237,-100,4,2,0,80,0,0
67737,-100,4,2,0,60,0,0
82737,-100,4,2,0,80,0,0
97737,-100,4,2,0,80,0,1
112737,-100,4,2,0,80,0,0
127737,-100,4,2,0,50,0,0
127737,-100,4,2,0,50,0,0
134417,-100,4,2,0,5,0,0
135120,-100,4,2,0,50,0,0
135472,-100,4,1,0,50,0,0
142737,-100,4,2,0,80,0,1
157737,-100,4,2,0,80,0,0
172737,-100,4,2,0,80,0,1
187737,-100,4,2,0,100,0,0

[Colours]
Combo1 : 0,128,255
Combo2 : 103,206,0
Combo3 : 151,75,0
Combo4 : 255,170,85
SliderBorder : 63,63,63

[HitObjects]
88,324,15706,2,0,B|156:284|156:180,1,160,8|2,0:0|0:0,0:0:0:0:
184,64,16644,2,0,B|216:32|256:32|292:32|336:64,1,160,8|2,0:0|0:0,0:0:0:0:
420,152,17581,2,8,B|377:160|363:191|383:211|363:248|309:262,1,160,8|2,0:0|0:0,0:0:0:0:
256,284,18284,1,0,0:0:0:0:
196,260,18519,2,8,B|148:248|128:211|148:191|134:160|92:152,1,160,8|2,0:0|0:0,0:0:0:0:
192,72,19456,5,8,0:0:0:0:
320,72,19925,1,2,0:0:0:0:
410,162,20394,2,0,B|408:260|308:256,1,160,8|2,0:0|0:0,0:0:0:0:
256,292,21097,2,0,B|256:376,2,80,0|8|0,0:0|0:0|0:0,0:0:0:0:
204,256,21800,2,0,B|104:260|102:162,1,160,2|8,0:0|0:0,0:0:0:0:
192,71,22737,1,2,0:0:0:0:
320,71,23206,5,8,0:0:0:0:
256,180,23675,1,2,0:0:0:0:
188,288,24144,2,0,P|256:324|324:288,1,160,8|2,0:0|0:0,0:0:0:0:
352,164,25081,2,0,P|320:136|320:92,1,80,8|0,0:0|0:0,0:0:0:0:
256,76,25550,1,2,0:0:0:0:
195,100,25784,2,0,P|192:136|160:164,1,80,0|8,0:0|0:0,0:0:0:0:
188,288,26487,6,0,B|208:248|256:252|300:248|328:288,1,160,2|8,0:0|0:0,0:0:0:0:
463,280,27425,1,2,0:0:0:0:
398,171,27894,2,0,B|372:140|372:96,1,80,8|2,0:0|0:0,0:0:0:0:
364,32,28362,2,0,B|196:32,1,160,0|8,0:0|0:0,0:0:0:0:
112,120,29300,1,2,0:0:0:0:
64,240,29769,2,0,B|37:277|49:330|91:354|140:338,1,160,8|4,0:0|0:0,0:0:0:0:
256,367,30706,5,8,0:0:0:0:
313,252,31175,2,0,B|221:252|221:140,1,160,2|8,0:0|0:0,0:0:0:0:
290,143,31878,2,0,B|291:249|199:249,1,160,2|2,0:0|0:0,0:0:0:0:
135,248,32581,1,8,0:0:0:0:
84,131,33050,1,2,0:0:0:0:
182,57,33519,2,0,B|218:29|222:29|254:73|258:73|294:29|298:29|338:57,1,160,8|2,0:0|0:0,0:0:0:0:
422,142,34456,5,8,0:0:0:0:
332,232,34925,1,2,0:0:0:0:
256,127,35394,1,8,0:0:0:0:
180,232,35862,1,2,0:0:0:0:
76,307,36331,1,8,0:0:0:0:
184,363,36800,2,8,B|220:391|264:371|264:351|300:331|332:363,2,160,2|8|4,0:0|0:0|0:0,0:0:0:0:
93,272,38206,6,0,B|126:238|163:240|163:240|160:204|195:169,1,160,8|2,0:0|0:0,0:0:0:0:
316,169,39144,2,0,B|351:204|348:240|348:240|385:238|419:272,2,160,8|2|8,0:0|0:0|0:0,0:0:0:0:
296,43,40550,2,0,B|256:23|216:43,2,80,2|0|8,0:0|0:0|0:0,0:0:0:0:
256,167,41487,1,2,0:0:0:0:
168,259,41956,6,0,B|188:295|188:295|224:311|224:311|264:307|264:307|300:287,1,160,8|2,0:0|0:0,0:0:0:0:
386,196,42894,2,0,B|366:160|366:160|330:144|330:144|290:148|290:148|256:166,1,160,8|2,0:0|0:0,0:0:0:0:
208,207,43597,1,0,0:0:0:0:
168,259,43831,2,0,B|148:295|148:295|113:312|113:312|72:307|72:307|36:287,1,160,8|2,0:0|0:0,0:0:0:0:
64,163,44769,2,0,B|105:159|130:123,1,80,8|0,0:0|0:0,0:0:0:0:
175,77,45237,5,4,0:0:0:0:
298,42,45706,1,8,0:0:0:0:
388,131,46175,2,0,B|432:159|432:203|432:203|432:275,1,160,2|8,0:0|0:0,0:0:0:0:
408,343,46878,2,0,B|364:315|364:271|364:271|364:199,1,160,4|2,0:0|0:0,0:0:0:0:
318,153,47581,1,8,0:0:0:0:
232,243,48050,2,0,P|160:243|128:159,1,160,0|8,0:0|0:0,0:0:0:0:
200,175,48753,2,0,B|220:135|264:131,1,80,0|4,0:0|0:0,0:0:0:0:
390,131,49456,5,8,0:0:0:0:
356,255,49925,2,0,B|412:319,2,80,2|0|8,0:0|0:0|0:0,0:0:0:0:
316,195,50628,2,0,B|280:211|280:263|280:263|192:263,1,160,4|0,0:0|0:0,0:0:0:0:
137,263,51331,1,8,0:0:0:0:
116,135,51800,1,2,0:0:0:0:
208,43,52269,1,8,0:0:0:0:
335,43,52737,6,0,B|427:43|427:151,1,160,4|8,0:0|0:0,0:0:0:0:
336,239,53675,2,0,B|244:239|244:133,1,160,2|8,0:0|0:0,0:0:0:0:
198,88,54378,2,8,B|161:112|130:100|130:72|89:60|41:88,1,160,4|2,0:0|0:0,0:0:0:0:
26,146,55081,1,8,0:0:0:0:
26,274,55550,2,8,B|62:249|93:261|93:289|134:301|182:273,1,160,2|8,0:0|0:0,0:0:0:0:
304,276,56487,5,4,0:0:0:0:
394,185,56956,1,8,0:0:0:0:
394,56,57425,1,2,0:0:0:0:
268,82,57894,2,0,P|280:151|208:195,1,160,8|2,0:0|0:0,0:0:0:0:
145,202,58597,1,0,0:0:0:0:
120,143,58831,2,0,P|126:73|207:49,2,160,8|2|8,0:0|0:0|0:0,0:0:0:0:
144,271,60237,1,4,0:0:0:0:
184,72,67737,5,4,0:0:0:0:
184,72,68206,2,0,B|220:32|292:32|332:72,1,160,8|2,0:0|0:0,0:0:0:0:
328,192,69144,2,0,B|292:232|220:232|180:192,2,160,8|2|8,0:0|0:0|0:0,0:0:0:0:
348,132,70316,1,0,0:0:0:0:
328,72,70550,2,0,B|292:32|220:32|180:72,1,160,2|8,0:0|0:0,0:0:0:0:
92,159,71487,5,2,0:0:0:0:
136,280,71956,2,0,B|180:280|212:252|224:208|196:164,1,160,8|2,0:0|0:0,0:0:0:0:
256,52,72894,1,8,0:0:0:0:
314,166,73362,2,0,B|288:208|300:252|332:280|376:280,2,160,2|8|2,0:0|0:0|0:0,0:0:0:0:
372,208,74534,2,0,B|412:200|436:160,1,80,0|8,0:0|0:0,0:0:0:0:
434,97,75003,2,0,B|411:59|371:51,1,80,0|2,0:0|0:0,0:0:0:0:
228,124,75706,6,0,B|197:96|193:96|160:144|152:144|116:96|112:96|81:120,1,160,8|2,0:0|0:0,0:0:0:0:
81,279,76644,2,0,B|112:307|116:307|149:259|157:259|193:307|197:307|228:283,1,160,8|2,0:0|0:0,0:0:0:0:
360,160,77581,1,8,0:0:0:0:
416,192,77816,1,0,0:0:0:0:
468,232,78050,2,0,B|468:272|444:308|400:312|400:312|352:312,1,160,2|8,0:0|0:0,0:0:0:0:
256,232,78987,1,2,0:0:0:0:
156,312,79456,6,0,B|112:312|112:312|68:308|44:272|44:232,1,160,8|2,0:0|0:0,0:0:0:0:
112,124,80394,2,0,B|156:124|180:88,1,80,8|2,0:0|0:0,0:0:0:0:
204,24,80862,2,0,B|248:44|248:88|248:88|336:88,1,160,2|8,0:0|0:0,0:0:0:0:
384,204,81800,2,0,B|464:204,2,80,2|2|8,0:0|0:0|0:0,0:0:0:0:
324,316,82737,6,0,B|280:316|256:352|256:352|224:316|180:316,1,160,4|8,0:0|0:0,0:0:0:0:
172,188,83675,2,0,B|212:188|212:188|260:188|288:152|288:112,1,160,2|8,0:0|0:0,0:0:0:0:
220,112,84378,2,0,B|220:152|248:188|296:188|296:188|336:188,1,160,2|2,0:0|0:0,0:0:0:0:
404,188,85081,1,8,0:0:0:0:
494,97,85550,2,0,B|514:61|494:17,1,80,2|2,0:0|0:0,0:0:0:0:
436,56,86019,2,0,B|404:88|364:88|328:88|284:56,1,160,8|4,0:0|0:0,0:0:0:0:
160,59,86956,5,8,0:0:0:0:
80,160,87425,1,2,0:0:0:0:
159,239,87894,2,8,B|195:263|226:251|226:223|267:211|315:239,1,160,8|2,0:0|0:0,0:0:0:0:
437,236,88831,1,8,0:0:0:0:
368,128,89300,1,2,0:0:0:0:
322,82,89534,1,0,0:0:0:0:
257,82,89769,1,8,0:0:0:0:
256,204,90237,6,0,P|296:268|372:244,2,160,4|8|2,0:0|0:0|0:0,0:0:0:0:
184,96,91644,2,0,B|96:96,1,80,8|2,0:0|0:0,0:0:0:0:
76,33,92112,2,0,B|36:53|36:105|36:105|36:185,1,160,2|8,0:0|0:0,0:0:0:0:
0,280,93050,2,0,B|32:312|72:312|108:312|152:280,1,160,2|8,0:0|0:0,0:0:0:0:
256,216,93987,1,4,0:0:0:0:
364,283,94456,6,0,B|404:312|440:312|480:312|512:280,1,160,8|2,0:0|0:0,0:0:0:0:
420,192,95394,2,0,B|380:163|344:163|304:163|272:195,1,160,8|2,0:0|0:0,0:0:0:0:
363,285,96331,2,0,B|323:313|287:313|247:313|215:281,1,160,8|2,0:0|0:0,0:0:0:0:
168,164,97269,1,8,0:0:0:0:
256,72,97737,6,0,B|336:72|336:72|388:132,1,160,4|8,0:0|0:0,0:0:0:0:
330,246,98675,2,8,B|294:270|263:258|263:230|222:218|174:246,1,160,2|8,0:0|0:0,0:0:0:0:
144,296,99378,2,0,B|112:324|64:320|28:296|28:240,1,160,4|2,0:0|0:0,0:0:0:0:
28,180,100081,1,8,0:0:0:0:
116,88,100550,2,0,B|164:24|164:24|256:24,1,160,2|8,0:0|0:0,0:0:0:0:
308,24,101253,1,2,0:0:0:0:
353,69,101487,6,0,B|353:113|353:113|353:149|321:181|265:169,1,160,4|8,0:0|0:0,0:0:0:0:
141,169,102425,2,8,B|97:169|97:169|61:169|29:200|40:257,1,160,2|8,0:0|0:0,0:0:0:0:
88,296,103128,2,0,B|136:296|160:328|160:328|180:296|232:296,1,160,4|2,0:0|0:0,0:0:0:0:
292,296,103831,1,8,0:0:0:0:
411,249,104300,1,2,0:0:0:0:
476,140,104769,1,8,0:0:0:0:
356,96,105237,6,0,B|340:188|240:184,1,160,4|8,0:0|0:0,0:0:0:0:
151,274,106175,2,0,B|171:310|171:310|206:327|206:327|247:322|247:322|283:302,1,160,2|8,0:0|0:0,0:0:0:0:
296,240,106878,2,0,B|316:204|316:204|351:187|351:187|392:192|392:192|425:210,1,160,4|2,0:0|0:0,0:0:0:0:
489,210,107581,1,8,0:0:0:0:
460,84,108050,2,0,B|496:12,2,80,2|2|8,0:0|0:0|0:0,0:0:0:0:
329,84,108987,6,0,B|293:56|289:56|260:100|253:100|217:56|213:56|173:84,1,160,4|8,0:0|0:0,0:0:0:0:
89,169,109925,2,0,B|125:197|129:197|161:153|165:153|201:197|205:197|245:169,1,160,2|8,0:0|0:0,0:0:0:0:
284,132,110628,1,4,0:0:0:0:
412,132,111097,2,0,P|480:148|500:232,1,160,2|0,0:0|0:0,0:0:0:0:
456,272,111800,1,2,0:0:0:0:
329,326,112269,2,0,B|293:354|289:354|257:310|253:310|217:354|213:354|173:326,1,160,8|4,0:0|0:0,0:0:0:0:
136,72,127737,5,4,0:0:0:0:
136,72,128206,2,0,B|168:108|208:108|208:108|292:108,1,160,2|0,0:0|0:0,0:0:0:0:
349,108,128909,2,0,B|368:156|343:187|306:218|261:206,2,160,0|0|0,0:0|0:0|0:0,0:0:0:0:
349,43,130081,1,0,0:0:0:0:
256,124,130550,1,2,0:0:0:0:
164,47,131019,2,0,B|136:76|136:76|136:120|136:120|104:140|104:140|104:180,1,160,0|2,0:0|0:0,0:0:0:0:
104,306,131956,5,0,0:0:0:0:
216,244,132425,2,0,B|256:260|296:244,2,80,2|0|0,0:0|0:0|0:0,0:0:0:0:
180,192,133128,1,0,0:0:0:0:
184,128,133362,2,0,B|216:96|256:96|292:96|336:128,1,160,2|2,0:0|0:0,0:0:0:0:
328,252,134300,2,0,B|296:284|256:284|220:284|176:252,2,160,2|0|4,0:0|0:0|0:0,0:0:0:0:
456,252,135706,5,0,0:0:0:0:
456,123,136175,1,2,0:0:0:0:
365,32,136644,1,0,0:0:0:0:
256,100,137112,1,2,0:0:0:0:
147,32,137581,1,0,0:0:0:0:
56,122,138050,1,2,0:0:0:0:
48,188,138284,1,0,0:0:0:0:
56,250,138519,2,0,B|61:295|64:298|118:289|121:292|115:348|118:351|166:360,1,160,0|2,0:0|0:0,0:0:0:0:
256,192,139222,12,0,141800,0:0:0:0:
436,176,142737,6,0,B|400:196|356:192|320:168|312:112,1,160,4|8,0:0|0:0,0:0:0:0:
198,118,143675,2,0,B|192:168|156:192|112:196|76:176,1,160,2|8,0:0|0:0,0:0:0:0:
64,112,144378,2,0,B|96:268,1,160,4|2,0:0|0:0,0:0:0:0:
115,329,145081,1,8,0:0:0:0:
243,329,145550,2,0,B|275:173,1,160,2|8,0:0|0:0,0:0:0:0:
328,56,146487,6,0,B|288:56|256:87|256:87|220:56|168:56,1,160,6|8,0:0|0:0,0:0:0:0:
184,184,147425,2,0,B|216:216|256:216|292:216|336:184,1,160,2|8,0:0|0:0,0:0:0:0:
336,116,148128,2,0,B|380:128|400:152|396:196|396:196|388:248,1,160,4|2,0:0|0:0,0:0:0:0:
384,308,148831,1,8,0:0:0:0:
256,320,149300,1,2,0:0:0:0:
126,308,149769,1,8,0:0:0:0:
180,192,150237,6,0,B|240:192|240:192|272:208|272:208|356:208,1,160,4|8,0:0|0:0,0:0:0:0:
464,208,151175,2,0,B|464:160|464:160|464:128|436:96|384:96,1,160,2|8,0:0|0:0,0:0:0:0:
324,78,151878,2,0,B|312:38|276:14|224:18|192:54,1,160,4|2,0:0|0:0,0:0:0:0:
148,96,152581,1,8,0:0:0:0:
149,224,153050,2,0,B|161:264|197:288|249:284|281:248,1,160,2|8,0:0|0:0,0:0:0:0:
406,250,153987,5,4,0:0:0:0:
452,132,154456,1,8,0:0:0:0:
336,80,154925,2,0,B|176:80,1,160,2|8,0:0|0:0,0:0:0:0:
256,192,155628,12,0,157737,0:0:0:0:
256,16,158206,5,4,0:0:0:0:
199,131,158675,2,0,B|291:131|291:243,1,160,2|8,0:0|0:0,0:0:0:0:
222,240,159378,2,0,B|221:134|313:134,1,160,2|2,0:0|0:0,0:0:0:0:
377,135,160081,1,8,0:0:0:0:
428,252,160550,1,2,0:0:0:0:
330,326,161019,2,0,B|294:354|290:354|258:310|254:310|218:354|214:354|174:326,1,160,8|2,0:0|0:0,0:0:0:0:
90,241,161956,5,8,0:0:0:0:
180,151,162425,1,2,0:0:0:0:
256,256,162894,1,8,0:0:0:0:
332,151,163362,1,2,0:0:0:0:
436,76,163831,1,8,0:0:0:0:
328,20,164300,2,8,B|292:-8|248:12|248:32|212:52|180:20,2,160,2|8|4,0:0|0:0|0:0,0:0:0:0:
419,111,165706,6,0,B|386:145|349:143|349:143|352:179|317:214,1,160,8|2,0:0|0:0,0:0:0:0:
196,214,166644,2,0,B|161:179|164:143|164:143|127:145|93:111,2,160,8|2|8,0:0|0:0|0:0,0:0:0:0:
216,340,168050,2,0,B|256:360|296:340,2,80,2|0|8,0:0|0:0|0:0,0:0:0:0:
256,216,168987,1,2,0:0:0:0:
344,124,169456,6,0,B|324:88|324:88|288:72|288:72|248:76|248:76|212:96,1,160,8|2,0:0|0:0,0:0:0:0:
126,187,170394,2,0,B|146:223|146:223|182:239|182:239|222:235|222:235|256:217,1,160,8|2,0:0|0:0,0:0:0:0:
304,176,171097,1,0,0:0:0:0:
344,124,171331,2,0,B|364:88|364:88|399:71|399:71|440:76|440:76|476:96,1,160,8|2,0:0|0:0,0:0:0:0:
448,220,172269,2,0,B|407:224|382:260,1,80,8|0,0:0|0:0,0:0:0:0:
337,306,172737,5,4,0:0:0:0:
214,341,173206,1,8,0:0:0:0:
124,252,173675,2,0,B|80:224|80:180|80:180|80:108,1,160,2|8,0:0|0:0,0:0:0:0:
104,40,174378,2,0,B|148:68|148:112|148:112|148:184,1,160,4|2,0:0|0:0,0:0:0:0:
194,230,175081,1,8,0:0:0:0:
280,140,175550,2,0,P|352:140|384:224,1,160,0|8,0:0|0:0,0:0:0:0:
312,208,176253,2,0,B|292:248|248:252,1,80,0|4,0:0|0:0,0:0:0:0:
122,252,176956,5,8,0:0:0:0:
156,128,177425,2,0,B|100:64,2,80,2|0|8,0:0|0:0|0:0,0:0:0:0:
196,188,178128,2,0,B|232:172|232:120|232:120|320:120,1,160,4|0,0:0|0:0,0:0:0:0:
375,120,178831,1,8,0:0:0:0:
396,248,179300,1,2,0:0:0:0:
304,340,179769,1,8,0:0:0:0:
177,340,180237,6,0,B|85:340|85:232,1,160,4|8,0:0|0:0,0:0:0:0:
176,144,181175,2,0,B|268:144|268:250,1,160,2|8,0:0|0:0,0:0:0:0:
314,295,181878,2,8,B|351:271|382:283|382:311|423:323|471:295,1,160,4|2,0:0|0:0,0:0:0:0:
486,237,182581,1,8,0:0:0:0:
486,109,183050,2,8,B|450:134|419:122|419:94|378:82|330:110,1,160,2|8,0:0|0:0,0:0:0:0:
208,107,183987,5,4,0:0:0:0:
118,198,184456,1,8,0:0:0:0:
118,327,184925,1,2,0:0:0:0:
244,301,185394,2,0,P|232:232|304:188,1,160,8|2,0:0|0:0,0:0:0:0:
367,181,186097,1,0,0:0:0:0:
392,240,186331,2,0,P|386:310|305:334,2,160,8|2|8,0:0|0:0|0:0,0:0:0:0:
368,112,187737,1,4,0:0:0:0:
