osu file format v13

[General]
AudioFilename: Alligator Skymp3.mp3
AudioLeadIn: 0
PreviewTime: 140552
Countdown: 0
SampleSet: Soft
StackLeniency: 0.7
Mode: 0
LetterboxInBreaks: 0
EpilepsyWarning: 1
WidescreenStoryboard: 1

[Editor]
DistanceSpacing: 1
BeatDivisor: 8
GridSize: 4
TimelineZoom: 1

[Metadata]
Title:Alligator Sky ft. Shawn Chrystopher
TitleUnicode:Alligator Sky ft. Shawn Chrystopher
Artist:Owl City
ArtistUnicode:Owl City
Creator:mancuso_JM_
Version:Hard
Source:
Tags:Adam Young Album version All Things Bright and Beautiful mancusojuanmattos XinCrin
BeatmapID:524277
BeatmapSetID:224647

[Difficulty]
HPDrainRate:6
CircleSize:4
OverallDifficulty:6
ApproachRate:7.5
SliderMultiplier:2.1
SliderTickRate:2

[Events]
//Background and Video events
0,0,"Sky.jpg",0,0
//Break Periods
2,23813,25597
2,117926,127336
//Storyboard Layer 0 (Background)
//Storyboard Layer 1 (Fail)
//Storyboard Layer 2 (Pass)
//Storyboard Layer 3 (Foreground)
//Storyboard Sound Samples
//Background Colour Transformations
3,100,163,162,255

[TimingPoints]
2944,652.173913043478,4,2,0,65,1,0
2944,-125,4,2,0,65,0,0
5552,-125,4,2,0,40,0,0
5634,-125,4,2,0,65,0,0
10770,-125,4,2,0,40,0,0
10851,-125,4,2,0,65,0,0
12400,-125,4,2,0,40,0,0
12482,-125,4,2,0,65,0,0
13378,-111.111111111111,4,2,0,65,0,0
22509,-111.111111111111,4,2,0,35,0,0
23813,-83.3333333333333,4,2,0,85,0,0
33433,-133.333333333333,4,2,0,80,0,0
34248,-83.3333333333333,4,2,0,80,0,0
44357,-133.333333333333,4,2,0,80,0,0
44683,-83.3333333333333,4,2,0,80,0,0
55117,-83.3333333333333,4,2,0,80,0,1
58215,-83.3333333333333,4,2,0,70,0,1
58297,-83.3333333333333,4,2,0,80,0,1
58704,-83.3333333333333,4,2,0,70,0,1
58786,-83.3333333333333,4,2,0,80,0,1
60987,-83.3333333333333,4,2,0,65,0,1
61068,-83.3333333333333,4,2,0,80,0,1
63433,-83.3333333333333,4,2,0,70,0,1
63514,-83.3333333333333,4,2,0,80,0,1
63922,-83.3333333333333,4,2,0,70,0,1
64003,-83.3333333333333,4,2,0,80,0,1
64411,-83.3333333333333,4,2,0,70,0,1
64492,-83.3333333333333,4,2,0,80,0,1
68650,-83.3333333333333,4,2,0,70,0,1
68732,-83.3333333333333,4,2,0,80,0,1
69139,-83.3333333333333,4,2,0,70,0,1
69221,-83.3333333333333,4,2,0,80,0,1
70117,-83.3333333333333,4,2,0,65,0,1
70199,-83.3333333333333,4,2,0,80,0,1
73378,-83.3333333333333,4,2,0,70,0,1
75009,-83.3333333333333,4,2,0,80,0,1
75987,-83.3333333333333,4,2,0,80,0,0
78433,-83.3333333333333,4,2,0,65,0,0
78596,-83.3333333333333,4,2,0,80,0,0
81041,-83.3333333333333,4,2,0,65,0,0
81204,-83.3333333333333,4,2,0,80,0,0
83650,-83.3333333333333,4,2,0,65,0,0
83813,-83.3333333333333,4,2,0,80,0,0
86096,-83.3333333333333,4,2,0,65,0,0
86422,-83.3333333333333,4,2,0,80,0,0
88867,-83.3333333333333,4,2,0,65,0,0
89030,-83.3333333333333,4,2,0,80,0,0
94085,-83.3333333333333,4,2,0,65,0,0
94248,-83.3333333333333,4,2,0,80,0,0
100770,-83.3333333333333,4,2,0,65,0,0
100851,-83.3333333333333,4,2,0,80,0,0
128161,-100,4,2,0,70,0,0
138922,-100,4,2,0,65,0,0
139574,-100,4,2,0,50,0,0
139900,-100,4,2,0,35,0,0
140552,-100,4,2,0,60,0,0
141204,-83.3333333333333,4,2,0,80,0,1
144302,-83.3333333333333,4,2,0,70,0,1
144384,-83.3333333333333,4,2,0,80,0,1
144791,-83.3333333333333,4,2,0,70,0,1
144954,-83.3333333333333,4,2,0,80,0,1
154737,-83.3333333333333,4,2,0,70,0,1
154818,-83.3333333333333,4,2,0,80,0,1
155226,-83.3333333333333,4,2,0,70,0,1
155308,-83.3333333333333,4,2,0,80,0,1
161992,-83.3333333333333,4,2,0,80,0,0
162074,-83.3333333333333,4,2,0,80,0,1
162155,-83.3333333333333,4,2,0,80,0,0

[Colours]
Combo1 : 79,79,255
Combo2 : 0,128,128
Combo3 : 0,64,128

[HitObjects]
64,67,2944,6,0,P|129:18|209:34,1,168,2|2,0:0|0:0,0:0:0:0:
264,100,3922,1,0,0:0:0:0:
264,99,4085,2,0,P|259:140|269:181,1,84,2|0,0:0|0:0,0:0:0:0:
347,207,4737,2,0,P|357:248|351:290,1,84,2|0,0:0|0:0,0:0:0:0:
352,290,5226,1,2,0:0:0:0:
255,319,5552,6,0,P|180:287|103:316,1,168,4|0,0:0|0:0,0:0:0:0:
20,324,6530,1,0,0:0:0:0:
20,324,6857,2,0,P|5:284|5:242,1,84,2|0,0:0|0:0,0:0:0:0:
19,204,7346,2,0,P|64:160|87:101,1,126,2|0,0:0|0:0,0:0:0:0:
136,32,8161,6,0,P|206:72|285:49,1,168,2|2,0:0|0:0,0:0:0:0:
364,76,9139,1,0,0:0:0:0:
364,76,9302,2,0,P|360:117|369:158,1,84,2|0,0:0|0:0,0:0:0:0:
432,212,9954,1,2,0:0:0:0:
432,212,10117,2,0,P|429:253|411:291,1,84
324,340,10770,6,2,B|220:356|180:244|256:174|332:244|292:356|188:340,1,336,4|0,0:0|0:0,0:0:0:0:
184,212,12400,2,2,P|256:175|328:212,1,168,4|0,0:0|0:0,0:0:0:0:
428,184,13378,6,0,P|415:138|415:91,1,94.499997116089,4|4,0:3|0:3,0:0:0:0:
356,16,14030,2,0,P|305:62|236:60,1,141.749995674133,2|4,0:3|0:3,0:0:0:0:
148,28,14846,1,2,0:3:0:0:
148,28,15009,1,0,0:0:0:0:
64,72,15335,1,6,0:3:0:0:
76,164,15661,1,0,0:0:0:0:
88,184,15824,1,2,0:3:0:0:
100,204,15987,5,0,0:0:0:0:
148,288,16313,1,4,0:3:0:0:
224,344,16639,2,0,P|264:312|392:332,1,188.999994232178,2|0,0:3|0:0,0:0:0:0:
412,344,17454,1,2,0:3:0:0:
432,356,17617,2,0,L|446:262,1,94.499997116089,0|2,0:0|0:3,0:0:0:0:
396,184,18270,1,0,0:0:0:0:
384,164,18433,1,2,0:3:0:0:
372,144,18596,5,4,0:3:0:0:
300,84,18922,1,4,0:3:0:0:
232,152,19248,1,2,0:3:0:0:
292,224,19574,1,0,0:0:0:0:
296,319,19900,2,0,P|258:347|211:350,1,94.499997116089,4|0,0:3|0:0,0:0:0:0:
168,333,20389,2,0,P|108:299|44:325,1,141.749995674133,2|0,0:3|0:0,0:0:0:0:
256,192,21204,12,0,22509,0:0:0:0:
36,44,26422,6,0,P|24:105|45:163,1,125.999996154785,4|0,0:3|0:0,0:0:0:0:
108,224,26911,1,0,0:0:0:0:
188,264,27074,2,0,P|246:244|307:257,1,125.999996154785,8|2,0:0|0:0,0:0:0:0:
372,316,27563,1,0,0:0:0:0:
371,316,27726,2,0,P|385:288|390:257,1,62.9999980773926,2|0,0:0|0:0,0:0:0:0:
348,180,28052,2,0,P|319:123|312:61,2,125.999996154785,2|8|2,0:0|0:0|0:0,0:0:0:0:
392,352,29030,6,0,B|332:360|332:340|266:348,1,125.999996154785,4|0,0:0|0:0,0:0:0:0:
188,304,29520,2,0,P|191:241|174:181,1,125.999996154785,2|0,0:0|0:0,0:0:0:0:
92,144,30009,2,0,P|74:83|78:21,2,125.999996154785,2|0|2,0:0|0:0|0:0,0:0:0:0:
175,181,30824,1,0,0:0:0:0:
175,181,30987,2,0,L|300:172,1,125.999996154785,10|2,0:0|0:0,0:0:0:0:
368,116,31476,1,0,0:0:0:0:
436,64,31639,6,0,P|448:92|451:124,1,62.9999980773926,2|0,0:0|0:0,0:0:0:0:
408,200,31965,2,0,B|396:232|412:232|405:262,1,62.9999980773926,2|0,0:0|0:0,0:0:0:0:
344,324,32291,2,0,P|316:309|285:305,1,62.9999980773926,10|0,0:0|0:0,0:0:0:0:
208,348,32617,2,0,P|177:355|146:351,1,62.9999980773926,2|0,0:0|0:0,0:0:0:0:
76,300,32943,2,0,P|60:239|69:177,1,125.999996154785,2|4,0:0|0:3,0:0:0:0:
132,120,33433,6,0,B|172:120|172:120|204:128|204:128|249:128,1,118.125004506111,2|0,0:0|0:0,0:0:0:0:
400,124,34248,6,0,L|384:62,1,62.9999980773926,4|0,0:3|0:0,0:0:0:0:
492,88,34574,2,0,L|507:149,1,62.9999980773926,2|0,0:0|0:0,0:0:0:0:
420,216,34900,2,0,L|435:277,1,62.9999980773926,8|0,0:1|0:0,0:0:0:0:
396,356,35226,2,0,P|365:364|336:354,1,62.9999980773926,2|0,0:0|0:0,0:0:0:0:
280,288,35552,2,2,P|232:327|170:328,1,125.999996154785,2|0,0:0|0:0,0:0:0:0:
76,332,36041,2,0,P|112:249|202:239,1,188.999994232178,2|2,0:0|0:0,0:0:0:0:
375,208,36857,6,0,P|392:148|375:88,1,125.999996154785,4|0,0:0|0:0,0:0:0:0:
308,32,37346,2,0,B|248:48|248:16|183:29,1,125.999996154785,2|0,0:0|0:0,0:0:0:0:
108,72,37835,1,2,0:0:0:0:
40,128,37998,1,0,0:0:0:0:
16,212,38161,2,0,L|36:272,1,62.9999980773926,2|0,0:0|0:0,0:0:0:0:
91,340,38487,2,0,P|117:321|147:312,1,62.9999980773926,2|0,0:0|0:0,0:0:0:0:
236,324,38813,2,0,P|288:356|350:351,1,125.999996154785,10|2,0:0|0:0,0:0:0:0:
364,356,39465,6,0,L|348:224,1,125.999996154785,4|0,0:0|0:0,0:0:0:0:
292,164,39954,2,0,P|268:106|275:44,1,125.999996154785,2|0,0:0|0:0,0:0:0:0:
363,36,40443,2,0,P|387:93|380:155,1,125.999996154785,2|0,0:0|0:0,0:0:0:0:
332,232,40933,1,0,0:0:0:0:
264,287,41096,2,0,P|234:299|203:299,1,62.9999980773926,2|0,0:0|0:0,0:0:0:0:
120,268,41422,2,0,P|104:207|118:146,1,125.999996154785,10|2,0:0|0:0,0:0:0:0:
108,136,42074,6,0,L|233:132,1,125.999996154785,4|0,0:3|0:0,0:0:0:0:
296,72,42563,2,0,P|353:96|415:92,1,125.999996154785,2|0,0:0|0:0,0:0:0:0:
483,35,43052,2,0,P|499:63|504:94,1,62.9999980773926,2|0,0:0|0:0,0:0:0:0:
456,192,43378,1,2,0:0:0:0:
336,324,43704,1,2,0:0:0:0:
256,360,43867,1,0,0:0:0:0:
176,324,44030,1,0,0:0:0:0:
176,324,44357,6,2,L|169:245,1,78.7500030040742,0|4,0:0|0:0,0:0:0:0:
136,72,45009,5,4,0:3:0:0:
148,64,45335,2,0,L|155:126,1,62.9999980773926,8|0,0:0|0:0,0:0:0:0:
264,144,45661,2,0,L|256:81,1,62.9999980773926,2|0,0:0|0:0,0:0:0:0:
352,28,45987,2,0,L|367:153,1,125.999996154785,2|4,0:0|0:3,0:0:0:0:
416,228,46476,1,0,0:0:0:0:
484,282,46639,2,0,P|499:255|504:224,1,62.9999980773926,8|0,0:0|0:0,0:0:0:0:
416,228,46965,1,2,0:0:0:0:
256,152,47291,6,0,P|233:173|203:183,1,62.9999980773926,4|0,0:0|0:0,0:0:0:0:
156,108,47617,2,0,P|179:86|208:77,1,62.9999980773926,2|0,0:0|0:0,0:0:0:0:
296,75,47943,2,0,P|323:91|354:96,1,62.9999980773926,8|0,0:0|0:0,0:0:0:0:
440,84,48270,2,2,L|424:209,1,125.999996154785,2|0,0:0|0:0,0:0:0:0:
359,267,48759,2,0,P|302:243|241:251,1,125.999996154785,2|0,0:0|0:0,0:0:0:0:
228,340,49248,2,0,P|285:364|346:356,1,125.999996154785,10|0,0:0|0:0,0:0:0:0:
428,324,49737,1,2,0:0:0:0:
496,264,49900,6,0,L|481:138,1,125.999996154785,4|0,0:3|0:0,0:0:0:0:
448,56,50389,2,0,B|384:44|392:76|323:60,1,125.999996154785,2|0,0:0|0:0,0:0:0:0:
252,12,50878,2,0,P|228:33|198:41,1,62.9999980773926,2|0,0:0|0:0,0:0:0:0:
112,44,51204,2,0,P|124:105|116:167,1,125.999996154785,2|0,0:0|0:0,0:0:0:0:
48,224,51693,2,0,P|39:286|52:347,1,125.999996154785,2|2,0:0|0:0,0:0:0:0:
140,368,52183,2,0,L|202:357,1,62.9999980773926,0|0,0:0|0:0,0:0:0:0:
267,300,52509,6,0,P|320:267|381:278,1,125.999996154785,4|0,0:3|0:0,0:0:0:0:
468,264,52998,2,0,P|484:203|467:143,1,125.999996154785,2|0,0:0|0:0,0:0:0:0:
396,92,53487,1,2,0:0:0:0:
316,52,53650,1,4,0:3:0:0:
240,100,53813,2,0,L|264:164,1,62.9999980773926,2|0,0:0|0:0,0:0:0:0:
136,136,54139,2,0,L|113:77,2,62.9999980773926,2|0|2,0:0|0:0|0:0,0:0:0:0:
48,228,54628,2,0,L|71:287,2,62.9999980773926,0|0|2,0:0|0:0|0:0,0:0:0:0:
136,136,55117,6,0,L|184:252,2,125.999996154785,4|0|8,0:0|0:0|0:0,0:0:0:0:
280,32,56096,1,2,0:0:0:0:
280,32,56259,2,0,L|328:148,1,125.999996154785,4|0,0:3|0:0,0:0:0:0:
384,216,56748,2,0,B|401:279|428:263|442:326,2,125.999996154785,8|8|0,0:3|0:0|0:0,0:0:0:0:
428,140,57563,1,0,0:0:0:0:
510,111,57726,6,0,P|441:53|358:87,2,188.999994232178,4|4|4,0:0|0:0|0:0,0:0:0:0:
508,200,58867,1,0,0:0:0:0:
503,288,59030,2,0,P|446:310|385:297,1,125.999996154785,2|4,0:0|0:3,0:0:0:0:
304,260,59520,2,0,P|243:246|185:269,1,125.999996154785,4|0,0:3|0:0,0:0:0:0:
95,264,60009,2,0,P|96:232|86:202,1,62.9999980773926,2|0,0:0|0:0,0:0:0:0:
29,133,60335,6,0,P|46:74|98:41,1,125.999996154785,4|4,0:0|0:3,0:0:0:0:
184,60,60824,1,2,0:0:0:0:
184,60,60987,2,0,B|248:48|248:84|308:64,1,125.999996154785,8|0,0:1|0:0,0:0:0:0:
392,88,61476,2,0,L|384:213,1,125.999996154785,2|0,0:0|0:0,0:0:0:0:
307,260,61965,2,0,P|305:291|314:321,1,62.9999980773926,2|0,0:0|0:0,0:0:0:0:
384,213,62291,2,0,P|372:183|350:160,1,62.9999980773926,8|0,0:0|0:0,0:0:0:0:
280,112,62617,2,0,P|257:133|228:144,1,62.9999980773926
128,156,62943,6,0,L|97:33,1,125.999996154785,4|0,0:0|0:0,0:0:0:0:
8,48,63433,2,0,L|38:170,1,125.999996154785,4|0,0:0|0:0,0:0:0:0:
60,256,63922,2,0,B|92:228|140:228|140:228|178:228,1,125.999996154785,4|0,0:0|0:0,0:0:0:0:
244,288,64411,2,0,B|212:316|164:316|164:316|125:316,1,125.999996154785,4|0,0:0|0:0,0:0:0:0:
60,256,64900,2,0,L|40:196,1,62.9999980773926,8|0,0:1|0:0,0:0:0:0:
108,140,65226,2,0,L|123:78,1,62.9999980773926,2|0,0:0|0:0,0:0:0:0:
200,32,65552,6,0,P|264:44|312:78,1,125.999996154785,4|0,0:0|0:0,0:0:0:0:
439,201,66204,2,0,P|446:231|441:262,1,62.9999980773926,8|0,0:0|0:0,0:0:0:0:
356,296,66530,2,2,B|304:284|304:284|276:272|256:232|256:232|236:272|208:284|208:284|156:296,1,251.999992309571,2|4,0:0|0:3,0:0:0:0:
80,344,67346,1,0,0:0:0:0:
24,276,67509,2,0,P|16:208|24:144,1,125.999996154785,8|0,0:0|0:0,0:0:0:0:
88,92,67998,1,0,0:0:0:0:
88,92,68161,6,0,L|214:92,1,125.999996154785,4|0,0:0|0:0,0:0:0:0:
292,136,68650,2,0,P|353:148|415:136,1,125.999996154785,4|0,0:0|0:0,0:0:0:0:
416,48,69139,2,0,P|354:36|292:48,1,125.999996154785,4|0,0:0|0:0,0:0:0:0:
214,92,69628,1,2,0:0:0:0:
136,135,69791,2,0,P|135:167|144:197,1,62.9999980773926,4|0,0:3|0:0,0:0:0:0:
216,252,70117,2,0,L|341:240,1,125.999996154785,8|0,0:1|0:0,0:0:0:0:
424,268,70607,1,0,0:0:0:0:
376,340,70770,6,0,L|250:351,1,125.999996154785,4|2,0:3|0:0,0:0:0:0:
164,336,71259,2,0,B|150:273|123:289|106:226,1,125.999996154785,2|0,0:0|0:0,0:0:0:0:
68,148,71748,2,0,P|60:117|65:86,1,62.9999980773926,2|4,0:0|0:3,0:0:0:0:
128,28,72074,2,0,B|156:56|200:56|200:56|246:56,1,125.999996154785,2|0,0:0|0:0,0:0:0:0:
320,104,72563,2,0,B|293:137|243:137|243:137|203:137,1,125.999996154785,2|0,0:0|0:0,0:0:0:0:
116,152,73052,1,0,0:0:0:0:
52,216,73215,1,0,0:0:0:0:
59,303,73378,6,0,P|133:357|219:327,1,188.999994232178,4|4,0:0|0:0,0:0:0:0:
452,303,74357,2,0,P|378:357|292:327,1,188.999994232178,4|4,0:0|0:0,0:0:0:0:
236,260,75009,1,4,0:3:0:0:
192,184,75172,1,4,0:3:0:0:
236,108,75335,1,8,0:1:0:0:
396,32,75661,1,0,0:0:0:0:
440,108,75824,1,0,0:0:0:0:
392,180,75987,6,0,L|266:180,2,125.999996154785,4|0|8,0:3|0:0|0:1,0:0:0:0:
480,332,76965,1,0,0:0:0:0:
480,332,77128,1,8,0:1:0:0:
480,332,77291,2,0,P|419:343|362:318,1,125.999996154785,4|0,0:3|0:1,0:0:0:0:
292,264,77780,1,0,0:0:0:0:
292,264,77943,2,0,P|209:223|123:256,1,188.999994232178,8|4,0:1|0:3,0:0:0:0:
36,260,78596,6,0,P|14:201|22:139,1,125.999996154785,4|2,0:3|0:0,0:0:0:0:
96,88,79085,2,0,B|152:88|152:88|168:108|212:122,1,125.999996154785,2|0,0:0|0:0,0:0:0:0:
299,122,79574,2,0,B|344:108|360:88|360:88|416:88,1,125.999996154785,2|0,0:0|0:0,0:0:0:0:
492,132,80063,1,8,0:1:0:0:
476,220,80226,1,0,0:0:0:0:
315,287,80552,2,0,P|255:270|196:287,1,125.999996154785,8|0,0:1|0:0,0:0:0:0:
120,332,81041,1,4,0:3:0:0:
132,244,81204,6,0,P|120:182|131:120,1,125.999996154785,4|0,0:3|0:0,0:0:0:0:
200,64,81693,2,0,B|256:92|256:92|312:64,1,125.999996154785,2|2,0:0|0:0,0:0:0:0:
380,120,82183,2,0,P|391:182|380:244,2,125.999996154785,0|2|0,0:0|0:0|0:0,0:0:0:0:
312,64,82998,1,0,0:0:0:0:
232,27,83161,2,0,P|159:83|71:59,1,188.999994232178,8|4,0:1|0:3,0:0:0:0:
0,112,83813,6,0,P|19:171|23:234,1,125.999996154785,4|2,0:3|0:0,0:0:0:0:
36,320,84302,1,0,0:0:0:0:
100,260,84465,2,0,P|171:203|259:227,1,188.999994232178,8|0,0:1|0:0,0:0:0:0:
312,296,85117,2,0,P|333:318|360:335,2,62.9999980773926,2|2|0,0:3|0:3|0:0,0:0:0:0:
344,212,85607,1,0,0:0:0:0:
384,132,85770,1,2,0:3:0:0:
248,20,86096,1,4,0:3:0:0:
208,100,86259,1,4,0:3:0:0:
164,176,86422,6,0,P|136:214|96:238,2,94.499997116089,4|2|0,0:3|0:0|0:0,0:0:0:0:
220,108,87074,1,8,0:1:0:0:
256,28,87237,2,0,P|311:56|372:49,1,125.999996154785,2|0,0:0|0:0,0:0:0:0:
456,20,87726,2,0,B|476:80|440:80|456:143,2,125.999996154785,2|0|8,0:0|0:0|0:1,0:0:0:0:
280,44,88704,1,2,0:0:0:0:
208,92,88867,1,4,0:3:0:0:
136,143,89030,6,0,P|119:203|142:261,1,125.999996154785,4|0,0:3|0:0,0:0:0:0:
200,328,89520,2,0,B|256:300|256:300|312:328,1,125.999996154785,2|2,0:0|0:0,0:0:0:0:
369,261,90009,2,0,P|392:203|375:143,1,125.999996154785,0|2,0:0|0:0,0:0:0:0:
312,84,90498,2,0,B|256:112|256:112|200:84,1,125.999996154785,8|0,0:1|0:0,0:0:0:0:
120,40,90987,1,8,0:1:0:0:
20,184,91313,2,0,L|28:248,1,62.9999980773926,0|8,0:0|0:1,0:0:0:0:
88,312,91639,6,0,P|145:288|205:302,1,125.999996154785,4|2,0:3|0:0,0:0:0:0:
288,336,92128,2,0,P|348:350|405:326,1,125.999996154785,2|0,0:0|0:0,0:0:0:0:
456,256,92617,1,2,0:0:0:0:
480,172,92780,1,0,0:0:0:0:
452,88,92943,2,0,P|391:73|334:97,2,125.999996154785,2|2|8,0:0|0:0|0:1,0:0:0:0:
456,256,93922,2,0,L|464:324,1,62.9999980773926,0|4,0:0|0:3,0:0:0:0:
352,356,94248,6,0,P|344:325|350:295,3,62.9999980773926,4|4|4|4,0:3|0:3|0:3|0:3,0:0:0:0:
388,215,94900,2,0,P|414:158|423:96,1,125.999996154785,8|0,0:1|0:0,0:0:0:0:
396,12,95389,1,0,0:0:0:0:
324,64,95552,2,0,P|297:121|288:183,1,125.999996154785,2|0,0:0|0:0,0:0:0:0:
320,268,96041,2,0,P|316:299|299:325,1,62.9999980773926,2|0,0:0|0:0,0:0:0:0:
124,344,96530,1,2,0:0:0:0:
108,352,96857,6,0,P|116:289|99:229,1,125.999996154785,4|2,0:0|0:0,0:0:0:0:
28,180,97346,2,0,P|10:119|19:57,1,125.999996154785,2|0,0:0|0:0,0:0:0:0:
92,8,97835,1,2,0:0:0:0:
164,56,97998,1,4,0:3:0:0:
247,23,98161,2,0,P|297:60|358:56,1,125.999996154785,2|2,0:0|0:0,0:0:0:0:
433,103,98650,2,0,P|426:133|431:164,1,62.9999980773926,0|8,0:0|0:0,0:0:0:0:
480,237,98976,2,0,P|485:267|478:298,1,62.9999980773926,2|0,0:0|0:0,0:0:0:0:
400,344,99302,1,0,0:0:0:0:
312,256,99465,6,0,B|276:244|256:228|256:228|236:244|200:256,1,125.999996154785,4|4,0:0|0:3,0:0:0:0:
188,168,99954,2,0,L|208:108,1,62.9999980773926,2|8,0:0|0:0,0:0:0:0:
304,108,100280,2,0,L|324:168,1,62.9999980773926,0|2,0:0|0:0,0:0:0:0:
312,256,100607,1,0,0:0:0:0:
312,344,100770,2,0,B|276:356|256:372|256:372|236:356|200:344,1,125.999996154785,4|2,0:0|0:0,0:0:0:0:
144,276,101259,2,0,P|121:254|92:241,1,62.9999980773926,0|8,0:0|0:0,0:0:0:0:
16,196,101585,2,0,P|8:165|11:134,1,62.9999980773926,2|0,0:0|0:0,0:0:0:0:
176,72,102074,5,4,0:0:0:0:
176,72,102237,2,0,P|235:88|291:62,1,125.999996154785,2|0,0:0|0:0,0:0:0:0:
372,24,102726,2,2,B|388:84|360:84|379:148,1,125.999996154785,10|0,0:0|0:0,0:0:0:0:
444,208,103215,2,0,P|463:266|448:327,1,125.999996154785,2|4,0:0|0:3,0:0:0:0:
364,356,103704,1,4,0:3:0:0:
364,356,103867,2,0,L|238:356,1,125.999996154785,2|0,0:0|0:0,0:0:0:0:
168,300,104357,2,0,P|137:308|106:304,1,62.9999980773926,2|0,0:0|0:0,0:0:0:0:
36,252,104683,6,0,L|24:126,1,125.999996154785,4|4,0:0|0:3,0:0:0:0:
72,52,105172,1,2,0:0:0:0:
156,20,105335,2,0,L|167:145,1,125.999996154785,8|0,0:0|0:0,0:0:0:0:
231,206,105824,2,0,P|260:195|291:195,1,62.9999980773926,0|8,0:0|0:0,0:0:0:0:
234,298,106150,2,0,P|204:308|173:308,1,62.9999980773926,8|8,0:0|0:0,0:0:0:0:
72,240,106476,2,0,P|101:229|132:229,1,62.9999980773926,0|8,0:0|0:0,0:0:0:0:
240,316,106802,2,0,P|210:326|179:326,1,62.9999980773926,0|8,0:0|0:0,0:0:0:0:
92,324,107128,1,8,0:0:0:0:
72,240,107291,6,0,P|54:179|59:117,1,125.999996154785,4|2,0:0|0:0,0:0:0:0:
116,48,107780,1,0,0:0:0:0:
199,28,107943,2,0,P|227:42|258:46,1,62.9999980773926,8|0,0:0|0:0,0:0:0:0:
348,40,108270,1,2,0:0:0:0:
348,40,108433,2,0,P|366:100|359:163,1,125.999996154785,2|0,0:0|0:0,0:0:0:0:
283,208,108922,2,0,P|276:269|300:327,2,125.999996154785,2|8|2,0:0|0:0|0:0,0:0:0:0:
348,40,109900,5,4,0:0:0:0:
348,40,110226,1,4,0:3:0:0:
264,68,110389,2,0,P|208:96|147:86,1,125.999996154785,2|2,0:0|0:0,0:0:0:0:
68,125,110878,2,0,L|79:186,1,62.9999980773926,2|0,0:0|0:0,0:0:0:0:
128,260,111204,2,0,P|140:288|143:320,2,62.9999980773926,2|0|0,0:0|0:0|0:0,0:0:0:0:
56,308,111693,2,0,P|43:279|40:247,1,62.9999980773926,2|8,0:0|0:0,0:0:0:0:
96,80,112183,1,2,0:0:0:0:
96,80,112509,6,0,B|144:80|168:92|168:92|211:62,1,125.999996154785,4|4,0:0|0:3,0:0:0:0:
300,62,112998,2,0,B|344:92|344:92|368:80|416:80,1,125.999996154785,2|0,0:0|0:0,0:0:0:0:
491,123,113487,2,0,P|496:155|493:186,1,62.9999980773926,2|0,0:0|0:0,0:0:0:0:
440,256,113813,2,0,P|411:242|380:238,1,62.9999980773926,2|0,0:0|0:0,0:0:0:0:
308,288,114139,1,4,0:3:0:0:
235,339,114302,2,2,P|174:347|120:316,1,125.999996154785,2|0,0:0|0:0,0:0:0:0:
55,256,114791,2,0,P|81:237|111:228,1,62.9999980773926,2|0,0:0|0:0,0:0:0:0:
184,149,115117,6,0,P|200:122|212:93,1,62.9999980773926,4|0,0:3|0:0,0:0:0:0:
299,93,115443,2,0,P|311:122|328:149,1,62.9999980773926,2|0,0:0|0:0,0:0:0:0:
409,184,115770,2,0,P|421:213|426:243,2,62.9999980773926,8|0|0,0:0|0:0|0:0,0:0:0:0:
336,236,116259,2,0,P|324:265|308:290,2,62.9999980773926,0|2|0,0:0|0:0|0:0,0:0:0:0:
248,228,116748,2,0,P|220:243|191:253,2,62.9999980773926,2|0|8,0:0|0:0|0:0,0:0:0:0:
292,152,117237,1,0,0:0:0:0:
336,76,117400,1,2,0:0:0:0:
336,76,117726,5,4,0:0:0:0:
96,236,128161,6,0,L|89:183,2,52.5,0|2|0,0:0|0:3|0:0,0:0:0:0:
192,280,128813,1,2,0:3:0:0:
276,340,129139,1,2,0:3:0:0:
276,340,129302,1,0,0:0:0:0:
352,268,129628,1,2,0:3:0:0:
352,268,129791,2,0,L|334:164,1,105,0|2,0:0|0:3,0:0:0:0:
252,96,130443,1,0,0:0:0:0:
228,88,130607,1,2,0:3:0:0:
204,80,130770,6,0,L|224:236,2,157.5,0|2|2,0:0|0:3|0:3,0:0:0:0:
104,56,132074,1,0,0:0:0:0:
104,56,132237,1,2,0:3:0:0:
104,55,132400,2,0,P|96:107|113:156,1,105,0|2,0:0|0:3,0:0:0:0:
212,192,133052,1,0,0:0:0:0:
236,184,133215,1,2,0:3:0:0:
262,176,133378,6,0,B|352:188|320:132|410:143,2,157.5,0|2|2,0:0|0:3|0:3,0:0:0:0:
184,108,134683,2,0,L|190:55,2,52.5,0|2|0,0:0|0:3|0:0,0:0:0:0:
124,192,135335,1,2,0:3:0:0:
184,276,135661,1,0,0:0:0:0:
196,296,135824,1,2,0:3:0:0:
207,315,135987,6,0,P|277:283|348:314,2,157.5,4|2|2,0:3|0:3|0:3,0:0:0:0:
52,336,137454,1,2,0:3:0:0:
51,336,137617,2,0,P|31:288|35:236,1,105,0|2,0:0|0:3,0:0:0:0:
35,236,138107,1,4,0:3:0:0:
256,192,138270,12,2,139900,0:0:0:0:
472,208,140552,6,2,P|443:139|368:137,1,157.5,2|0,0:0|0:0,0:0:0:0:
280,152,141204,6,0,P|255:94|252:31,2,125.999996154785,4|4|8,0:0|0:3|0:0,0:0:0:0:
240,324,142183,1,2,0:0:0:0:
240,324,142346,2,0,P|179:307|119:322,1,125.999996154785,4|0,0:3|0:0,0:0:0:0:
44,280,142835,2,0,P|28:219|39:158,1,125.999996154785,4|8,0:3|0:0,0:0:0:0:
88,84,143324,1,0,0:0:0:0:
160,32,143487,2,0,P|186:49|216:55,1,62.9999980773926,2|0,0:0|0:0,0:0:0:0:
302,52,143813,6,0,P|388:20|466:68,2,188.999994232178,4|4|4,0:0|0:0|0:0,0:0:0:0:
236,108,144954,1,0,0:0:0:0:
176,172,145117,1,0,0:0:0:0:
92,195,145280,2,0,P|128:244|188:257,1,125.999996154785,2|0,0:0|0:0,0:0:0:0:
276,252,145770,2,0,P|327:217|388:226,1,125.999996154785,8|0,0:0|0:0,0:0:0:0:
472,256,146259,1,0,0:0:0:0:
412,320,146422,6,0,P|360:354|299:345,1,125.999996154785,4|0,0:0|0:0,0:0:0:0:
220,308,146911,1,2,0:0:0:0:
220,308,147074,2,0,L|94:308,1,125.999996154785,8|0,0:0|0:0,0:0:0:0:
32,244,147563,2,0,P|44:182|32:121,1,125.999996154785,2|0,0:0|0:0,0:0:0:0:
92,56,148052,2,0,P|119:71|149:79,1,62.9999980773926,2|0,0:0|0:0,0:0:0:0:
289,71,148378,2,0,P|262:55|232:48,1,62.9999980773926,8|0,0:0|0:0,0:0:0:0:
180,172,148704,2,0,P|207:187|237:195,1,62.9999980773926,2|0,0:0|0:0,0:0:0:0:
392,176,149030,5,4,0:0:0:0:
392,176,149357,2,0,P|402:205|401:236,1,62.9999980773926,2|0,0:0|0:0,0:0:0:0:
316,224,149683,2,0,P|310:254|294:281,1,62.9999980773926,10|0,0:0|0:0,0:0:0:0:
228,224,150009,2,0,P|208:248|180:262,1,62.9999980773926,2|0,0:0|0:0,0:0:0:0:
156,175,150335,2,0,P|126:185|95:183,2,62.9999980773926,2|0|0,0:0|0:0|0:0,0:0:0:0:
196,96,150824,1,2,0:0:0:0:
271,56,150987,2,10,P|354:20|428:72,1,188.999994232178,10|0,0:0|0:0,0:0:0:0:
468,148,151639,6,0,P|487:207|475:268,1,125.999996154785,4|4,0:0|0:3,0:0:0:0:
396,304,152128,1,0,0:0:0:0:
320,348,152291,2,0,P|291:334|260:331,1,62.9999980773926,8|0,0:0|0:0,0:0:0:0:
172,344,152617,1,2,0:0:0:0:
172,344,152780,2,0,P|117:372|59:354,1,125.999996154785,4|0,0:3|0:0,0:0:0:0:
52,268,153270,2,0,P|106:239|164:257,1,125.999996154785,4|8,0:3|0:0,0:0:0:0:
252,268,153759,2,0,P|282:276|313:272,1,62.9999980773926,2|0,0:0|0:0,0:0:0:0:
384,220,154085,1,0,0:0:0:0:
464,184,154248,6,0,L|440:56,1,125.999996154785,4|0,0:0|0:0,0:0:0:0:
360,96,154737,2,0,L|383:219,1,125.999996154785,4|0,0:0|0:0,0:0:0:0:
456,272,155226,2,0,P|457:303|447:332,1,62.9999980773926,4|0,0:0|0:0,0:0:0:0:
364,356,155552,1,2,0:0:0:0:
364,356,155715,2,2,P|310:328|250:343,1,125.999996154785,2|0,0:0|0:0,0:0:0:0:
164,356,156204,2,0,P|104:371|49:342,1,125.999996154785,8|0,0:1|0:0,0:0:0:0:
4,268,156693,1,0,0:0:0:0:
56,196,156857,6,0,P|115:180|170:209,1,125.999996154785,4|0,0:3|0:0,0:0:0:0:
243,255,157346,2,0,P|270:273|300:283,1,62.9999980773926,2|8,0:0|0:0,0:0:0:0:
388,284,157672,1,0,0:0:0:0:
464,239,157835,2,0,P|480:180|460:121,1,125.999996154785,2|2,0:0|0:0,0:0:0:0:
412,48,158324,2,0,B|380:64|360:88|360:88|301:80,1,125.999996154785,0|2,0:0|0:0,0:0:0:0:
210,80,158813,2,0,B|152:88|152:88|132:64|100:48,1,125.999996154785,8|0,0:0|0:0,0:0:0:0:
12,32,159302,1,0,0:0:0:0:
8,120,159465,6,0,L|1:182,1,62.9999980773926,4|0,0:3|0:0,0:0:0:0:
84,208,159791,2,0,L|96:269,1,62.9999980773926,4|0,0:3|0:0,0:0:0:0:
168,324,160117,2,0,B|232:308|232:344|292:328,1,125.999996154785,8|0,0:0|0:0,0:0:0:0:
364,276,160607,2,0,L|375:214,1,62.9999980773926,4|0,0:3|0:0,0:0:0:0:
456,180,160933,2,0,L|436:120,1,62.9999980773926,8|0,0:0|0:0,0:0:0:0:
360,76,161259,1,8,0:3:0:0:
280,39,161422,2,0,P|251:52|219:56,1,62.9999980773926,8|0,0:1|0:0,0:0:0:0:
75,48,161748,2,0,P|104:35|136:32,1,62.9999980773926,8|0,0:0|0:0,0:0:0:0:
168,152,162074,5,4,0:0:0:0:
