osu file format v13

[General]
AudioFilename: Alligator Skymp3.mp3
AudioLeadIn: 0
PreviewTime: 140552
Countdown: 0
SampleSet: Soft
StackLeniency: 0.7
Mode: 0
LetterboxInBreaks: 0
EpilepsyWarning: 1
WidescreenStoryboard: 1

[Editor]
DistanceSpacing: 1
BeatDivisor: 8
GridSize: 4
TimelineZoom: 1

[Metadata]
Title:Alligator Sky ft. Shawn Chrystopher
TitleUnicode:Alligator Sky ft. Shawn Chrystopher
Artist:Owl City
ArtistUnicode:Owl City
Creator:mancuso_JM_
Version:Easy
Source:
Tags:Adam Young Album version All Things Bright and Beautiful mancusojuanmattos XinCrin
BeatmapID:524276
BeatmapSetID:224647

[Difficulty]
HPDrainRate:2
CircleSize:3
OverallDifficulty:2
ApproachRate:3
SliderMultiplier:1.5
SliderTickRate:2

[Events]
//Background and Video events
0,0,"Sky.jpg",0,0
//Break Periods
2,23813,24982
2,117925,126721
//Storyboard Layer 0 (Background)
//Storyboard Layer 1 (Fail)
//Storyboard Layer 2 (Pass)
//Storyboard Layer 3 (Foreground)
//Storyboard Sound Samples
//Background Colour Transformations
3,100,163,162,255

[TimingPoints]
2944,652.173913043478,4,2,0,65,1,0
2944,-100,4,2,0,65,0,0
5552,-100,4,2,0,40,0,0
5634,-100,4,2,0,65,0,0
10770,-100,4,2,0,40,0,0
10851,-100,4,2,0,65,0,0
12400,-100,4,2,0,40,0,0
12482,-100,4,2,0,65,0,0
22509,-100,4,2,0,35,0,0
23813,-90.9090909090909,4,2,0,85,0,0
34248,-90.9090909090909,4,2,0,80,0,0
55117,-90.9090909090909,4,2,0,80,0,1
58215,-90.9090909090909,4,2,0,70,0,1
58297,-90.9090909090909,4,2,0,80,0,1
58704,-90.9090909090909,4,2,0,70,0,1
58786,-90.9090909090909,4,2,0,80,0,1
60987,-90.9090909090909,4,2,0,65,0,1
61068,-90.9090909090909,4,2,0,80,0,1
63433,-90.9090909090909,4,2,0,70,0,1
63514,-90.9090909090909,4,2,0,80,0,1
63922,-90.9090909090909,4,2,0,70,0,1
64003,-90.9090909090909,4,2,0,80,0,1
64411,-90.9090909090909,4,2,0,70,0,1
64492,-90.9090909090909,4,2,0,80,0,1
68650,-90.9090909090909,4,2,0,70,0,1
68732,-90.9090909090909,4,2,0,80,0,1
69139,-90.9090909090909,4,2,0,70,0,1
69221,-90.9090909090909,4,2,0,80,0,1
70117,-90.9090909090909,4,2,0,65,0,1
70199,-90.9090909090909,4,2,0,80,0,1
73378,-90.9090909090909,4,2,0,70,0,1
75009,-90.9090909090909,4,2,0,80,0,1
75987,-90.9090909090909,4,2,0,80,0,0
100770,-90.9090909090909,4,2,0,65,0,0
100851,-90.9090909090909,4,2,0,80,0,0
128161,-100,4,2,0,70,0,0
138922,-100,4,2,0,65,0,0
139574,-100,4,2,0,50,0,0
139900,-100,4,2,0,35,0,0
141204,-90.9090909090909,4,2,0,80,0,1
144302,-90.9090909090909,4,2,0,70,0,1
144384,-90.9090909090909,4,2,0,80,0,1
144791,-90.9090909090909,4,2,0,70,0,1
144954,-90.9090909090909,4,2,0,80,0,1
154737,-90.9090909090909,4,2,0,70,0,1
154818,-90.9090909090909,4,2,0,80,0,1
155226,-90.9090909090909,4,2,0,70,0,1
155308,-90.9090909090909,4,2,0,80,0,1
159954,-90.9090909090909,4,2,0,70,0,1
160036,-90.9090909090909,4,2,0,80,0,1
160443,-90.9090909090909,4,2,0,70,0,1
160525,-90.9090909090909,4,2,0,80,0,1
160933,-90.9090909090909,4,2,0,70,0,1
161014,-90.9090909090909,4,2,0,80,0,1
161992,-90.9090909090909,4,2,0,80,0,0
162074,-90.9090909090909,4,2,0,80,0,1
162155,-90.9090909090909,4,2,0,80,0,0

[Colours]
Combo1 : 79,79,255
Combo2 : 0,128,128
Combo3 : 0,64,128

[HitObjects]
488,184,2944,6,0,P|429:228|356:225,1,150,2|0,0:0|0:0,0:0:0:0:
244,184,4248,2,0,P|185:138|111:134,1,150,2|0,0:0|0:0,0:0:0:0:
36,216,5552,2,0,P|0:114|68:31,2,225,4|2|0,0:0|0:0|0:0,0:0:0:0:
144,268,8161,5,2,0:0:0:0:
256,220,8813,2,0,B|236:144|276:148|256:72,2,150,0|2|0,0:0|0:0|0:0,0:0:0:0:
327,356,10770,2,0,P|255:221|184:356,1,375,4|4,0:0|0:0,0:0:0:0:
421,296,13378,6,0,P|399:226|349:170,1,150,4|2,0:3|0:3,0:0:0:0:
256,96,14683,2,0,B|264:56|252:56|255:21,2,75,4|4|2,0:3|0:3|0:3,0:0:0:0:
162,170,15987,2,0,P|112:226|90:296,1,150,4|2,0:3|0:3,0:0:0:0:
196,356,17291,2,0,P|245:300|268:229,1,150,4|2,0:3|0:3,0:0:0:0:
256,112,18596,5,4,0:3:0:0:
256,192,19900,12,0,22509,0:0:0:0:
184,272,26422,6,0,B|236:276|256:242|256:242|276:276|328:272,1,165.000005035401,4|8,0:3|0:0,0:0:0:0:
328,112,27726,2,0,B|276:108|256:142|256:142|236:108|184:112,1,165.000005035401,2|8,0:0|0:0,0:0:0:0:
104,140,28704,1,2,0:0:0:0:
48,203,29030,2,0,P|36:263|58:320,2,123.75000377655,4|2|2,0:0|0:0|0:0,0:0:0:0:
144,68,30661,2,0,P|200:91|260:81,1,123.75000377655,2|2,0:0|0:0,0:0:0:0:
380,108,31639,6,0,P|376:148|386:188,1,82.5000025177003,4|0,0:3|0:0,0:0:0:0:
456,232,32291,2,0,P|466:271|462:312,1,82.5000025177003,8|0,0:0|0:0,0:0:0:0:
392,356,32943,2,0,P|332:339|273:353,2,123.75000377655,2|2|2,0:0|0:0|0:0,0:0:0:0:
472,335,34248,6,0,P|492:257|469:178,1,165.000005035401,4|8,0:0|0:1,0:0:0:0:
328,92,35552,2,0,B|276:88|256:122|256:122|236:88|184:92,1,165.000005035401,2|8,0:0|0:0,0:0:0:0:
40,168,36857,2,0,L|51:291,2,123.75000377655,4|2|2,0:0|0:0|0:0,0:0:0:0:
68,92,38161,2,0,P|105:107|146:106,1,82.5000025177003,2|4,0:0|0:3,0:0:0:0:
220,68,38813,2,0,P|257:52|298:53,1,82.5000025177003,8|2,0:0|0:0,0:0:0:0:
364,104,39465,6,0,L|374:227,2,123.75000377655,4|2|2,0:0|0:0|0:0,0:0:0:0:
200,84,41096,2,0,L|210:207,1,123.75000377655,2|2,0:0|0:0,0:0:0:0:
127,299,42074,2,0,P|88:288|47:291,2,82.5000025177003,4|0|8,0:0|0:0|0:1,0:0:0:0:
200,344,43052,2,0,P|239:355|280:352,1,82.5000025177003,2|0,0:0|0:0,0:0:0:0:
360,328,43704,1,2,0:0:0:0:
424,276,44030,6,0,P|447:198|416:124,1,165.000005035401,2|4,0:0|0:0,0:0:0:0:
256,84,45335,1,8,0:0:0:0:
96,123,45987,2,0,P|64:198|88:276,1,165.000005035401,2|8,0:0|0:0,0:0:0:0:
248,319,47291,2,0,P|305:299|364:313,2,123.75000377655,4|2|0,0:0|0:0|0:0,0:0:0:0:
180,276,48596,2,0,P|191:194|174:114,1,165.000005035401,2|8,0:0|0:0,0:0:0:0:
12,136,49900,6,0,P|4:197|20:256,2,123.75000377655,4|2|0,0:0|0:0|0:0,0:0:0:0:
140,32,51530,2,0,P|196:54|257:47,1,123.75000377655,2|2,0:0|0:0,0:0:0:0:
380,68,52509,2,0,L|393:149,2,82.5000025177003,4|0|8,0:0|0:0|0:0,0:0:0:0:
224,120,53813,2,0,L|210:38,2,82.5000025177003,2|0|8,0:0|0:0|0:0,0:0:0:0:
336,240,55117,6,0,B|286:227|256:249|221:274|176:257,2,165.000005035401,4|8|2,0:0|0:0|0:0,0:0:0:0:
476,152,57074,1,8,0:0:0:0:
313,122,57726,2,0,P|256:143|199:121,2,123.75000377655,4|4|4,0:0|0:0|0:0,0:0:0:0:
392,140,59030,2,0,L|402:220,2,82.5000025177003,2|4|8,0:0|0:3|0:1,0:0:0:0:
256,47,60335,6,0,P|179:23|107:59,1,165.000005035401,4|8,0:0|0:1,0:0:0:0:
124,224,61639,2,0,P|200:248|272:212,1,165.000005035401,2|8,0:0|0:0,0:0:0:0:
420,140,62943,2,0,L|449:260,3,123.75000377655,4|4|4|4,0:0|0:0|0:0|0:0,0:0:0:0:
356,340,64900,1,8,0:1:0:0:
192,324,65552,6,0,P|145:215|221:125,2,247.500007553101,4|2|8,0:0|0:0|0:0,0:0:0:0:
352,360,68161,2,0,L|476:368,2,123.75000377655,4|4|4,0:0|0:0|0:0,0:0:0:0:
280,319,69465,2,0,P|215:368|136:356,1,165.000005035401,2|8,0:0|0:1,0:0:0:0:
48,216,70770,6,0,L|59:51,1,165.000005035401,4|8,0:3|0:0,0:0:0:0:
224,36,72074,2,0,L|212:200,1,165.000005035401,2|8,0:0|0:0,0:0:0:0:
376,232,73378,2,0,L|387:109,3,123.75000377655,4|4|4|4,0:0|0:0|0:0|0:0,0:0:0:0:
280,44,75335,1,8,0:1:0:0:
135,124,75987,6,0,P|43:241|155:339,1,330.000010070801,4|2,0:3|0:0,0:0:0:0:
256,208,77943,1,8,0:1:0:0:
356,339,78596,2,0,P|468:241|376:124,2,330.000010070801,4|2|4,0:3|0:0|0:3,0:0:0:0:
256,208,81857,5,8,0:1:0:0:
184,59,82509,2,0,P|256:25|328:59,1,165.000005035401,2|8,0:0|0:1,0:0:0:0:
324,224,83813,2,0,B|272:236|256:266|256:266|240:236|188:224,2,165.000005035401,4|8|2,0:3|0:1|0:3,0:0:0:0:
484,192,85770,1,2,0:3:0:0:
330,124,86422,6,0,P|256:93|182:124,1,165.000005035401,4|8,0:3|0:1,0:0:0:0:
96,265,87726,2,0,P|61:242|35:211,2,82.5000025177003,2|0|8,0:0|0:0|0:1,0:0:0:0:
251,324,89030,2,0,P|345:251|453:299,2,247.500007553101,4|2|8,0:3|0:0|0:1,0:0:0:0:
87,359,91639,6,0,P|64:282|82:202,1,165.000005035401,4|8,0:3|0:1,0:0:0:0:
180,68,92943,2,0,B|256:100|256:100|332:68,1,165.000005035401,2|8,0:0|0:1,0:0:0:0:
496,60,94248,2,0,L|504:142,2,82.5000025177003,4|4|8,0:3|0:3|0:1,0:0:0:0:
332,68,95552,2,0,L|346:190,2,123.75000377655,2|2|0,0:0|0:0|0:0,0:0:0:0:
256,31,96857,6,0,P|187:75|108:62,2,165.000005035401,4|8|2,0:0|0:0|0:0,0:0:0:0:
420,40,98813,2,0,P|435:78|460:112,1,82.5000025177003,8|0,0:0|0:0,0:0:0:0:
500,184,99465,2,0,P|476:240|426:274,2,123.75000377655,4|2|0,0:0|0:0|0:0,0:0:0:0:
459,111,100770,2,0,P|435:78|420:40,2,82.5000025177003,4|2|8,0:0|0:0|0:0,0:0:0:0:
508,268,102074,5,4,0:0:0:0:
348,304,102726,2,0,P|290:324|230:310,2,123.75000377655,8|2|0,0:0|0:0|0:0,0:0:0:0:
420,260,104030,2,0,L|386:98,1,165.000005035401,8|4,0:0|0:0,0:0:0:0:
228,64,105335,2,0,L|261:225,1,165.000005035401,8|2,0:0|0:0,0:0:0:0:
232,304,106313,2,0,P|195:285|155:276,2,82.5000025177003,2|8|0,0:0|0:0|0:0,0:0:0:0:
304,348,107291,5,4,0:0:0:0:
456,300,107943,2,0,P|468:239|448:182,2,123.75000377655,8|2|2,0:0|0:0|0:0,0:0:0:0:
388,348,109248,2,0,L|305:348,1,82.5000025177003,8|2,0:0|0:0,0:0:0:0:
235,307,109900,6,0,P|168:264|90:282,2,165.000005035401,4|8|2,0:0|0:0|0:0,0:0:0:0:
392,364,111857,1,8,0:0:0:0:
492,232,112509,2,0,P|414:206|357:147,1,165.000005035401,4|8,0:0|0:0,0:0:0:0:
264,11,113813,2,0,P|207:70|129:96,1,165.000005035401,2|8,0:0|0:0,0:0:0:0:
140,260,115117,6,0,P|256:358|372:260,2,330.000010070801,4|2|4,0:0|0:0|0:0,0:0:0:0:
83,259,128161,6,0,B|115:291|111:327|111:327|147:319|182:336,1,150,4|2,0:3|0:3,0:0:0:0:
330,336,129465,2,0,B|365:319|401:327|401:327|397:291|429:259,1,150,0|2,0:0|0:3,0:0:0:0:
429,108,130770,2,0,P|377:85|342:42,2,112.5,4|2|2,0:3|0:3|0:3,0:0:0:0:
496,75,132074,2,0,P|468:144|482:217,1,150,2|2,0:3|0:3,0:0:0:0:
420,356,133378,6,0,L|336:348,2,75,4|0|2,0:3|0:0|0:3,0:0:0:0:
492,223,134683,2,0,P|503:169|488:116,2,112.5,2|2|0,0:3|0:3|0:0,0:0:0:0:
448,284,135987,2,0,P|420:235|372:206,2,112.5,2|2|2,0:3|0:3|0:3,0:0:0:0:
310,351,137617,2,0,B|256:336|256:336|202:351,1,112.5,2|2,0:3|0:3,0:0:0:0:
256,192,138270,12,2,139900,0:0:0:0:
256,288,141204,6,0,B|308:288|308:288|352:320|352:320|409:320,2,165.000005035401,4|8|2,0:0|0:0|0:0,0:0:0:0:
108,360,143161,1,8,0:0:0:0:
32,212,143813,2,0,L|24:88,2,123.75000377655,4|4|4,0:0|0:0|0:0,0:0:0:0:
80,280,145117,2,0,P|106:248|142:228,1,82.5000025177003,2|4,0:0|0:3,0:0:0:0:
224,220,145770,1,8,0:1:0:0:
387,232,146422,6,0,P|407:153|370:81,2,165.000005035401,4|8|2,0:0|0:0|0:0,0:0:0:0:
256,332,148378,1,8,0:0:0:0:
124,232,149030,2,0,P|104:153|141:81,2,165.000005035401,4|8|2,0:0|0:0|0:0,0:0:0:0:
256,332,150987,1,10,0:0:0:0:
407,264,151639,6,0,P|430:149|331:87,2,247.500007553101,4|2|8,0:0|0:0|0:0,0:0:0:0:
268,352,154248,2,0,L|144:364,2,123.75000377655,4|4|4,0:0|0:0|0:0,0:0:0:0:
324,288,155552,2,0,P|394:327|471:304,1,165.000005035401,2|8,0:0|0:1,0:0:0:0:
484,140,156857,6,0,P|413:100|336:123,1,165.000005035401,4|8,0:3|0:0,0:0:0:0:
216,239,158161,2,0,P|152:280|64:256,1,165.000005035401,2|8,0:0|0:0,0:0:0:0:
69,95,159465,2,0,P|122:64|183:55,3,123.75000377655,4|4|4|4,0:0|0:0|0:0|0:0,0:0:0:0:
299,95,161422,2,0,P|367:139|446:120,1,165.000005035401,8|4,0:1|0:0,0:0:0:0:
