osu file format v12

[General]
AudioFilename: Good Time.mp3
AudioLeadIn: 0
PreviewTime: 160203
Countdown: 1
SampleSet: Normal
StackLeniency: 0.7
Mode: 0
LetterboxInBreaks: 1

[Editor]
Bookmarks: 15918,16394,16870,17822,18775,19727,20680,21632,22584,23537,24489,25442,26394,27346,28299,29251,30203,31156,32108,33061,100203,100680,101156,101632,102108,102584,103061,103537,104013,104489,104965,105441,105918,106394,106870,107346,107822,108299,108775,109251,109727,110203
DistanceSpacing: 1.1
BeatDivisor: 1
GridSize: 4

[Metadata]
Title:Good Time
TitleUnicode:Good Time
Artist:Owl City & Carly Rae Jepsen
ArtistUnicode:Owl City & Carly Rae Jepsen
Creator:Haruhi_sama
Version:Moring
Source:
Tags:adam young
BeatmapID:266511
BeatmapSetID:100437

[Difficulty]
HPDrainRate:4
CircleSize:4
OverallDifficulty:5
ApproachRate:7
SliderMultiplier:1.8
SliderTickRate:2

[Events]
//Background and Video events
0,0,"penis.jpg",0,0
//Break Periods
2,76594,83113
//Storyboard Layer 0 (Background)
//Storyboard Layer 1 (Fail)
//Storyboard Layer 2 (Pass)
//Storyboard Layer 3 (Foreground)
//Storyboard Sound Samples
//Background Colour Transformations
3,100,163,162,255

[TimingPoints]
15442,476.190476190476,4,2,1,80,1,0
30203,-200,4,2,1,80,0,0
30680,-100,4,2,1,80,0,0
46156,-200,4,2,1,80,0,0
51989,-100,4,2,3,60,0,0
52227,-200,4,2,1,80,0,0
53537,-133.333333333333,4,2,1,80,0,0
56994,-100,4,2,1,80,0,0
60249,-100,4,2,1,5,0,0
61156,-100,4,1,1,80,0,1
74013,-200,4,1,1,80,0,1
74489,-100,4,1,1,80,0,1
75918,-100,4,1,1,80,0,0
76394,-100,4,2,1,80,0,0
84370,-100,4,2,2,40,0,0
84608,-100,4,2,1,80,0,0
99251,-200,4,2,1,80,0,0
99360,-200,4,2,2,80,0,0
102465,-200,4,2,1,5,0,0
102703,-200,4,2,1,80,0,0
102751,-200,4,2,2,80,0,0
105323,-200,4,2,3,60,0,0
105561,-200,4,2,1,80,0,0
106870,-133.333333333333,4,2,1,80,0,0
114489,-100,4,1,1,80,0,1
129251,-100,4,1,1,80,0,0
129727,-100,4,1,1,80,0,1
144489,-100,4,1,1,80,0,0
144965,-200,4,2,1,80,0,0
152320,-133.333333333333,4,2,1,80,0,0
156394,-105.263157894737,4,2,1,80,0,0
158299,-100,4,1,1,10,0,0
158537,-100,4,1,1,20,0,0
158775,-100,4,1,1,30,0,0
159013,-100,4,1,1,40,0,0
159251,-100,4,1,1,50,0,0
159727,-100,4,1,1,70,0,0
160204,-100,4,1,1,80,0,1
174965,-100,4,1,1,80,0,0
175442,-100,4,1,1,80,0,1
182585,-100,4,1,1,80,0,0
183061,-100,4,1,1,80,0,1
190204,-100,4,2,1,80,0,0

[Colours]
Combo1 : 255,255,255
Combo2 : 255,0,0
Combo3 : 242,183,60
Combo4 : 0,128,255

[HitObjects]
180,84,15442,2,0,P|168:156|76:192,1,180,0|8,0:0|0:0,0:0:0:0:
100,104,16156,1,0,0:0:0:0:
100,104,16394,2,0,L|204:252,1,180,0|8,0:0|0:0,0:0:0:0:
256,324,17108,1,0,0:0:0:0:
168,328,17346,2,0,B|100:328|52:280|56:212,2,180,0|8|0,0:0|0:0|0:0,0:0:0:0:
256,324,18537,1,0,0:0:0:0:
344,328,18775,1,8,0:0:0:0:
460,192,19251,5,0,0:0:0:0:
168,52,19727,1,8,0:0:0:0:
212,128,19965,1,0,0:0:0:0:
124,128,20203,2,0,B|60:128|12:188|40:256,2,180,0|8|0,0:0|0:0|0:0,0:0:0:0:
168,352,21632,5,8,0:0:0:0:
192,264,21870,1,0,0:0:0:0:
256,200,22108,1,8,0:0:0:0:
320,264,22346,1,0,0:0:0:0:
344,352,22584,1,8,0:0:0:0:
424,192,23061,6,0,P|400:144|296:80,1,180,0|8,0:0|0:0,0:0:0:0:
208,112,23775,1,0,0:0:0:0:
120,136,24013,2,0,L|24:136,2,90,0|0|8,0:0|0:0|0:0,0:0:0:0:
56,304,24965,5,0,0:0:0:0:
120,136,25442,1,8,0:0:0:0:
256,16,25918,1,0,0:0:0:0:
392,136,26394,1,8,0:0:0:0:
456,304,26870,1,4,0:0:0:0:
256,192,27108,12,0,28775,0:0:0:0:
164,80,29251,5,8,0:0:0:0:
212,160,29489,1,0,0:0:0:0:
300,160,29727,1,0,0:0:0:0:
348,80,29965,1,0,0:0:0:0:
256,236,30203,2,0,L|256:328|256:328,1,90,8|0,0:0|0:0,0:0:0:0:
168,328,30918,5,0,0:0:0:0:
88,288,31156,2,0,P|32:224|48:136,1,180,8|0,0:0|0:0,0:0:0:0:
136,168,31870,1,0,0:0:0:0:
48,136,32108,2,0,P|112:80|120:0,2,90,8|0|0,0:0|0:0|0:0,0:0:0:0:
256,304,33061,1,8,0:0:0:0:
376,168,33537,1,0,0:0:0:0:
376,80,33775,2,8,P|328:72|304:40,1,90,8|8,0:0|0:0,0:0:0:0:
204,192,34489,6,0,P|120:192|68:120,1,180,0|8,0:0|0:0,0:0:0:0:
156,124,35203,1,0,0:0:0:0:
156,124,35442,2,0,L|52:280,1,180,0|8,0:0|0:0,0:0:0:0:
128,328,36156,1,0,0:0:0:0:
128,328,36394,2,0,P|204:324|276:252,1,180,0|8,0:0|0:0,0:0:0:0:
444,192,37346,2,0,L|444:96,1,90
364,60,37822,2,0,L|364:168,1,90,8|8,0:0|0:0,0:0:0:0:
288,192,38299,1,0,0:0:0:0:
156,64,38775,6,0,B|128:108|32:112|32:112|48:192,2,180,8|0|8,0:0|0:0|0:0,0:0:0:0:
152,244,40203,1,0,0:0:0:0:
256,96,40680,1,8,0:0:0:0:
420,148,41156,1,0,0:0:0:0:
420,148,41394,1,0,0:0:0:0:
420,148,41632,1,8,0:0:0:0:
436,328,42108,6,0,L|76:328,1,360
72,236,43299,1,0,0:0:0:0:
72,236,43537,1,8,0:0:0:0:
256,192,44013,12,4,45442,0:0:0:0:
256,192,45918,5,0,0:0:0:0:
256,192,46394,6,0,P|216:148|144:128,1,135
84,192,47346,2,0,L|64:280,1,90
328,348,48537,2,0,P|392:336|420:276,1,135,0|0,0:0|0:0,0:0:0:0:
468,192,49727,1,0,0:0:0:0:
464,92,50203,2,0,P|440:48|360:40,1,135
376,136,51394,2,0,P|320:144|280:84,1,135
240,52,52346,2,0,B|192:52|144:88|144:128,1,135,0|8,0:0|0:0,0:0:0:0:
68,192,53537,5,0,0:0:0:0:
160,308,54013,1,8,0:0:0:0:
68,192,54489,2,0,P|68:264|8:300,2,135.000005149842,0|8|0,0:0|0:0|0:0,0:0:0:0:
168,84,55918,1,8,0:0:0:0:
168,84,56156,1,0,0:0:0:0:
408,88,56632,2,0,L|340:88,1,67.5000025749208,0|8,0:0|0:0,0:0:0:0:
208,344,57346,5,8,0:0:0:0:
200,248,57584,1,0,0:0:0:0:
200,152,57822,1,8,0:0:0:0:
256,72,58061,1,0,0:0:0:0:
312,152,58299,1,8,0:0:0:0:
312,248,58537,1,0,0:0:0:0:
312,344,58775,1,8,0:0:0:0:
104,192,59251,5,2,0:0:0:0:
408,192,59727,1,2,0:0:0:0:
312,344,60203,2,0,L|176:344,2,135,2|2|2,0:0|0:0|0:0,0:0:0:0:
412,344,61156,5,0,0:0:0:0:
256,224,61632,1,8,0:0:0:0:
420,112,62108,2,0,P|356:48|268:36,1,180,0|8,0:0|0:0,0:0:0:0:
104,144,63061,1,0,0:0:0:0:
20,324,63537,2,0,P|60:336|108:320,2,90,8|0|0,0:0|0:0|0:0,0:0:0:0:
64,236,64251,1,0,0:0:0:0:
64,236,64489,1,8,0:0:0:0:
268,196,64965,6,0,L|176:196|104:144,1,180,0|8,0:0|0:0,0:0:0:0:
176,76,65680,1,0,0:0:0:0:
80,52,65918,2,0,P|52:24|0:16,2,90,0|0|8,0:0|0:0|0:0,0:0:0:0:
276,44,66870,5,0,0:0:0:0:
428,168,67346,1,8,0:0:0:0:
280,296,67822,1,0,0:0:0:0:
184,268,68061,1,0,0:0:0:0:
168,364,68299,2,0,P|56:352|60:272,1,180,8|0,0:0|0:0,0:0:0:0:
24,108,69251,5,8,0:0:0:0:
208,40,69727,1,0,0:0:0:0:
352,172,70203,1,8,0:0:0:0:
352,172,70441,2,0,P|352:216|320:256,1,90
416,76,71156,1,8,0:0:0:0:
432,272,71632,2,0,P|444:336|476:376,2,90,0|8|8,0:0|0:0|0:0,0:0:0:0:
208,112,72584,6,0,L|208:16,1,90,8|0,0:0|0:0,0:0:0:0:
304,112,73061,2,0,L|416:112,1,90,8|0,0:0|0:0,0:0:0:0:
304,192,73537,2,0,L|304:288,1,90,8|0,0:0|0:0,0:0:0:0:
208,192,74013,2,0,L|116:192|116:192,1,90,8|0,0:0|0:0,0:0:0:0:
28,232,74727,2,0,L|32:344,2,90,0|8|0,0:0|0:0|0:0,0:0:0:0:
52,136,75441,2,0,B|76:88|128:56|188:64,2,135,2|0|0,0:0|0:0|0:0,0:0:0:0:
52,136,76394,1,4,0:0:0:0:
24,192,84013,5,0,0:0:0:0:
24,192,84251,1,0,0:0:0:0:
64,100,84489,2,0,B|116:76|192:100|188:184,2,180,8|0|8,0:0|0:0|0:0,0:0:0:0:
256,336,85918,1,0,0:0:0:0:
256,336,86394,2,0,L|156:336,1,90,8|0,0:0|0:0,0:0:0:0:
212,252,86870,2,0,L|308:252,2,90,0|8|8,0:0|0:0|0:0,0:0:0:0:
488,192,87822,5,0,0:0:0:0:
488,192,88060,1,0,0:0:0:0:
448,100,88298,2,0,B|396:76|320:100|324:184,2,180,8|0|8,0:0|0:0|0:0,0:0:0:0:
448,336,89727,1,0,0:0:0:0:
256,288,90203,1,8,0:0:0:0:
64,336,90680,1,0,0:0:0:0:
160,304,90918,1,8,0:0:0:0:
256,288,91156,1,8,0:0:0:0:
352,304,91394,1,0,0:0:0:0:
448,336,91632,5,0,0:0:0:0:
464,140,92108,2,0,P|432:188|316:192,2,180,8|0|8,0:0|0:0|0:0,0:0:0:0:
436,44,93299,1,0,0:0:0:0:
348,88,93537,2,0,P|284:52|180:76,1,180,0|8,0:0|0:0,0:0:0:0:
92,112,94251,1,0,0:0:0:0:
24,184,94489,2,0,B|-4:260|40:332|136:320,1,180,0|8,0:0|0:0,0:0:0:0:
184,276,95203,1,8,0:0:0:0:
256,192,95441,12,0,96870,0:0:0:0:
256,80,97346,5,0,0:0:0:0:
208,208,97584,1,0,0:0:0:0:
328,128,97822,1,8,0:0:0:0:
184,128,98061,1,0,0:0:0:0:
304,208,98299,1,8,0:0:0:0:
168,336,98775,6,0,B|224:336|224:336|288:296|288:296|344:296,1,180,8|4,0:0|0:0,0:0:0:0:
104,192,99965,5,0,0:0:0:0:
132,152,100203,1,8,0:0:0:0:
144,104,100441,2,0,L|136:60,1,45,0|8,0:0|0:0,0:0:0:0:
88,44,100918,2,0,P|32:28|4:92,1,135,0|8,0:0|0:0,0:0:0:0:
28,132,101870,2,0,L|-8:288,1,135
392,344,103775,5,0,0:0:0:0:
432,320,104013,1,8,0:0:0:0:
464,288,104251,2,0,L|480:240,1,45,0|8,0:0|0:0,0:0:0:0:
472,192,104727,2,0,P|456:144|384:152,1,135,0|0,0:0|0:0,0:0:0:0:
392,200,105680,2,0,P|368:248|304:224,1,135
256,84,106870,5,8,0:0:0:0:
112,128,107346,1,8,0:0:0:0:
48,88,107584,2,0,P|32:64|16:16,2,67.5000025749208,0|8|0,0:0|0:0|0:0,0:0:0:0:
112,128,108299,2,0,P|128:160|136:208,1,67.5000025749208,8|0,0:0|0:0,0:0:0:0:
104,256,108775,2,0,P|112:328|184:344,1,135.000005149842,8|8,0:0|0:0,0:0:0:0:
232,320,109489,2,0,P|256:248|248:184,1,135.000005149842
256,120,110203,1,8,0:0:0:0:
400,96,110680,5,8,0:0:0:0:
448,160,110918,1,0,0:0:0:0:
400,224,111156,1,8,0:0:0:0:
448,288,111394,1,0,0:0:0:0:
400,352,111632,2,8,L|320:352,2,67.5000025749208
256,192,112584,12,0,114013,0:0:0:0:
80,192,114489,5,0,0:0:0:0:
104,96,114727,1,0,0:0:0:0:
200,112,114965,1,8,0:0:0:0:
176,208,115203,1,0,0:0:0:0:
80,192,115441,2,0,B|40:240|-8:272|-8:272|-8:264,2,90,0|0|8,0:0|0:0|0:0,0:0:0:0:
192,304,116394,6,0,P|272:344|352:312,2,180,0|8|0,0:0|0:0|0:0,0:0:0:0:
320,152,117822,2,0,L|304:256,1,90,8|0,0:0|0:0,0:0:0:0:
352,312,118299,6,0,B|424:256|448:160|448:160,1,180,0|8,0:0|0:0,0:0:0:0:
392,80,119013,1,0,0:0:0:0:
320,152,119251,2,0,L|152:80,1,180,0|8,0:0|0:0,0:0:0:0:
32,236,120203,5,0,0:0:0:0:
32,236,120680,2,0,L|156:236|156:236,2,90,8|0|0,0:0|0:0|0:0,0:0:0:0:
48,332,121394,1,0,0:0:0:0:
48,332,121513,1,0,0:0:0:0:
48,332,121632,2,8,L|168:332,1,90,8|0,0:0|0:0,0:0:0:0:
220,276,122108,6,0,P|256:304|308:288,2,90,0|0|8,0:0|0:0|0:0,0:0:0:0:
288,204,122822,1,0,0:0:0:0:
188,188,123061,2,0,P|160:96|216:48,1,180,0|8,0:0|0:0,0:0:0:0:
388,160,124013,2,0,L|392:340,2,180,0|8|8,0:0|0:0|0:0,0:0:0:0:
48,192,125918,5,8,0:0:0:0:
48,192,126156,2,0,L|48:96,1,90,0|8,0:0|0:0,0:0:0:0:
148,112,126632,2,0,L|148:216|148:216,2,90,0|8|0,0:0|0:0|0:0,0:0:0:0:
244,132,127346,1,8,0:0:0:0:
256,192,127822,12,0,129251,0:0:0:0:
184,68,129727,6,0,P|92:68|44:136,1,180,4|8,0:0|0:0,0:0:0:0:
328,68,130680,2,0,P|420:68|468:136,1,180,0|8,0:0|0:0,0:0:0:0:
256,192,131632,1,0,0:0:0:0:
256,192,132108,1,8,0:0:0:0:
256,192,132584,1,8,0:0:0:0:
152,360,133061,5,0,0:0:0:0:
72,304,133299,1,0,0:0:0:0:
72,304,133418,1,0,0:0:0:0:
72,304,133537,6,0,P|20:192|80:132,1,180,0|8,0:0|0:0,0:0:0:0:
236,108,134489,2,0,P|348:56|408:116,1,180,0|8,0:0|0:0,0:0:0:0:
256,228,135441,5,0,0:0:0:0:
300,316,135680,1,0,0:0:0:0:
396,344,135918,2,0,P|440:320|448:260,1,90,8|0,0:0|0:0,0:0:0:0:
368,232,136394,2,0,L|368:88,2,135,2|0|2,0:0|0:0|0:0,0:0:0:0:
368,232,137346,5,0,0:0:0:0:
172,260,137822,1,8,0:0:0:0:
256,80,138299,1,0,0:0:0:0:
172,260,138775,2,0,P|132:248|100:212,1,90,8|0,0:0|0:0,0:0:0:0:
72,120,139251,1,4,0:0:0:0:
340,260,139727,2,0,P|380:248|412:212,1,90,8|0,0:0|0:0,0:0:0:0:
440,120,140203,1,4,0:0:0:0:
368,52,140441,2,8,L|280:72,1,90
176,240,141156,5,8,0:0:0:0:
176,336,141394,1,0,0:0:0:0:
256,384,141632,1,8,0:0:0:0:
336,336,141870,1,0,0:0:0:0:
336,240,142108,1,8,0:0:0:0:
256,176,142346,1,8,0:0:0:0:
256,176,142584,1,8,0:0:0:0:
64,112,143061,6,2,P|32:192|48:288,2,180
144,240,144370,1,8,0:0:0:0:
256,336,144727,1,8,0:0:0:0:
256,336,144965,5,4,0:0:0:0:
352,308,145441,1,8,0:0:0:0:
288,232,145918,2,0,L|292:144,1,90,8|8,0:0|0:0,0:0:0:0:
216,76,146870,6,8,P|160:36|64:88,1,180
16,164,148299,1,8,0:0:0:0:
16,164,148775,6,8,P|72:248|152:272,1,180
196,188,150203,1,8,0:0:0:0:
272,252,150680,2,8,L|300:384,2,135,8|0|8,0:0|0:0|0:0,0:0:0:0:
352,192,152584,5,8,0:0:0:0:
400,136,152822,2,0,P|400:96|384:48,1,67.5000025749208,0|8,0:0|0:0,0:0:0:0:
352,192,153299,2,0,P|340:224|344:264,1,67.5000025749208,0|8,0:0|0:0,0:0:0:0:
312,112,154013,1,8,0:0:0:0:
312,112,154489,6,8,P|256:156|128:48,1,270.000010299683
228,72,155918,1,8,0:0:0:0:
100,328,156394,6,0,P|136:304|164:256,1,85.4999977169037,8|0,0:0|0:0,0:0:0:0:
68,240,156870,2,0,P|88:196|120:168,2,85.4999977169037,8|0|8,0:0|0:0|0:0,0:0:0:0:
8,312,157584,1,8,0:0:0:0:
8,312,157822,1,8,0:0:0:0:
448,192,158299,5,4,0:0:0:0:
432,96,158537,1,0,0:0:0:0:
340,64,158775,1,8,0:0:0:0:
280,140,159013,1,0,0:0:0:0:
340,220,159251,2,4,P|376:304|300:360,1,180
124,356,160203,5,0,0:0:0:0:
40,304,160441,2,0,P|28:264|32:216,1,90,0|8,0:0|0:0,0:0:0:0:
124,252,160918,2,0,P|140:216|132:168,1,90,0|0,0:0|0:0,0:0:0:0:
256,320,161632,1,8,0:0:0:0:
404,192,162108,5,0,0:0:0:0:
284,36,162584,1,8,0:0:0:0:
252,128,162822,1,0,0:0:0:0:
156,152,163061,1,8,0:0:0:0:
164,348,163537,2,0,L|392:348,1,180
96,296,164489,6,8,B|8:216|92:136|92:136,2,180
416,296,165918,2,8,B|504:216|420:136|420:136,2,180
256,192,167346,1,8,0:0:0:0:
96,68,167822,6,0,L|316:68|316:68,1,180,0|8,0:0|0:0,0:0:0:0:
436,192,168775,2,0,L|256:192|256:192,1,180,0|8,0:0|0:0,0:0:0:0:
176,248,169489,1,0,0:0:0:0:
100,308,169727,2,2,P|40:240|180:172,1,270
176,248,170680,2,2,L|348:324,1,180
420,280,171394,1,0,0:0:0:0:
420,280,171632,6,8,P|440:240|452:192,1,90
388,120,172108,2,8,P|408:76|472:48,2,90
488,112,172822,1,8,0:0:0:0:
488,112,173061,1,4,0:0:0:0:
256,80,173537,5,2,0:0:0:0:
116,192,174013,2,2,P|232:332|404:180,1,450
256,168,175441,5,0,0:0:0:0:
256,168,175918,2,0,P|224:84|128:48,2,180,8|0|8,0:0|0:0|0:0,0:0:0:0:
332,232,177108,1,0,0:0:0:0:
256,296,177346,2,0,B|180:324|88:268|84:160,2,180,0|8|0,0:0|0:0|0:0,0:0:0:0:
332,232,178537,1,0,0:0:0:0:
332,232,178775,1,8,0:0:0:0:
424,56,179251,5,0,0:0:0:0:
488,244,179727,1,8,0:0:0:0:
332,232,180203,1,0,0:0:0:0:
328,332,180441,1,0,0:0:0:0:
244,280,180680,2,0,L|64:260,2,180,8|0|8,0:0|0:0|0:0,0:0:0:0:
332,232,181870,1,0,0:0:0:0:
400,160,182108,2,2,L|392:68,1,90
296,48,182584,2,2,L|304:140,1,90
332,232,183061,6,0,B|388:272|460:272|460:272|516:272,2,180,4|8|0,0:0|0:0|0:0,0:0:0:0:
256,296,184251,1,0,0:0:0:0:
180,232,184489,2,0,P|108:172|104:88,1,180,8|0,0:0|0:0,0:0:0:0:
196,128,185203,1,0,0:0:0:0:
196,128,185441,2,0,L|40:220,2,180,8|0|8,0:0|0:0|0:0,0:0:0:0:
384,192,186870,5,6,0:0:0:0:
384,192,187346,1,4,0:0:0:0:
404,288,187584,1,4,0:0:0:0:
308,256,187822,2,4,P|216:256|188:332,2,180
404,288,189013,1,4,0:0:0:0:
384,192,189251,1,4,0:0:0:0:
364,96,189489,1,4,0:0:0:0:
288,160,189727,6,0,L|244:160,8,45
