osu file format v12

[General]
AudioFilename: Good Time.mp3
AudioLeadIn: 0
PreviewTime: 61077
Countdown: 0
SampleSet: Normal
StackLeniency: 0.7
Mode: 0
LetterboxInBreaks: 0
WidescreenStoryboard: 1

[Editor]
DistanceSpacing: 0.8
BeatDivisor: 4
GridSize: 4

[Metadata]
Title:Good Time
TitleUnicode:Good Time
Artist:Owl City & Carly Rae Jepsen
ArtistUnicode:Owl City & Carly Rae Jepsen
Creator:Gero
Version:Normal
Source:
Tags:Midsummer Station Adam Young XinCrin ezek Natsu mancusojuanmattos mancuso_JM_ Collab Collaboration Kiss
BeatmapID:316273
BeatmapSetID:100019

[Difficulty]
HPDrainRate:4
CircleSize:4
OverallDifficulty:4
ApproachRate:5
SliderMultiplier:1.4
SliderTickRate:2

[Events]
//Background and Video events
0,0,"BG.jpg",0,0
Video,357,"Video.avi"
//Break Periods
2,76610,78543
//Storyboard Layer 0 (Background)
//Storyboard Layer 1 (Fail)
//Storyboard Layer 2 (Pass)
//Storyboard Layer 3 (Foreground)
//Storyboard Sound Samples
//Background Colour Transformations
3,100,163,162,255

[TimingPoints]
220,476.190476190476,4,2,1,80,1,0
45934,-100,4,2,1,60,0,0
57362,-100,4,2,1,80,0,0
61172,-100,4,1,1,80,0,1
75934,-100,4,1,1,80,0,0
76410,-100,4,2,1,80,0,0
99267,-100,4,2,1,70,0,0
114505,-100,4,1,1,80,0,1
129267,-100,4,1,1,80,0,0
129743,-100,4,1,1,80,0,1
144505,-100,4,1,1,80,0,0
144981,-100,4,2,1,80,0,0
160219,-100,4,1,1,80,0,1
174981,-100,4,1,1,80,0,0
175458,-100,4,1,1,80,0,1
182600,-100,4,1,1,80,0,0
183077,-100,4,1,1,80,0,1
190219,-100,4,1,1,80,0,0
190696,-100,4,2,1,40,0,0

[Colours]
Combo1 : 255,151,47
Combo2 : 234,150,100
Combo3 : 242,183,60
SliderBorder : 101,201,201

[HitObjects]
46,353,14981,2,0,L|101:308,1,70,8|0,0:0|0:0,0:0:0:0:
146,277,15458,2,0,B|214:277|214:277|258:217,1,140,6|8,0:0|0:0,0:0:0:0:
335,298,16410,2,0,B|377:239|377:239|445:239,1,140,2|8,0:0|0:0,0:0:0:0:
463,186,17124,1,0,0:0:0:0:
476,131,17362,2,0,P|436:77|369:77,1,140,2|8,0:0|0:0,0:0:0:0:
256,77,18315,2,0,B|247:53|247:53|260:36|260:36|256:11,2,70,2|0|8,0:0|0:0|0:0,0:0:0:0:
256,188,19267,1,2,0:0:0:0:
200,285,19743,6,0,B|129:285|129:285|91:285|65:257,2,140,8|2|8,0:0|0:0|0:0,0:0:0:0:
312,285,21172,2,0,B|383:285|383:285|421:285|447:257,1,140,2|8,0:0|0:0,0:0:0:0:
391,160,22124,2,0,L|321:160,2,70,2|0|8,0:0|0:0|0:0,0:0:0:0:
433,56,23077,1,2,0:0:0:0:
324,30,23553,6,0,B|256:47|256:47|188:30,1,140,8|2,0:0|0:0,0:0:0:0:
109,109,24505,2,0,L|73:175,1,70,8|0,0:0|0:0,0:0:0:0:
50,220,24981,2,0,P|50:288|100:338,1,140,2|8,0:0|0:0,0:0:0:0:
201,293,25934,1,2,0:0:0:0:
312,293,26410,1,8,0:0:0:0:
356,324,26648,1,0,0:0:0:0:
414,337,26886,6,0,P|461:288|462:220,1,140,2|8,0:0|0:0,0:0:0:0:
359,175,27839,2,0,P|312:224|312:293,1,140,2|8,0:0|0:0,0:0:0:0:
414,337,28791,2,0,L|481:365,2,70,2|0|8,0:0|0:0|0:0,0:0:0:0:
444,229,29743,2,0,L|483:92,1,140,2|8,0:0|0:0,0:0:0:0:
387,34,30696,5,6,0:0:0:0:
316,120,31172,2,0,P|256:150|196:120,2,140,8|2|8,0:0|0:0|0:0,0:0:0:0:
355,80,32362,1,0,0:0:0:0:
387,34,32600,1,2,0:0:0:0:
480,96,33077,2,0,B|501:137|481:163|456:192|485:236,2,140,8|2|8,0:0|0:0|0:0,0:0:0:0:
387,34,34505,1,2,0:0:0:0:
276,49,34981,6,0,L|130:75,1,140,8|2,0:0|0:0,0:0:0:0:
217,152,35934,2,0,L|71:178,1,140,8|2,0:0|0:0,0:0:0:0:
98,286,36886,1,8,0:0:0:0:
177,365,37362,1,2,0:0:0:0:
256,285,37839,1,8,0:0:0:0:
335,365,38315,5,2,0:0:0:0:
414,286,38791,2,0,B|430:218|430:218|414:150,2,140,8|2|8,0:0|0:0|0:0,0:0:0:0:
326,215,40219,2,0,L|187:215,1,140,2|8,0:0|0:0,0:0:0:0:
146,175,40934,1,0,0:0:0:0:
185,135,41172,2,0,L|325:135,1,140,2|8,0:0|0:0,0:0:0:0:
404,55,42124,6,0,B|431:79|431:118|431:118|431:187,2,140,2|8|2,0:0|0:0|0:0,0:0:0:0:
324,134,43553,2,0,B|324:203|324:203|324:242|351:266,1,140,8|2,0:0|0:0,0:0:0:0:
390,305,44267,1,0,0:0:0:0:
429,344,44505,2,0,L|502:344,2,70,8|0|2,0:0|0:0|0:0,0:0:0:0:
351,266,45458,1,8,0:0:0:0:
256,206,45934,5,6,0:0:0:0:
164,141,46410,2,0,P|131:81|161:19,2,140,2|2|2,0:0|0:0|0:0,0:0:0:0:
203,246,47839,2,0,B|203:316|203:316|154:365,2,140,2|2|2,0:0|0:0|0:0,0:0:0:0:
309,246,49267,2,0,B|309:316|309:316|358:365,2,140,2|2|2,0:0|0:0|0:0,0:0:0:0:
348,141,50696,6,0,P|381:81|351:19,2,140,2|2|2,0:0|0:0|0:0,0:0:0:0:
309,246,52124,2,0,B|309:316|309:316|358:365,2,140,2|2|8,0:0|0:0|0:0,0:0:0:0:
256,146,53553,5,2,0:0:0:0:
201,48,54029,1,8,0:0:0:0:
312,48,54505,2,0,B|358:48|379:69|404:94|443:94,2,140,2|8|2,0:0|0:0|0:0,0:0:0:0:
201,48,55934,2,0,B|155:48|134:69|109:94|70:94,2,140,8|2|8,0:0|0:0|0:0,0:0:0:0:
256,192,57362,12,2,60219,1:2:0:0:
256,84,60696,5,8,0:1:0:0:
203,182,61172,2,0,P|173:242|203:302,1,140,4|8,0:0|0:0,0:0:0:0:
256,322,61886,1,0,0:0:0:0:
308,302,62124,2,0,P|338:242|309:182,1,140,2|8,0:2|0:0,0:0:0:0:
256,84,63077,2,0,L|378:11,1,140,2|8,0:2|0:0,0:0:0:0:
429,110,64029,2,0,L|307:183,2,140,2|8|2,0:2|0:0|0:2,0:0:0:0:
505,192,65458,5,8,0:0:0:0:
429,274,65934,2,0,L|307:347,1,140,2|8,0:2|0:0,0:0:0:0:
229,266,66886,2,0,L|161:308,2,70,2|0|8,0:2|0:0|0:0,0:0:0:0:
324,207,67839,2,0,P|352:146|317:83,1,140,2|8,0:2|0:0,0:0:0:0:
214,50,68791,5,2,0:2:0:0:
110,92,69267,2,0,B|110:126|110:126|88:159,1,70,8|0,0:0|0:0,0:0:0:0:
61,204,69743,2,0,P|60:270|117:305,1,140,2|8,0:2|0:0,0:0:0:0:
230,303,70696,2,0,L|371:323,2,140,2|8|2,0:2|0:0|0:2,0:0:0:0:
118,306,72124,1,8,0:0:0:0:
62,204,72600,5,2,0:2:0:0:
101,164,72839,1,0,0:0:0:0:
140,124,73077,1,8,0:0:0:0:
219,203,73553,1,2,0:2:0:0:
258,163,73791,1,0,0:0:0:0:
297,123,74029,1,8,0:0:0:0:
375,44,74505,6,0,P|444:44|491:98,1,140,2|8,0:2|0:0,0:0:0:0:
489,205,75458,2,0,P|442:254|374:254,2,140,2|8|6,0:2|0:0|0:0,0:0:0:0:
117,298,79743,5,8,0:0:0:0:
227,318,80219,2,0,B|284:318|284:318|311:334|311:334|369:334,1,140,6|8,0:0|0:0,0:0:0:0:
402,294,80934,1,0,0:0:0:0:
441,254,81172,2,0,P|469:192|441:130,2,140,2|8|2,0:0|0:0|0:0,0:0:0:0:
347,192,82600,1,8,0:0:0:0:
256,125,83077,2,0,L|256:56,2,70,2|0|8,0:0|0:0|0:0,0:0:0:0:
165,192,84029,6,0,B|165:253|165:253|104:306,1,140,6|8,0:0|0:0,0:0:0:0:
204,356,84981,2,0,P|256:317|308:356,1,140,2|8,0:0|0:0,0:0:0:0:
359,332,85696,1,0,0:0:0:0:
406,304,85934,2,0,B|347:253|347:253|347:192,1,140,2|8,0:0|0:0,0:0:0:0:
407,97,86886,2,0,B|451:39,2,70,2|0|8,0:0|0:0|0:0,0:0:0:0:
348,191,87839,1,2,0:0:0:0:
294,289,88315,6,0,L|159:357,2,140,8|2|8,0:0|0:0|0:0,0:0:0:0:
324,242,89505,1,0,0:0:0:0:
348,191,89743,2,0,L|483:123,1,140,2|8,0:0|0:0,0:0:0:0:
371,81,90696,2,0,L|438:49,2,70,2|0|8,0:0|0:0|0:0,0:0:0:0:
256,88,91648,1,2,0:0:0:0:
141,81,92124,6,0,B|118:120|138:149|159:173|139:218,1,140,8|2,0:0|0:0,0:0:0:0:
219,295,93077,1,8,0:0:0:0:
252,336,93315,1,0,0:0:0:0:
297,373,93553,2,0,B|355:373|355:373|395:373|422:332,1,140,2|8,0:0|0:0,0:0:0:0:
474,233,94505,1,2,0:0:0:0:
379,173,94981,1,8,0:0:0:0:
341,131,95219,1,0,0:0:0:0:
293,100,95458,6,0,L|154:100,1,140,2|8,0:0|0:0,0:0:0:0:
107,202,96410,2,0,L|247:202,1,140,2|8,0:0|0:0,0:0:0:0:
326,281,97362,2,0,L|396:281,2,70,2|0|8,0:0|0:0|0:0,0:0:0:0:
286,320,98077,1,0,0:0:0:0:
246,359,98315,2,0,L|101:359,1,140,2|8,0:0|0:0,0:0:0:0:
26,279,99267,5,6,0:0:0:0:
97,192,99743,2,0,P|97:129|34:129,2,140,2|2|2,0:0|0:0|0:0,0:0:0:0:
200,234,101172,2,0,B|212:274|185:298|185:298|212:322|200:362,2,140,2|2|2,0:0|0:0|0:0,0:0:0:0:
311,234,102600,2,0,B|299:274|326:298|326:298|299:322|311:362,2,140,2|2|2,0:0|0:0|0:0,0:0:0:0:
415,192,104029,6,0,P|415:129|478:129,2,140,2|2|2,0:0|0:0|0:0,0:0:0:0:
311,234,105458,2,0,B|299:274|326:298|326:298|299:322|311:362,2,140,2|2|8,0:0|0:0|0:0,0:0:0:0:
256,146,106886,5,2,0:0:0:0:
201,48,107362,1,8,0:0:0:0:
313,48,107839,2,0,L|384:48,2,70,2|0|8,0:0|0:0|0:0,0:0:0:0:
256,146,108791,5,2,0:0:0:0:
196,244,109267,2,0,P|256:274|316:244,2,140,8|2|8,0:0|0:0|0:0,0:0:0:0:
256,192,110696,12,2,113553,1:2:0:0:
256,84,114029,5,8,0:1:0:0:
158,28,114505,2,0,P|109:78|129:138,1,140,4|8,0:0|0:0,0:0:0:0:
164,181,115219,1,0,0:0:0:0:
193,228,115458,2,0,B|215:269|199:296|179:329|203:368,1,140,2|8,0:2|0:0,0:0:0:0:
312,363,116410,2,0,B|333:328|313:295|297:268|319:227,1,140,2|8,0:2|0:0,0:0:0:0:
320,115,117362,2,0,B|256:143|256:143|192:115,2,140,2|8|2,0:2|0:0|0:2,0:0:0:0:
426,78,118791,5,8,0:0:0:0:
488,170,119267,2,0,L|440:309,1,140,2|8,0:2|0:0,0:0:0:0:
345,246,120219,2,0,L|318:313,2,70,2|0|8,0:2|0:0|0:0,0:0:0:0:
382,140,121172,2,0,P|348:82|279:75,1,140,2|8,0:2|0:0,0:0:0:0:
173,107,122124,5,2,0:2:0:0:
69,149,122600,2,0,B|69:183|69:183|47:216,1,70,8|0,0:0|0:0,0:0:0:0:
30,265,123077,2,0,P|38:325|106:351,1,140,2|8,0:2|0:0,0:0:0:0:
198,288,124029,2,0,P|261:308|273:374,2,140,2|8|2,0:2|0:0|0:2,0:0:0:0:
126,201,125458,1,8,0:0:0:0:
63,107,125934,6,0,L|4:149,2,70,2|0|8,0:2|0:0|0:0,0:0:0:0:
173,88,126886,2,0,L|139:23,2,70,2|0|8,0:2|0:0|0:0,0:0:0:0:
204,195,127839,2,0,B|224:231|270:231|270:231|330:231,1,140,2|8,0:2|0:0,0:0:0:0:
421,165,128791,2,0,B|401:129|355:129|355:129|295:129,1,140,2|8,0:2|0:0,0:0:0:0:
204,195,129743,6,0,P|174:255|204:315,1,140,4|8,0:0|0:0,0:0:0:0:
256,335,130458,1,0,0:0:0:0:
307,315,130696,2,0,P|337:255|308:195,1,140,2|8,0:2|0:0,0:0:0:0:
256,93,131648,2,0,B|195:93|195:93|167:63|124:63,1,140,2|8,0:2|0:0,0:0:0:0:
148,172,132600,2,0,B|105:172|77:142|77:142|16:142,2,140,2|8|2,0:2|0:0|0:2,0:0:0:0:
256,201,134029,5,8,0:0:0:0:
364,172,134505,2,0,B|407:172|435:142|435:142|496:142,1,140,2|8,0:2|0:0,0:0:0:0:
426,54,135458,2,0,P|394:60|370:86,2,70,2|0|8,0:2|0:0|0:0,0:0:0:0:
496,142,136410,2,0,B|435:142|435:142|407:172|364:172,1,140,2|8,0:2|0:0,0:0:0:0:
256,140,137362,5,2,0:2:0:0:
147,110,137839,1,8,0:0:0:0:
125,161,138077,1,0,0:0:0:0:
102,212,138315,2,0,P|90:278|139:328,1,140,2|8,0:2|0:0,0:0:0:0:
230,303,139267,2,0,L|371:323,2,140,2|8|2,0:2|0:0|0:2,0:0:0:0:
118,306,140696,1,8,0:0:0:0:
62,204,141172,5,2,0:2:0:0:
101,164,141410,1,0,0:0:0:0:
140,124,141648,1,8,0:0:0:0:
219,203,142124,1,2,0:2:0:0:
258,163,142362,1,0,0:0:0:0:
297,123,142600,1,8,0:0:0:0:
375,44,143077,6,0,P|444:44|491:98,1,140,2|8,0:2|0:0,0:0:0:0:
489,205,144029,2,0,P|442:254|374:254,2,140,2|8|14,0:2|0:0|0:0,0:0:0:0:
398,139,145458,5,8,0:0:0:0:
312,66,145934,1,8,0:0:0:0:
200,66,146410,1,8,0:0:0:0:
114,139,146886,6,0,P|114:209|163:258,1,140,8|8,0:0|0:0,0:0:0:0:
208,284,147600,1,0,0:0:0:0:
260,303,147839,2,0,L|395:260,1,140,8|8,0:0|0:0,0:0:0:0:
433,155,148791,6,0,L|299:197,1,140,8|8,0:0|0:0,0:0:0:0:
340,93,149743,2,0,L|473:50,2,140,8|8|8,0:0|0:0|0:0,0:0:0:0:
288,114,150934,1,0,0:0:0:0:
237,138,151172,2,0,P|179:170|179:238,1,140,8|8,0:0|0:0,0:0:0:0:
256,318,152124,1,8,0:0:0:0:
334,236,152600,6,0,B|365:236|365:236|401:214,1,70,12|0,0:0|0:0,0:0:0:0:
443,182,153077,2,0,P|452:148|442:115,1,70,8|0,0:0|0:0,0:0:0:0:
411,68,153553,2,0,L|265:38,1,140,8|8,0:0|0:0,0:0:0:0:
194,118,154505,6,0,L|48:88,2,140,8|8|8,0:0|0:0|0:0,0:0:0:0:
245,217,155934,2,0,L|391:247,1,140,8|8,0:0|0:0,0:0:0:0:
256,192,156529,12,2,159267,0:0:0:0:
447,30,160219,2,0,P|398:80|418:140,1,140,4|8,0:0|0:0,0:0:0:0:
446,187,160934,1,0,0:0:0:0:
471,236,161172,2,0,B|341:326,1,140,2|8,0:2|0:0,0:0:0:0:
306,215,162124,2,0,B|170:250,1,140,2|8,0:2|0:0,0:0:0:0:
153,139,163077,2,0,B|18:84,2,140,2|8|2,0:2|0:0|0:2,0:0:0:0:
256,95,164505,5,8,0:0:0:0:
358,49,164981,2,0,P|415:92|415:158,1,140,2|8,0:2|0:0,0:0:0:0:
377,260,165934,2,0,P|412:268|446:261,2,70,2|0|8,0:2|0:0|0:0,0:0:0:0:
280,203,166886,2,0,B|255:239|266:279|266:279|203:290,1,140,2|8,0:2|0:0,0:0:0:0:
96,306,167839,5,2,0:2:0:0:
65,198,168315,2,0,L|47:130,1,70,8|0,0:0|0:0,0:0:0:0:
37,75,168791,2,0,B|88:24|88:24|156:24,1,140,2|8,0:2|0:0,0:0:0:0:
268,24,169743,2,0,L|345:24,1,70,2|0,0:2|0:0,0:0:0:0:
393,24,170219,2,0,P|455:48|471:115,1,140,8|2,0:0|0:2,0:0:0:0:
390,192,171172,1,8,0:0:0:0:
313,273,171648,6,0,L|352:331,2,70,2|0|8,0:2|0:0|0:0,0:0:0:0:
201,273,172600,2,0,L|162:331,2,70,2|0|8,0:2|0:0|0:0,0:0:0:0:
192,161,173553,2,0,B|228:181|256:154|256:154|284:181|320:161,1,140,2|8,0:2|0:0,0:0:0:0:
320,48,174505,2,0,B|284:28|256:55|256:55|228:28|192:48,1,140,2|8,0:2|0:0,0:0:0:0:
85,83,175458,6,0,L|31:223,1,140,4|8,0:0|0:0,0:0:0:0:
51,266,176172,1,0,0:0:0:0:
68,319,176410,2,0,B|133:319|133:354|203:354,1,140,2|8,0:2|0:0,0:0:0:0:
313,353,177362,2,0,B|381:353|381:318|446:318,2,140,2|8|2,0:2|0:0|0:2,0:0:0:0:
256,256,178791,1,8,0:0:0:0:
200,158,179267,1,2,0:2:0:0:
311,158,179743,5,8,0:0:0:0:
256,60,180219,2,0,B|197:23|197:23|123:23,1,140,2|8,0:2|0:0,0:0:0:0:
86,127,181172,2,0,L|15:127,2,70,2|0|8,0:2|0:0|0:0,0:0:0:0:
127,231,182124,2,0,B|186:268|186:268|260:268,1,140,2|8,0:2|0:0,0:0:0:0:
368,268,183077,5,4,0:0:0:0:
437,179,183553,1,8,0:0:0:0:
397,139,183791,1,0,0:0:0:0:
357,99,184029,2,0,L|206:78,1,140,2|8,0:2|0:0,0:0:0:0:
162,177,184981,2,0,L|11:156,2,140,2|8|2,0:2|0:0|0:2,0:0:0:0:
256,237,186410,1,8,0:0:0:0:
351,176,186886,5,2,0:2:0:0:
311,136,187124,1,0,0:0:0:0:
312,80,187362,1,8,0:0:0:0:
200,80,187839,1,2,0:2:0:0:
201,136,188077,1,0,0:0:0:0:
161,176,188315,1,8,0:0:0:0:
85,257,188791,6,0,P|131:306|199:306,1,140,2|8,0:2|0:0,0:0:0:0:
311,306,189743,2,0,P|379:306|426:257,2,140,2|8|6,0:2|0:0|0:0,0:0:0:0:
