osu file format v14

[General]
AudioFilename: VOCAMASHParadichlorobenzene x Anti chlorobenzene 1.mp3
AudioLeadIn: 0
PreviewTime: 145886
Countdown: 0
SampleSet: Normal
StackLeniency: 0.7
Mode: 2
LetterboxInBreaks: 0
WidescreenStoryboard: 0

[Editor]
Bookmarks: 22740
DistanceSpacing: 1.2
BeatDivisor: 4
GridSize: 4
TimelineZoom: 1

[Metadata]
Title:Paradichlorobenzene x Anti-chlorobenzene
TitleUnicode:Paradichlorobenzene x Anti-chlorobenzene
Artist:Owata-P, Signal-P
ArtistUnicode:Owata-P, Signal-P
Creator:afk98
Version:Rain
Source:Owata-P
Tags:vocaloid c6h4cl2 chemistry
BeatmapID:677807
BeatmapSetID:302383

[Difficulty]
HPDrainRate:6
CircleSize:4.5
OverallDifficulty:9
ApproachRate:9
SliderMultiplier:1.1
SliderTickRate:1

[Events]
//Background and Video events
0,0,"ctbbenzene.jpg",0,0
Video,0,"videoFileNo182332.flv"
//Break Periods
2,38814,45741
2,90177,93014
2,107905,114832
//Storyboard Layer 0 (Background)
//Storyboard Layer 1 (Fail)
//Storyboard Layer 2 (Pass)
//Storyboard Layer 3 (Foreground)
//Storyboard Sound Samples

[TimingPoints]
1372,666.666666666667,4,1,0,100,1,0
22705,454.545454545455,4,1,0,100,1,0
24523,-66.6666666666667,4,1,0,100,0,1
39068,-100,4,1,0,100,0,0
75432,-66.6666666666667,4,1,0,100,0,1
89977,-100,4,1,0,100,0,0
145886,-66.6666666666667,4,1,0,100,0,1
175432,-100,4,1,0,100,0,0

[Colours]
Combo1 : 128,0,0
Combo2 : 255,0,0
Combo3 : 128,128,128
Combo4 : 242,24,57

[HitObjects]
34,189,1372,6,0,P|76:191|118:140,1,110
278,135,2372,1,0,0:0:0:0:
106,136,2705,1,0,0:0:0:0:
324,132,3372,1,0,0:0:0:0:
465,212,4038,6,0,P|411:216|378:161,1,110
225,176,5038,1,0,0:0:0:0:
398,169,5705,1,0,0:0:0:0:
72,167,6038,1,0,0:0:0:0:
58,128,6705,5,0,0:0:0:0:
453,124,7205,1,0,0:0:0:0:
58,128,7705,1,0,0:0:0:0:
173,197,8038,2,0,P|219:198|271:142,1,110
308,140,9372,2,0,P|307:96|231:70,1,110
72,122,10705,5,0,0:0:0:0:
254,122,11038,1,0,0:0:0:0:
460,125,11372,1,0,0:0:0:0:
32,276,12038,6,0,L|80:215,1,55
480,268,12705,2,0,L|431:218,1,55
32,148,13372,2,0,L|86:94,1,55
480,148,14038,2,0,L|422:98,1,55
249,123,14705,6,0,B|294:125|327:151|341:200,1,110
80,192,16038,1,0,0:0:0:0:
372,192,16705,1,0,0:0:0:0:
259,270,17372,2,0,B|213:262|187:209|181:151|218:107|256:93,1,220
461,157,19372,1,0,0:0:0:0:
256,192,20038,12,0,22705,0:0:0:0:
105,192,23159,5,0,0:0:0:0:
416,193,23614,1,0,0:0:0:0:
105,192,24068,5,0,0:0:0:0:
157,159,24182,1,0,0:0:0:0:
210,122,24295,1,0,0:0:0:0:
261,86,24409,1,0,0:0:0:0:
314,53,24523,1,0,0:0:0:0:
416,193,24977,5,0,0:0:0:0:
362,157,25091,1,0,0:0:0:0:
307,125,25205,1,0,0:0:0:0:
261,86,25318,1,0,0:0:0:0:
213,45,25432,1,0,0:0:0:0:
48,205,25659,6,0,P|90:208|128:188,1,82.5000031471254
168,176,26000,1,0,0:0:0:0:
71,142,26114,1,0,0:0:0:0:
456,152,26227,1,0,0:0:0:0:
456,188,26341,2,0,P|416:208|364:200,1,82.5000031471254
397,142,26795,1,0,0:0:0:0:
144,143,27023,1,0,0:0:0:0:
320,144,27250,1,0,0:0:0:0:
212,144,27477,1,0,0:0:0:0:
280,144,27705,1,0,0:0:0:0:
68,296,27932,6,0,L|96:248,2,41.2500015735627
256,80,28386,2,0,L|230:140,2,41.2500015735627
256,80,28841,2,0,L|284:156,2,41.2500015735627
448,296,29295,2,0,L|424:260,2,41.2500015735627
56,224,29750,5,0,0:0:0:0:
108,188,29864,1,0,0:0:0:0:
152,140,29977,1,0,0:0:0:0:
194,92,30091,1,0,0:0:0:0:
247,66,30205,1,0,0:0:0:0:
309,82,30318,2,0,P|350:94|380:172,1,123.750004720688
452,195,30886,1,0,0:0:0:0:
108,188,31114,1,0,0:0:0:0:
452,195,31341,5,0,0:0:0:0:
363,109,31568,1,0,0:0:0:0:
316,68,31682,1,0,0:0:0:0:
268,28,31795,1,0,0:0:0:0:
51,137,32023,6,0,L|80:96,1,41.2500015735627
333,136,32250,2,0,P|312:108|308:110,1,41.2500015735627
159,138,32477,2,0,L|192:104,1,41.2500015735627
452,140,32705,2,0,L|424:108,1,41.2500015735627
104,224,33159,6,0,L|212:224,1,82.5000031471254
432,224,33614,2,0,L|348:224,1,82.5000031471254
168,156,34068,2,0,L|264:156,1,82.5000031471254
372,152,34523,2,0,L|276:152,1,82.5000031471254
176,152,34977,1,0,0:0:0:0:
51,101,35205,6,0,L|100:48,1,41.2500015735627
312,96,35432,1,0,0:0:0:0:
140,80,35659,2,0,L|104:128,1,41.2500015735627
328,96,35886,1,0,0:0:0:0:
184,96,36114,2,0,P|232:96|272:144,1,82.5000031471254
63,249,36568,6,0,P|109:250|140:232,1,82.5000031471254
160,216,36909,1,0,0:0:0:0:
211,179,37023,1,0,0:0:0:0:
267,153,37136,1,0,0:0:0:0:
325,146,37250,6,0,P|412:168|436:248,1,165.000006294251
96,244,38045,1,0,0:0:0:0:
408,244,38159,1,0,0:0:0:0:
172,240,38273,1,0,0:0:0:0:
252,239,38386,1,0,0:0:0:0:
256,239,38614,1,0,0:0:0:0:
65,191,46341,5,0,0:0:0:0:
382,191,46568,2,0,L|412:192,2,27.5
94,192,47023,2,0,L|56:193,2,27.5
382,98,47477,1,0,0:0:0:0:
91,273,47705,1,0,0:0:0:0:
252,88,47932,5,0,0:0:0:0:
316,88,48045,1,0,0:0:0:0:
379,88,48159,1,0,0:0:0:0:
40,240,48386,1,0,0:0:0:0:
104,240,48500,1,0,0:0:0:0:
164,240,48614,1,0,0:0:0:0:
440,92,48841,5,0,0:0:0:0:
380,92,48955,1,0,0:0:0:0:
319,91,49068,1,0,0:0:0:0:
164,240,49295,1,0,0:0:0:0:
228,240,49409,1,0,0:0:0:0:
288,240,49523,1,0,0:0:0:0:
256,104,49750,5,0,0:0:0:0:
64,108,49977,2,0,L|104:108,2,27.5
156,108,50318,1,0,0:0:0:0:
92,172,50432,1,0,0:0:0:0:
160,220,50545,1,0,0:0:0:0:
96,272,50659,1,0,0:0:0:0:
400,192,50886,1,0,0:0:0:0:
92,192,51114,1,0,0:0:0:0:
452,192,51341,1,0,0:0:0:0:
92,60,51568,5,0,0:0:0:0:
176,56,51682,1,0,0:0:0:0:
264,48,51795,2,0,P|324:44|384:80,1,110
404,104,52364,1,0,0:0:0:0:
368,152,52477,1,0,0:0:0:0:
464,204,52591,1,0,0:0:0:0:
376,252,52705,2,0,P|320:252|220:188,1,165
60,60,53614,6,0,L|140:60,1,55
252,56,53955,1,0,0:0:0:0:
380,56,54068,1,0,0:0:0:0:
476,60,54182,2,0,P|472:92|460:104,1,27.5
52,128,54523,2,0,L|64:156,1,27.5
280,64,54750,2,0,L|260:92,1,27.5
164,228,54977,1,0,0:0:0:0:
384,164,55205,2,0,L|364:200,1,27.5
376,208,55432,5,0,0:0:0:0:
52,204,55659,2,0,P|52:176|72:156,1,55
116,132,56000,1,0,0:0:0:0:
164,120,56114,1,0,0:0:0:0:
212,112,56227,1,0,0:0:0:0:
304,112,56341,1,0,0:0:0:0:
52,204,56568,1,0,0:0:0:0:
304,112,56795,1,0,0:0:0:0:
428,72,57023,6,0,L|392:108,2,27.5
96,304,57477,2,0,L|64:332,2,27.5
432,304,57932,2,0,L|460:332,2,27.5
100,80,58386,2,0,L|72:48,1,27.5
148,120,58614,1,0,0:0:0:0:
144,196,58841,1,0,0:0:0:0:
200,176,58955,1,0,0:0:0:0:
248,136,59068,2,0,B|284:88|324:68|360:72,1,110
248,204,59977,2,0,P|220:236|140:256,1,110
216,64,60659,5,0,0:0:0:0:
304,64,60773,1,0,0:0:0:0:
260,64,60886,1,0,0:0:0:0:
192,140,61114,1,0,0:0:0:0:
320,140,61227,1,0,0:0:0:0:
256,140,61341,1,0,0:0:0:0:
216,204,61568,1,0,0:0:0:0:
288,204,61682,1,0,0:0:0:0:
264,208,61795,2,0,L|352:292,1,110
88,56,62477,6,0,L|120:96,1,27.5
344,60,62705,1,0,0:0:0:0:
104,148,62932,2,0,P|144:120|208:120,1,110
440,120,63614,2,0,L|460:144,3,27.5
444,64,64295,6,0,P|480:80|480:88,1,55
96,60,64750,2,0,B|60:64|48:76|48:84,1,55
432,268,65205,2,0,L|488:232,1,55
96,272,65659,2,0,L|60:236,1,55
400,96,66114,6,0,L|444:64,1,55
140,96,66568,2,0,L|100:56,1,55
384,196,67023,1,0,0:0:0:0:
288,256,67250,2,0,P|192:252|168:232,1,110
432,72,67932,6,0,L|464:40,2,27.5
104,76,68386,2,0,L|64:40,2,27.5
328,192,68841,2,0,L|328:144,2,27.5
192,232,69295,2,0,L|192:260,2,27.5
100,308,69750,6,0,L|76:324,2,27.5
440,316,70205,2,0,L|464:340,2,27.5
332,192,70659,5,0,0:0:0:0:
256,192,70773,1,0,0:0:0:0:
176,192,70886,1,0,0:0:0:0:
176,120,71114,1,0,0:0:0:0:
256,120,71227,1,0,0:0:0:0:
332,120,71341,1,0,0:0:0:0:
228,272,71568,6,0,L|308:272,1,55
224,68,72477,2,0,L|280:68,1,55
72,72,72932,1,0,0:0:0:0:
328,192,73386,2,0,L|392:192,1,55
144,192,73841,2,0,L|88:192,1,55
328,192,74295,2,0,L|372:148,1,55
108,152,74750,1,0,0:0:0:0:
372,144,74977,1,0,0:0:0:0:
248,84,75432,6,0,B|172:84|132:128|132:188,1,165.000006294251
376,156,76568,1,0,0:0:0:0:
432,244,76682,1,0,0:0:0:0:
120,240,76795,6,0,L|72:220,2,41.2500015735627
312,244,77136,1,0,0:0:0:0:
468,244,77250,2,0,L|376:244,1,82.5000031471254
388,240,77705,2,0,L|420:212,1,41.2500015735627
312,244,77932,2,0,L|224:244,1,82.5000031471254
100,240,78386,1,0,0:0:0:0:
424,160,78614,5,0,0:0:0:0:
340,160,78727,1,0,0:0:0:0:
256,160,78841,1,0,0:0:0:0:
176,160,78955,1,0,0:0:0:0:
256,240,79068,1,0,0:0:0:0:
176,240,79295,1,0,0:0:0:0:
96,160,79409,1,0,0:0:0:0:
420,240,79523,5,0,0:0:0:0:
64,236,79636,1,0,0:0:0:0:
176,160,79750,1,0,0:0:0:0:
256,160,79864,1,0,0:0:0:0:
336,160,79977,1,0,0:0:0:0:
96,160,80205,1,0,0:0:0:0:
112,96,80432,6,0,L|60:52,1,41.2500015735627
300,96,80659,1,0,0:0:0:0:
460,96,80773,1,0,0:0:0:0:
300,96,80886,2,0,L|208:96,1,82.5000031471254
416,232,81341,6,0,L|472:184,1,41.2500015735627
224,240,81682,1,0,0:0:0:0:
136,244,81795,1,0,0:0:0:0:
460,240,82023,1,0,0:0:0:0:
56,236,82250,1,0,0:0:0:0:
168,244,82364,1,0,0:0:0:0:
84,76,82477,6,0,L|48:52,2,41.2500015735627
440,68,82932,2,0,L|476:32,2,41.2500015735627
72,340,83386,2,0,P|120:340|152:308,1,82.5000031471254
420,296,83841,2,0,L|456:324,2,41.2500015735627
384,280,84182,1,0,0:0:0:0:
328,264,84295,1,0,0:0:0:0:
272,260,84409,1,0,0:0:0:0:
224,232,84523,1,0,0:0:0:0:
184,192,84750,5,0,0:0:0:0:
440,192,84977,1,0,0:0:0:0:
160,192,85432,1,0,0:0:0:0:
440,192,85659,2,0,L|348:192,1,82.5000031471254
392,68,86114,6,0,L|436:68,1,41.2500015735627
224,68,86341,1,0,0:0:0:0:
64,140,86568,1,0,0:0:0:0:
112,172,86682,1,0,0:0:0:0:
160,192,86795,1,0,0:0:0:0:
336,256,87023,6,0,L|384:256,1,41.2500015735627
144,248,87250,1,0,0:0:0:0:
56,288,87477,1,0,0:0:0:0:
104,312,87591,1,0,0:0:0:0:
156,328,87705,1,0,0:0:0:0:
64,96,87932,6,0,P|124:64|160:64,1,82.5000031471254
248,68,88386,1,0,0:0:0:0:
448,192,88614,1,0,0:0:0:0:
200,192,88841,2,0,L|84:192,1,82.5000031471254
292,192,89523,2,0,L|468:192,1,165.000006294251
60,84,93614,6,0,B|120:84|156:84|204:160|212:212,1,220
328,224,94750,1,0,0:0:0:0:
396,224,94864,1,0,0:0:0:0:
452,68,95432,6,0,P|368:68|260:168,1,220
176,192,96568,1,0,0:0:0:0:
112,192,96682,1,0,0:0:0:0:
336,80,97250,2,0,L|456:80,1,110
176,192,98159,2,0,L|52:192,1,110
332,196,99068,6,0,P|396:196|452:156,1,110
172,200,99977,2,0,P|112:228|64:220,1,110
84,88,100886,5,0,0:0:0:0:
428,88,101114,1,0,0:0:0:0:
48,252,101341,1,0,0:0:0:0:
468,252,101568,1,0,0:0:0:0:
172,200,101795,2,0,L|232:172,1,55
288,144,102136,1,0,0:0:0:0:
428,88,102705,6,0,L|472:48,1,55
96,96,103159,2,0,L|52:60,1,55
464,304,103614,2,0,L|424:264,1,55
304,264,103955,1,0,0:0:0:0:
68,192,104523,5,0,0:0:0:0:
120,192,104750,1,0,0:0:0:0:
440,188,104977,1,0,0:0:0:0:
400,188,105205,1,0,0:0:0:0:
120,192,105432,1,0,0:0:0:0:
164,192,105659,1,0,0:0:0:0:
400,192,105886,1,0,0:0:0:0:
364,192,106114,1,0,0:0:0:0:
96,80,106341,6,0,P|164:80|220:96,1,110
416,72,107023,1,0,0:0:0:0:
96,80,107250,1,0,0:0:0:0:
416,72,107705,5,0,0:0:0:0:
72,120,115432,5,0,0:0:0:0:
412,128,115659,2,0,L|444:80,1,55
140,136,116114,2,0,L|180:92,1,55
276,132,116568,2,0,L|320:84,1,55
56,136,117023,6,0,L|104:88,1,55
420,260,117477,2,0,L|376:208,1,55
260,136,117818,1,0,0:0:0:0:
116,256,117932,2,0,L|160:192,1,55
56,136,118273,1,0,0:0:0:0:
420,260,118386,2,0,L|464:200,1,55
384,128,118841,6,0,L|324:128,1,55
80,132,119295,1,0,0:0:0:0:
116,164,119409,1,0,0:0:0:0:
164,192,119523,1,0,0:0:0:0:
448,192,119750,1,0,0:0:0:0:
356,192,119864,1,0,0:0:0:0:
256,192,119977,2,0,L|304:128,2,55
416,128,120659,6,0,L|432:152,1,27.5
456,192,120886,1,0,0:0:0:0:
68,296,121114,2,0,L|96:264,1,27.5
328,296,121341,2,0,L|356:264,1,27.5
208,296,121568,2,0,L|232:268,1,27.5
440,296,121795,2,0,L|464:280,1,27.5
208,296,122023,2,0,L|240:272,1,27.5
328,296,122250,2,0,L|288:264,1,27.5
64,64,122477,5,0,0:0:0:0:
104,104,122591,1,0,0:0:0:0:
140,152,122705,1,0,0:0:0:0:
456,52,122932,1,0,0:0:0:0:
412,88,123045,1,0,0:0:0:0:
368,124,123159,1,0,0:0:0:0:
140,152,123386,5,0,0:0:0:0:
104,188,123500,1,0,0:0:0:0:
64,224,123614,1,0,0:0:0:0:
372,124,123841,1,0,0:0:0:0:
404,160,123955,1,0,0:0:0:0:
444,208,124068,1,0,0:0:0:0:
56,100,124295,6,0,L|104:48,1,55
436,108,124750,2,0,L|392:56,1,55
144,304,125205,2,0,L|96:256,1,55
344,304,125659,2,0,L|392:252,1,55
408,240,126000,1,0,0:0:0:0:
408,204,126114,6,0,L|472:176,1,55
332,200,126568,1,0,0:0:0:0:
192,200,126795,1,0,0:0:0:0:
312,100,127023,2,0,L|244:100,1,55
200,164,127477,2,0,L|276:164,1,55
312,232,127932,6,0,L|256:232,1,55
80,224,128386,2,0,L|148:180,1,55
440,224,128841,1,0,0:0:0:0:
156,168,129068,2,0,P|208:208|272:192,1,110
180,160,129750,1,0,0:0:0:0:
436,160,129977,5,0,0:0:0:0:
108,160,130205,1,0,0:0:0:0:
336,224,130432,2,0,L|376:188,3,27.5
288,168,130886,2,0,P|232:168|224:172,2,55
128,176,131795,5,0,0:0:0:0:
308,132,132023,2,0,P|336:100|372:88,1,55
184,232,132477,2,0,P|176:260|144:264,1,55
192,76,132932,1,0,0:0:0:0:
260,76,133045,1,0,0:0:0:0:
328,72,133159,1,0,0:0:0:0:
100,172,133386,2,0,P|72:200|68:236,2,55
260,184,134068,1,0,0:0:0:0:
396,188,134295,1,0,0:0:0:0:
320,120,134523,2,0,L|184:120,1,110
40,80,135205,5,0,0:0:0:0:
96,80,135318,1,0,0:0:0:0:
152,80,135432,1,0,0:0:0:0:
472,84,135659,1,0,0:0:0:0:
416,84,135773,1,0,0:0:0:0:
364,84,135886,1,0,0:0:0:0:
104,232,136114,2,0,P|120:264|148:284,1,55
412,256,136568,1,0,0:0:0:0:
176,256,136795,1,0,0:0:0:0:
96,156,137023,6,0,L|144:104,1,55
400,160,137477,2,0,L|440:120,1,55
96,160,137932,1,0,0:0:0:0:
280,156,138159,1,0,0:0:0:0:
280,156,138386,1,0,0:0:0:0:
280,156,138614,1,0,0:0:0:0:
88,92,139068,6,0,P|104:64|184:76,1,110
460,320,139977,2,0,B|436:276|388:284|364:312,1,110
180,192,140659,2,0,L|124:168,1,55
248,196,141114,2,0,L|296:160,1,55
140,248,141568,2,0,L|88:212,1,55
292,248,142023,2,0,L|344:208,1,55
104,88,142477,5,0,0:0:0:0:
104,88,142591,1,0,0:0:0:0:
212,88,142705,1,0,0:0:0:0:
156,168,142932,1,0,0:0:0:0:
156,168,143045,1,0,0:0:0:0:
268,168,143159,1,0,0:0:0:0:
212,248,143386,1,0,0:0:0:0:
212,248,143500,1,0,0:0:0:0:
332,248,143614,1,0,0:0:0:0:
268,328,143841,2,0,L|312:328,1,27.5
268,328,144068,1,0,0:0:0:0:
380,144,144523,6,0,P|328:100|200:152,1,220
80,88,146341,5,0,0:0:0:0:
368,96,146568,2,0,P|384:64|436:60,1,82.5000031471254
88,208,147023,2,0,L|52:168,2,41.2500015735627
252,196,147477,1,0,0:0:0:0:
304,216,147591,1,0,0:0:0:0:
360,232,147705,1,0,0:0:0:0:
88,308,147932,6,0,L|44:284,2,41.2500015735627
344,160,148386,2,0,L|368:124,1,41.2500015735627
176,164,148614,2,0,L|144:132,1,41.2500015735627
260,160,148841,2,0,L|288:116,1,41.2500015735627
80,296,149068,2,0,B|136:268|120:200|100:136,1,165.000006294251
336,56,149636,5,0,0:0:0:0:
272,56,149750,1,0,0:0:0:0:
152,60,149864,1,0,0:0:0:0:
212,60,149977,1,0,0:0:0:0:
464,328,150205,2,0,P|428:328|396:296,1,82.5000031471254
460,64,150659,1,0,0:0:0:0:
404,64,150773,1,0,0:0:0:0:
352,64,150886,1,0,0:0:0:0:
92,320,151114,2,0,P|128:320|168:288,1,82.5000031471254
180,64,151568,5,0,0:0:0:0:
248,64,151795,2,0,L|336:64,1,82.5000031471254
48,248,152250,1,0,0:0:0:0:
256,244,152477,1,0,0:0:0:0:
396,164,152705,2,0,L|484:164,1,82.5000031471254
256,192,153159,6,0,L|344:192,2,82.5000031471254
88,112,153841,1,0,0:0:0:0:
312,336,154068,2,0,L|280:308,1,41.2500015735627
424,340,154295,2,0,L|456:300,1,41.2500015735627
248,336,154523,1,0,0:0:0:0:
76,268,154750,2,0,L|112:232,1,41.2500015735627
64,336,154977,6,0,L|32:300,1,41.2500015735627
208,336,155205,2,0,L|240:296,1,41.2500015735627
328,268,155432,1,0,0:0:0:0:
420,264,155659,1,0,0:0:0:0:
348,164,155886,6,0,L|376:132,1,41.2500015735627
104,168,156114,2,0,L|68:124,1,41.2500015735627
224,164,156341,2,0,L|256:128,1,41.2500015735627
464,160,156568,2,0,L|432:124,1,41.2500015735627
380,212,156795,6,0,P|408:272|496:252,1,165.000006294251
136,80,157705,2,0,L|88:88,4,41.2500015735627
448,96,158614,2,0,L|412:72,4,41.2500015735627
108,192,159523,2,0,B|172:172|272:176|372:244|420:300,1,330.000012588501
128,104,160886,5,0,0:0:0:0:
368,104,161114,2,0,L|408:72,2,41.2500015735627
128,104,161568,2,0,L|84:68,2,41.2500015735627
260,192,162023,1,0,0:0:0:0:
260,192,162136,1,0,0:0:0:0:
260,192,162250,1,0,0:0:0:0:
212,220,162477,6,0,L|172:180,2,41.2500015735627
380,168,162932,1,0,0:0:0:0:
380,168,163045,1,0,0:0:0:0:
380,168,163159,1,0,0:0:0:0:
348,76,163386,1,0,0:0:0:0:
256,80,163500,1,0,0:0:0:0:
172,80,163614,1,0,0:0:0:0:
164,92,163841,6,0,P|168:148|188:164,1,82.5000031471254
384,232,164295,2,0,L|428:208,2,41.2500015735627
132,232,164750,2,0,L|100:200,2,41.2500015735627
212,112,165205,1,0,0:0:0:0:
320,112,165318,1,0,0:0:0:0:
268,112,165432,1,0,0:0:0:0:
216,240,165659,6,0,L|280:304,1,82.5000031471254
400,164,166114,2,0,L|472:108,1,82.5000031471254
136,164,166568,2,0,L|84:96,1,82.5000031471254
224,108,167023,1,0,0:0:0:0:
256,108,167136,1,0,0:0:0:0:
464,296,167250,1,0,0:0:0:0:
464,296,167364,1,0,0:0:0:0:
60,296,167477,1,0,0:0:0:0:
388,192,167705,6,0,L|432:180,1,41.2500015735627
292,184,167932,1,0,0:0:0:0:
212,184,168045,1,0,0:0:0:0:
76,176,168159,2,0,P|116:164|152:136,1,82.5000031471254
176,232,168614,6,0,L|136:204,2,41.2500015735627
288,232,168955,1,0,0:0:0:0:
432,224,169068,1,0,0:0:0:0:
104,120,169523,6,0,L|140:100,2,41.2500015735627
216,104,169864,1,0,0:0:0:0:
320,100,169977,1,0,0:0:0:0:
424,132,170432,6,0,L|380:104,1,41.2500015735627
276,96,170659,1,0,0:0:0:0:
180,100,170773,1,0,0:0:0:0:
76,100,170886,2,0,P|36:160|24:184,1,82.5000031471254
80,220,171341,5,0,0:0:0:0:
452,220,171568,1,0,0:0:0:0:
80,220,171795,1,0,0:0:0:0:
452,220,172250,1,0,0:0:0:0:
80,220,172477,1,0,0:0:0:0:
452,220,172705,2,0,L|336:220,1,82.5000031471254
80,220,173159,5,0,0:0:0:0:
452,220,173386,1,0,0:0:0:0:
80,220,173614,1,0,0:0:0:0:
120,112,174068,2,0,L|168:112,2,41.2500015735627
208,128,174409,1,0,0:0:0:0:
248,156,174523,5,0,0:0:0:0:
280,192,174636,1,0,0:0:0:0:
304,240,174750,1,0,0:0:0:0:
184,244,174977,2,0,L|124:184,1,82.5000031471254
