osu file format v14

[General]
AudioFilename: VOCAMASHParadichlorobenzene x Anti chlorobenzene 1.mp3
AudioLeadIn: 0
PreviewTime: 145886
Countdown: 0
SampleSet: None
StackLeniency: 0.7
Mode: 0
LetterboxInBreaks: 0
WidescreenStoryboard: 0

[Editor]
Bookmarks: 22740
DistanceSpacing: 1
BeatDivisor: 4
GridSize: 4
TimelineZoom: 1

[Metadata]
Title:Paradichlorobenzene x Anti-chlorobenzene
TitleUnicode:Paradichlorobenzene x Anti-chlorobenzene
Artist:Owata-P, Signal-P
ArtistUnicode:Owata-P, Signal-P
Creator:afk98
Version:Benzene (Normal)
Source:
Tags:vocaloid c6h4cl2 chemistry
BeatmapID:677809
BeatmapSetID:302383

[Difficulty]
HPDrainRate:3
CircleSize:3.7
OverallDifficulty:4
ApproachRate:4
SliderMultiplier:1.1
SliderTickRate:1

[Events]
//Background and Video events
0,0,"Benzene.png",0,0
Video,0,"videoFileNo182332.flv"
//Break Periods
2,38814,45021
2,90177,92294
2,108359,114112
2,138814,144566
//Storyboard Layer 0 (Background)
//Storyboard Layer 1 (Fail)
//Storyboard Layer 2 (Pass)
//Storyboard Layer 3 (Foreground)
//Storyboard Sound Samples

[TimingPoints]
1372,666.666666666667,4,3,0,100,1,0
22705,454.545454545455,4,1,0,100,1,0
24523,-100,4,1,0,100,0,1
39068,-100,4,1,0,100,0,0
75432,-100,4,1,0,100,0,1
89977,-100,4,1,0,100,0,0
145886,-100,4,1,0,100,0,1
175432,-100,4,1,0,100,0,0

[Colours]
Combo1 : 128,0,0
Combo2 : 255,0,0
Combo3 : 128,128,128
Combo4 : 242,24,57

[HitObjects]
112,208,1372,6,0,B|140:172|192:168|228:192,1,110
180,260,2705,1,0,0:0:0:0:
96,312,4038,2,0,P|40:280|40:228,1,110
120,228,5372,1,0,0:0:0:0:
284,80,6705,6,0,B|348:108|376:160|352:216|292:244,1,220
184,252,8705,2,0,P|128:228|92:180,1,110
276,64,10705,1,0,0:0:0:0:
308,112,11038,1,0,0:0:0:0:
308,112,12038,6,0,B|404:112|484:168|484:228,1,220
296,332,14705,2,0,B|256:348|212:336|200:312,2,82.5
356,240,16372,1,0,0:0:0:0:
240,124,17372,2,0,L|192:76,2,55
316,204,18705,1,0,0:0:0:0:
256,192,20038,12,0,22705,0:0:0:0:
452,304,23614,6,0,L|340:288,1,110
244,244,24523,5,0,0:0:0:0:
176,160,24977,1,0,0:0:0:0:
272,104,25432,1,0,0:0:0:0:
308,208,25886,1,0,0:0:0:0:
208,256,26341,6,0,L|96:256,1,110
52,156,27250,1,0,0:0:0:0:
120,68,27705,1,0,0:0:0:0:
220,112,28159,5,0,0:0:0:0:
272,208,28614,1,0,0:0:0:0:
380,188,29068,2,0,P|376:128|416:108,1,110
464,168,29977,2,0,P|464:236|336:260,1,220
256,188,31341,6,0,L|212:144,2,55
328,272,32250,2,0,L|368:316,2,55
252,192,33159,1,0,0:0:0:0:
200,176,33386,2,0,P|148:164|132:176,1,55
168,272,34068,2,0,L|216:312,2,55
240,104,34977,6,0,L|352:104,1,110
284,192,35886,2,0,L|396:192,1,110
394,192,36795,6,0,P|418:152|396:88,1,110
332,140,37705,2,0,P|324:68|364:24,1,110
232,40,38614,1,4,0:0:0:0:
264,308,46341,5,0,0:0:0:0:
372,296,46795,1,0,0:0:0:0:
288,224,47250,2,0,L|288:168,2,55
288,112,48159,5,0,0:0:0:0:
372,84,48614,1,0,0:0:0:0:
368,192,49068,2,0,L|368:252,2,55
256,192,49977,5,0,0:0:0:0:
144,192,50432,1,0,0:0:0:0:
200,288,50886,1,0,0:0:0:0:
312,288,51341,1,0,0:0:0:0:
252,180,51795,2,0,P|268:108|352:68,1,165
348,124,52705,2,0,L|348:204,1,55
348,232,53159,1,0,0:0:0:0:
404,136,53614,5,0,0:0:0:0:
296,160,54068,2,0,P|248:184|220:236,1,110
312,292,54977,1,0,0:0:0:0:
200,296,55432,1,0,0:0:0:0:
204,188,55886,2,0,L|204:76,1,110
312,68,56795,1,0,0:0:0:0:
204,60,57250,6,0,B|136:64|108:88|88:116|88:160|148:184|160:200,1,220
228,280,58614,1,0,0:0:0:0:
324,336,59068,2,0,B|360:360|400:360|428:324|448:280|424:228|408:200,1,220
344,124,60432,1,0,0:0:0:0:
236,120,60886,5,0,0:0:0:0:
148,188,61341,1,0,0:0:0:0:
144,296,61795,1,0,0:0:0:0:
64,220,62250,1,0,0:0:0:0:
168,184,62705,6,0,L|236:184,1,55
276,184,63159,1,0,0:0:0:0:
204,104,63614,1,0,0:0:0:0:
172,208,64068,1,0,0:0:0:0:
228,264,64523,6,0,L|344:264,1,110
448,260,65432,1,0,0:0:0:0:
452,152,65886,1,0,0:0:0:0:
372,80,66341,1,0,0:0:0:0:
264,76,66795,1,0,0:0:0:0:
156,88,67250,2,0,B|108:108|76:132|64:160,1,110
100,276,68159,1,0,0:0:0:0:
232,280,68614,6,0,P|304:272|348:232,1,110
240,176,69523,2,0,P|176:172|124:216,1,110
120,272,70432,6,0,P|124:316|192:328,1,110
212,256,71341,2,0,P|204:212|128:192,1,110
256,80,72705,1,0,0:0:0:0:
388,192,73614,1,0,0:0:0:0:
216,188,74523,2,0,L|160:188,2,55
320,188,75432,5,0,0:0:0:0:
216,188,75886,2,0,L|100:188,1,110
104,84,76795,2,0,L|216:84,1,110
312,88,77705,2,0,P|348:132|352:192,1,110
284,264,78614,6,0,L|216:264,1,55
192,224,79068,1,0,0:0:0:0:
192,160,79523,1,0,0:0:0:0:
232,108,79977,1,0,0:0:0:0:
288,88,80432,1,0,0:0:0:0:
344,84,80886,2,0,P|376:104|400:176,1,110
400,248,81795,2,0,L|400:316,1,55
368,328,82250,1,0,0:0:0:0:
284,328,82705,5,0,0:0:0:0:
160,328,83159,2,0,L|92:328,2,55
272,328,84068,2,0,L|336:328,2,55
132,328,84977,1,0,0:0:0:0:
132,244,85432,1,0,0:0:0:0:
132,184,85659,1,0,0:0:0:0:
132,120,85886,1,0,0:0:0:0:
132,48,86341,6,0,B|188:48|244:60|272:84|280:112|288:156|288:172,1,220
300,272,87705,1,0,0:0:0:0:
368,312,88159,2,0,B|404:312|444:264|452:252|452:184|444:128,1,220
348,144,89523,1,0,0:0:0:0:
136,144,89977,1,0,0:0:0:0:
437,49,93614,6,0,P|436:143|320:200,1,220
442,320,95432,2,0,P|358:323|257:219,1,220
67,326,97250,2,0,B|66:233|111:164|168:140,1,220
120,52,99068,2,0,P|232:52|347:88,1,220
256,68,100886,6,0,L|368:68,1,110
368,152,101795,1,0,0:0:0:0:
368,192,102136,1,0,0:0:0:0:
256,312,102705,6,0,L|144:312,1,110
152,192,103614,1,0,0:0:0:0:
152,140,103955,1,0,0:0:0:0:
272,128,104523,6,0,B|344:128|372:140|400:192|400:272|400:296,1,220
308,240,105886,1,0,0:0:0:0:
240,272,106341,1,0,0:0:0:0:
168,272,106795,1,0,0:0:0:0:
308,272,107250,1,0,0:0:0:0:
384,76,107705,5,0,0:0:0:0:
256,192,108159,5,4,0:0:0:0:
396,192,115432,5,0,0:0:0:0:
328,192,115659,2,0,L|272:192,1,55
216,196,116114,2,0,P|172:204|148:220,2,55
164,208,116795,1,0,0:0:0:0:
100,120,117250,5,0,0:0:0:0:
144,88,117477,2,0,L|216:88,1,55
252,104,117932,2,0,P|292:128|296:144,3,55
224,240,119068,5,0,0:0:0:0:
180,208,119295,2,0,P|188:172|204:136,1,55
236,120,119750,2,0,L|288:96,2,55
336,76,120432,2,0,P|396:76|420:128,2,110
424,160,121795,1,0,0:0:0:0:
368,260,122250,1,0,0:0:0:0:
256,192,122705,6,0,P|328:188|384:196,1,110
364,280,123614,2,0,P|292:292|248:280,1,110
256,156,124523,1,0,0:0:0:0:
392,156,124977,1,0,0:0:0:0:
392,284,125432,1,0,0:0:0:0:
256,288,125886,1,0,0:0:0:0:
120,284,126341,6,0,B|96:252|92:204|120:176|164:160|172:120|160:88|153:72,1,220
304,76,127705,1,0,0:0:0:0:
304,76,128159,2,0,B|288:148|328:180|360:200|376:256|352:300,1,220
264,308,129523,1,0,0:0:0:0:
264,308,129977,2,0,B|332:276|352:208|320:132|280:112,1,220
216,204,131341,1,0,0:0:0:0:
404,84,131795,5,0,0:0:0:0:
404,168,132023,2,0,L|404:232,3,55
396,308,133159,2,0,P|312:308|284:288,1,110
352,240,134068,2,0,P|316:216|252:228,1,110
176,296,134977,1,0,0:0:0:0:
156,200,135432,6,0,P|160:148|208:96,1,110
292,64,136341,1,0,0:0:0:0:
368,68,136568,2,0,P|404:80|416:96,1,55
440,168,137250,1,0,0:0:0:0:
424,252,137705,2,0,P|404:284|400:316,4,55
184,192,145886,5,0,0:0:0:0:
340,196,146341,1,0,0:0:0:0:
392,144,146568,2,0,L|460:164,1,55
452,224,147023,2,0,L|400:260,1,55
344,260,147477,2,0,L|304:220,1,55
264,184,147932,2,0,L|316:144,1,55
160,108,148614,1,0,0:0:0:0:
96,196,149068,2,0,P|80:260|108:300,1,110
160,304,149750,5,0,0:0:0:0:
208,312,149977,1,0,0:0:0:0:
304,312,150432,2,0,P|368:312|404:260,1,110
432,184,151341,2,0,P|440:120|412:80,1,110
304,68,152250,2,0,P|228:72|192:96,1,110
132,144,153159,1,0,0:0:0:0:
84,192,153386,6,0,P|80:232|108:248,1,55
160,272,153841,2,0,L|216:272,1,55
296,260,154295,2,0,L|356:212,1,55
384,164,154750,2,0,P|392:124|372:96,3,55
328,72,155886,5,0,0:0:0:0:
176,72,156341,1,0,0:0:0:0:
172,192,156795,2,0,L|284:192,1,110
372,192,157705,5,0,0:0:0:0:
372,304,158159,1,0,0:0:0:0:
256,304,158614,2,0,L|136:304,1,110
144,204,159523,1,0,0:0:0:0:
312,208,159977,6,0,L|312:84,1,110
312,44,160886,1,0,0:0:0:0:
224,44,161114,2,0,L|156:44,1,55
92,40,161568,2,0,L|92:96,1,55
92,172,162023,2,0,L|156:172,1,55
224,176,162477,2,0,L|224:120,1,55
348,112,163159,5,0,0:0:0:0:
348,288,163614,2,0,L|280:288,2,55
256,192,164523,1,0,0:0:0:0:
368,96,164977,1,0,0:0:0:0:
268,104,165432,5,0,0:0:0:0:
256,192,165886,1,0,0:0:0:0:
256,296,166341,5,0,0:0:0:0:
156,280,166795,1,0,0:0:0:0:
136,192,167250,1,0,0:0:0:0:
256,192,167705,1,0,0:0:0:0:
320,192,167932,1,0,0:0:0:0:
380,196,168159,6,0,P|420:172|424:96,1,110
312,72,169068,2,0,P|236:68|188:92,1,110
120,192,169977,2,0,P|108:256|136:296,1,110
268,308,170886,2,0,P|336:304|380:288,1,110
424,184,171568,2,0,L|424:128,1,55
344,132,172023,2,0,L|288:132,1,55
276,204,172477,2,0,L|276:272,1,55
364,264,172932,2,0,L|432:264,1,55
424,172,173386,6,0,L|424:100,5,55
424,260,174977,2,0,P|416:320|364:340,1,110
