osu file format v12

[General]
AudioFilename: Lost one no Goukoku.mp3
AudioLeadIn: 0
PreviewTime: 167123
Countdown: 0
SampleSet: Normal
StackLeniency: 0.7
Mode: 0
LetterboxInBreaks: 0

[Editor]
Bookmarks: 16382,26753,40086,51938,63790,75642,87493,99345,111197,123049,134901,146753,158605,170456,182308,195642,207493
DistanceSpacing: 0.7
BeatDivisor: 4
GridSize: 8

[Metadata]
Title:Lost one no Goukoku
TitleUnicode:ロストワンの号哭
Artist:Owan
ArtistUnicode:おわん
Creator:sunshy
Version:overflow
Source:
Tags:vocaloid kagamine rin oshiirep
BeatmapID:239693
BeatmapSetID:87840

[Difficulty]
HPDrainRate:8
CircleSize:4
OverallDifficulty:8
ApproachRate:9
SliderMultiplier:2.4
SliderTickRate:2

[Events]
//Background and Video events
0,0,"34023503.jpg",1,1
//Break Periods
2,16582,26153
2,40286,45412
2,99916,110597
//Storyboard Layer 0 (Background)
//Storyboard Layer 1 (Fail)
//Storyboard Layer 2 (Pass)
//Storyboard Layer 3 (Foreground)
//Storyboard Sound Samples
//Background Colour Transformations
3,100,163,162,255

[TimingPoints]
1568,370.37037037037,4,1,1,100,1,0
51567,-200,4,1,1,100,0,0
51753,-100,4,1,1,100,0,0
75642,-80,4,1,1,100,0,1
99345,-100,4,1,1,100,0,0
111012,-133.333333333333,4,1,1,100,0,0
123049,-100,4,1,1,100,0,0
134901,-80,4,1,1,100,0,1
157864,-66.6666666666667,4,1,1,100,0,1
158234,-66.6666666666667,4,1,1,100,0,0
164530,-66.6666666666667,4,1,1,40,0,0
168975,-66.6666666666667,4,1,1,100,0,0
170456,-66.6666666666667,4,1,1,100,0,1
181938,-100,4,1,1,100,0,0
183790,-100,4,1,1,100,0,0

[Colours]
Combo1 : 207,10,10
Combo2 : 137,194,183
Combo3 : 140,140,140
Combo4 : 196,165,123
Combo5 : 154,71,82
Combo6 : 41,48,88

[HitObjects]
176,80,1568,1,0,0:0:0:0:
176,80,1753,1,0,0:0:0:0:
256,40,1938,2,0,L|280:112,1,60
368,224,2123,2,0,L|344:160,1,60
424,160,2308,1,0,0:0:0:0:
424,160,2493,1,0,0:0:0:0:
232,240,2679,2,0,L|296:256,1,60
440,352,2864,2,0,L|360:336,1,60
264,320,3049,1,0,0:0:0:0:
264,320,3234,1,0,0:0:0:0:
152,312,3419,2,0,L|192:248,1,60
128,128,3605,2,0,L|216:160,1,60
296,192,3790,1,0,0:0:0:0:
392,72,4160,5,0,0:0:0:0:
392,72,4530,6,0,L|408:208,1,120
368,272,4901,2,0,L|432:312,2,60
223,277,5271,2,0,L|248:160,1,120
152,88,5642,1,0,0:0:0:0:
152,88,5734,1,0,0:0:0:0:
152,88,5827,1,0,0:0:0:0:
72,208,6012,2,0,L|208:200,1,120
280,248,6382,2,0,L|360:224,2,60
368,320,6753,2,0,L|328:160,1,120
424,144,7123,1,0,0:0:0:0:
424,144,7216,1,0,0:0:0:0:
424,144,7308,1,0,0:0:0:0:
96,160,7493,6,0,L|248:96,1,120
312,80,7864,1,0,0:0:0:0:
312,80,7956,1,0,0:0:0:0:
312,80,8049,1,0,0:0:0:0:
312,80,8234,2,0,L|352:224,1,120
408,264,8605,2,0,L|480:288,3,60
480,344,8975,2,0,L|320:360,1,120
224,312,9345,1,0,0:0:0:0:
224,312,9438,1,0,0:0:0:0:
224,312,9530,1,0,0:0:0:0:
144,184,9716,2,0,L|240:72,1,120
224,152,10086,2,0,L|272:208,1,60
408,280,10271,2,0,L|360:232,1,60
392,48,10456,6,0,L|352:176,1,120
304,288,10827,2,0,L|224:296,2,60
104,128,11197,2,0,L|256:112,1,120
320,80,11567,1,0,0:0:0:0:
320,80,11660,1,0,0:0:0:0:
320,80,11753,1,0,0:0:0:0:
432,312,11938,2,0,L|384:192,1,120
288,208,12308,2,0,L|288:272,2,60
240,264,12679,2,0,L|104:248,1,120
64,176,13049,1,0,0:0:0:0:
64,176,13142,1,0,0:0:0:0:
64,176,13234,1,0,0:0:0:0:
160,56,13419,6,0,L|224:168,1,120
312,152,13790,2,0,L|400:160,2,60
408,72,14160,2,0,L|432:208,1,120
360,280,14530,2,0,L|288:304,3,60
368,248,14901,2,0,L|216:208,1,120
120,272,15271,1,0,0:0:0:0:
120,272,15364,1,0,0:0:0:0:
120,272,15456,1,0,0:0:0:0:
120,272,15642,1,0,0:0:0:0:
376,344,15827,1,0,0:0:0:0:
448,112,16012,1,0,0:0:0:0:
200,32,16197,1,0,0:0:0:0:
256,192,16382,5,0,0:0:0:0:
312,80,26753,6,0,L|240:112,3,60
232,168,27123,2,0,L|152:200,3,60
88,248,27493,2,0,L|168:288,1,60
208,248,27679,2,0,L|240:304,1,60
328,352,27864,2,0,L|320:272,1,60
424,248,28049,1,0,0:0:0:0:
368,144,28234,6,0,B|368:72|368:72|320:64,1,120
240,104,28605,1,0,0:0:0:0:
168,56,28790,1,0,0:0:0:0:
144,56,28882,1,0,0:0:0:0:
120,56,28975,1,0,0:0:0:0:
112,152,29160,2,0,B|96:216|96:216|160:232,1,120
148,229,29530,1,0,0:0:0:0:
224,304,29716,2,0,B|256:240|256:240|312:272|312:272|328:328,1,180
360,336,30086,2,0,L|440:312,1,60
424,192,30456,5,0,0:0:0:0:
336,96,30642,1,0,0:0:0:0:
336,96,30734,1,0,0:0:0:0:
256,64,30919,1,0,0:0:0:0:
232,56,31012,1,0,0:0:0:0:
208,56,31105,1,0,0:0:0:0:
184,56,31197,2,0,B|120:64|120:64|72:104,1,120
72,120,31475,1,0,0:0:0:0:
160,272,31660,1,0,0:0:0:0:
176,264,31753,2,0,B|176:200|176:200|240:184,1,120
328,328,32123,1,0,0:0:0:0:
328,328,32216,1,0,0:0:0:0:
328,328,32308,1,0,0:0:0:0:
400,232,32493,1,0,0:0:0:0:
416,80,32679,6,0,B|352:72|352:72|296:120,1,120
248,176,33049,2,0,B|192:200|192:200|112:208,1,120
48,296,33419,2,0,L|120:304,1,60
192,240,33605,2,0,L|248:200,1,60
104,192,33790,2,0,L|128:272,1,60
176,336,33975,1,0,0:0:0:0:
352,304,34160,6,0,B|400:264|400:264|416:208,1,120
415,208,34530,1,0,0:0:0:0:
328,112,34716,1,0,0:0:0:0:
328,112,34808,1,0,0:0:0:0:
328,112,34901,1,0,0:0:0:0:
328,112,35086,1,0,0:0:0:0:
128,80,35271,1,0,0:0:0:0:
328,112,35456,1,0,0:0:0:0:
128,80,35642,2,0,B|88:136|88:136|112:184,1,120
110,181,36012,1,0,0:0:0:0:
168,264,36197,1,0,0:0:0:0:
168,264,36290,1,0,0:0:0:0:
272,272,36475,1,0,0:0:0:0:
296,256,36568,1,0,0:0:0:0:
320,240,36660,1,0,0:0:0:0:
336,216,36753,2,0,B|352:152|352:152|400:192,1,120
408,296,37123,5,0,0:0:0:0:
264,312,37308,2,0,L|288:256,1,60
256,128,37586,2,0,L|224:184,1,60
224,184,38049,1,0,0:0:0:0:
64,48,38234,1,0,0:0:0:0:
120,344,38419,1,0,0:0:0:0:
320,264,38605,1,0,0:0:0:0:
368,296,38697,1,0,0:0:0:0:
424,280,38790,1,0,0:0:0:0:
456,240,38882,1,0,0:0:0:0:
448,184,38975,2,0,L|424:120,1,60
344,40,39160,2,0,L|368:104,1,60
296,128,39345,2,0,L|224:120,3,60
224,176,39716,2,0,L|144:184,3,60
128,232,40086,1,0,0:0:0:0:
312,152,46012,6,0,B|328:80|328:80|384:112,1,120
440,192,46382,1,0,0:0:0:0:
448,224,46475,1,0,0:0:0:0:
456,256,46567,1,0,0:0:0:0:
336,272,46753,2,0,B|280:296|280:296|216:312,1,120
152,184,47123,2,0,L|96:144,2,60
320,48,47493,2,0,L|192:48,1,120
256,152,47864,1,0,0:0:0:0:
256,152,47956,1,0,0:0:0:0:
256,152,48049,1,0,0:0:0:0:
376,160,48234,2,0,B|448:168|448:168|408:200|408:200|408:208,1,120
328,240,48605,2,0,L|256:280,1,60
288,304,48790,2,0,L|216:304,1,60
160,312,48975,6,0,L|64:208,1,120
112,128,49345,2,0,L|32:144,2,60
224,72,49716,2,0,B|240:136|240:136|296:120|296:120,1,120
424,112,50086,1,0,0:0:0:0:
424,144,50179,1,0,0:0:0:0:
416,176,50271,1,0,0:0:0:0:
424,272,50456,2,0,B|352:312|352:312|296:304,1,120
216,280,50827,2,0,L|168:224,3,60
160,208,51197,1,0,0:0:0:0:
408,344,51382,1,0,0:0:0:0:
440,40,51567,2,0,L|368:40,1,60
200,96,51938,6,0,B|256:128|256:128|256:192,1,120
160,208,52308,1,0,0:0:0:0:
56,168,52493,1,0,0:0:0:0:
56,168,52586,1,0,0:0:0:0:
56,168,52679,1,0,0:0:0:0:
80,280,52864,1,0,0:0:0:0:
176,344,53049,1,0,0:0:0:0:
288,304,53234,1,0,0:0:0:0:
368,256,53419,2,0,B|416:208|416:208|376:168,1,120
379,171,53790,2,0,L|296:168,2,60
328,56,54160,1,0,0:0:0:0:
216,104,54345,1,0,0:0:0:0:
216,104,54438,1,0,0:0:0:0:
112,56,54623,1,0,0:0:0:0:
112,56,54716,1,0,0:0:0:0:
112,56,54808,1,0,0:0:0:0:
112,56,54901,6,0,B|96:104|96:104|120:112|120:112|104:160,1,120
106,153,55179,1,0,0:0:0:0:
184,224,55364,1,0,0:0:0:0:
184,224,55456,2,0,B|248:232|248:232|248:288|248:288|320:288|320:288|344:232,1,240
376,160,56012,1,0,0:0:0:0:
376,160,56197,1,0,0:0:0:0:
368,64,56382,2,0,B|296:72|296:72|288:128,1,120
56,208,56753,2,0,B|120:192|120:192|160:240,1,120
256,312,57123,2,0,L|256:240,1,60
304,152,57308,2,0,L|360:112,1,60
144,160,57493,2,0,L|232:192,1,60
240,192,57679,1,0,0:0:0:0:
416,224,57864,6,0,B|416:288|416:288|352:336,1,120
371,321,58234,1,0,0:0:0:0:
200,272,58419,1,0,0:0:0:0:
200,272,58512,1,0,0:0:0:0:
200,272,58605,1,0,0:0:0:0:
200,272,58790,1,0,0:0:0:0:
48,192,58975,1,0,0:0:0:0:
88,112,59160,1,0,0:0:0:0:
240,88,59345,2,0,L|160:64,2,60
376,120,59716,2,0,L|392:56,2,60
208,216,60086,1,0,0:0:0:0:
248,240,60179,1,0,0:0:0:0:
304,224,60271,1,0,0:0:0:0:
352,248,60364,1,0,0:0:0:0:
384,296,60456,2,0,B|320:344|320:344|280:320,1,120
128,272,60827,5,0,0:0:0:0:
128,272,61012,1,0,0:0:0:0:
128,272,61105,1,0,0:0:0:0:
128,272,61197,1,0,0:0:0:0:
128,272,61382,2,0,B|96:216|96:216|144:176|144:176|112:128|112:128|128:56,1,240
248,72,61938,2,0,L|200:16,2,60
384,112,62308,1,0,0:0:0:0:
448,232,62586,1,0,0:0:0:0:
352,328,62864,1,0,0:0:0:0:
216,304,63049,2,0,L|264:248,1,60
352,200,63234,2,0,L|288:184,1,60
192,184,63419,2,0,L|216:128,2,60
80,192,63790,6,0,B|32:240|32:240|88:264|88:264|144:240,1,180
448,40,64345,2,0,L|480:96,1,60
488,160,64530,2,0,B|416:160|416:160|360:128|360:128|416:88,1,180
120,80,65086,2,0,L|72:24,1,60
184,48,65271,2,0,B|176:112|176:112|112:128|112:128|64:112,1,180
384,304,65827,2,0,L|328:352,1,60
256,344,66012,2,0,B|248:272|248:272|304:288|304:288|344:256,1,180
40,96,66567,6,0,L|104:112,1,60
104,48,66753,2,0,B|176:40|176:40|224:72|224:72|152:104,1,180
488,248,67308,2,0,L|448:200,1,60
416,256,67493,2,0,B|352:256|352:256|392:200|392:200|320:224,1,180
128,360,68049,2,0,L|96:304,1,60
72,264,68234,2,0,B|136:280|136:280|192:320|192:320|128:368,1,180
312,48,68790,1,0,0:0:0:0:
360,32,68882,1,0,0:0:0:0:
368,64,68975,2,0,B|448:64|448:64|440:112|440:112|480:80,1,180
288,320,69530,5,0,0:0:0:0:
240,320,69623,1,0,0:0:0:0:
192,320,69716,2,0,B|128:320|128:320|176:288|176:288|136:224,1,180
32,72,70271,2,0,L|96:64,1,60
104,112,70456,2,0,B|128:40|128:40|144:88|144:88|184:40,1,180
480,312,71012,2,0,L|400:304,1,60
368,296,71197,2,0,B|392:352|392:352|320:336|320:336|264:352,1,180
208,24,71753,1,0,0:0:0:0:
160,48,71845,1,0,0:0:0:0:
120,80,71938,2,0,B|168:120|168:120|240:80|240:80|288:96,1,180
120,224,72493,5,0,0:0:0:0:
152,256,72586,1,0,0:0:0:0:
144,304,72679,2,0,L|208:352,1,60
272,304,72864,2,0,L|248:248,1,60
368,272,73049,2,0,L|352:336,1,60
456,312,73234,2,0,B|496:248|496:248|488:184|488:184|432:200|432:200|384:160,1,240
376,88,73790,1,0,0:0:0:0:
320,64,73882,1,0,0:0:0:0:
280,104,73975,1,0,0:0:0:0:
224,96,74067,1,0,0:0:0:0:
168,112,74160,2,0,L|104:80,1,60
48,120,74345,2,0,L|120:152,1,60
136,160,74530,1,0,0:0:0:0:
160,208,74623,1,0,0:0:0:0:
120,224,74716,1,0,0:0:0:0:
72,224,74808,1,0,0:0:0:0:
96,256,74901,1,0,0:0:0:0:
136,280,74993,1,0,0:0:0:0:
176,312,75086,1,0,0:0:0:0:
224,320,75179,1,0,0:0:0:0:
256,296,75271,1,0,0:0:0:0:
304,280,75364,1,0,0:0:0:0:
344,264,75456,5,0,0:0:0:0:
384,288,75549,1,0,0:0:0:0:
424,280,75642,2,0,B|472:208|472:208|448:128,1,150
440,120,75919,1,0,0:0:0:0:
368,72,76105,1,0,0:0:0:0:
368,72,76197,2,0,B|288:96|288:96|208:80,1,150
128,48,76567,1,0,0:0:0:0:
80,168,76753,2,0,B|160:128|160:128|128:208,1,150
88,256,77123,2,0,B|104:336|104:336|176:312,1,150
192,336,77401,2,0,B|280:352|280:352|336:312,1,150
368,280,77679,1,0,0:0:0:0:
448,176,77864,2,0,L|376:200,1,75
320,168,78049,2,0,L|352:88,1,75
400,56,78234,2,0,L|480:112,1,75
448,176,78419,5,0,0:0:0:0:
416,200,78512,1,0,0:0:0:0:
384,224,78605,2,0,B|424:296|424:296|368:336,1,150
328,344,78882,1,0,0:0:0:0:
224,256,79067,1,0,0:0:0:0:
224,256,79160,2,0,B|160:320|160:320|88:304,1,150
56,224,79530,1,0,0:0:0:0:
136,176,79716,2,0,B|104:128|104:128|72:152|72:152|40:104,1,150
208,64,80086,2,0,B|288:48|288:48|376:64,1,150
384,88,80364,2,0,B|464:112|464:112|384:144,1,150
368,176,80642,1,0,0:0:0:0:
312,248,80827,1,0,0:0:0:0:
280,280,80919,1,0,0:0:0:0:
280,320,81012,1,0,0:0:0:0:
240,352,81105,1,0,0:0:0:0:
192,344,81197,1,0,0:0:0:0:
144,336,81290,1,0,0:0:0:0:
104,328,81382,5,0,0:0:0:0:
96,288,81475,1,0,0:0:0:0:
112,248,81567,2,0,B|200:240|200:240|232:176,1,150
227,184,81845,1,0,0:0:0:0:
288,112,82030,1,0,0:0:0:0:
288,112,82123,2,0,B|224:88|224:88|128:72,1,150
128,144,82493,2,0,L|40:176,2,75
128,144,82864,1,0,0:0:0:0:
120,248,83049,2,0,B|192:272|192:272|176:344,1,150
232,336,83327,2,0,B|288:304|288:304|392:296,1,150
416,288,83605,1,0,0:0:0:0:
440,192,83790,2,0,L|488:128,3,75
376,208,84160,2,0,L|392:128,1,75
392,96,84345,5,0,0:0:0:0:
360,64,84438,1,0,0:0:0:0:
312,64,84530,2,0,L|144:56,1,150
104,96,84808,2,0,L|256:128,1,150
272,176,85086,1,0,0:0:0:0:
208,256,85271,2,0,L|120:240,3,75
48,280,85642,2,0,L|104:352,1,75
144,304,85827,2,0,L|232:328,1,75
264,328,86012,2,0,B|360:336|360:336|384:272,1,150
448,256,86290,2,0,B|400:176|400:176|328:208|328:208|304:152,1,225
304,72,86753,1,0,0:0:0:0:
256,48,86845,1,0,0:0:0:0:
216,80,86938,1,0,0:0:0:0:
160,72,87030,1,0,0:0:0:0:
112,96,87123,2,0,L|152:160,1,75
80,184,87308,2,0,L|152:232,1,75
144,280,87493,6,0,B|216:328|216:328|288:296,1,150
273,302,87771,1,0,0:0:0:0:
360,240,87956,1,0,0:0:0:0:
360,240,88049,2,0,L|408:72,1,150
401,95,88419,2,0,B|328:136|328:136|240:120,1,150
200,56,88790,1,0,0:0:0:0:
72,128,88975,2,0,B|168:144|168:144|128:208,1,150
104,208,89253,2,0,L|56:352,1,150
96,336,89530,1,0,0:0:0:0:
200,336,89716,2,0,L|288:328,1,75
440,304,89901,2,0,L|360:320,1,75
224,272,90086,2,0,L|312:224,1,75
440,96,90271,5,0,0:0:0:0:
424,144,90364,1,0,0:0:0:0:
408,184,90456,2,0,B|376:264|376:264|304:288,1,150
315,284,90734,1,0,0:0:0:0:
184,200,90919,1,0,0:0:0:0:
184,200,91012,2,0,B|88:256|88:256|80:200,1,150
112,136,91382,1,0,0:0:0:0:
200,64,91567,2,0,L|120:40,2,75
288,72,91938,2,0,B|288:152|288:152|368:120,1,150
376,80,92216,2,0,B|448:40|448:40|504:112,1,150
448,144,92493,1,0,0:0:0:0:
408,208,92679,2,0,L|480:264,3,75
456,288,93049,1,0,0:0:0:0:
432,320,93142,1,0,0:0:0:0:
384,312,93234,5,0,0:0:0:0:
352,336,93327,1,0,0:0:0:0:
312,352,93419,1,0,0:0:0:0:
208,328,93605,1,0,0:0:0:0:
208,328,93697,1,0,0:0:0:0:
104,248,93882,1,0,0:0:0:0:
104,248,93975,2,0,B|176:224|176:224|184:136|184:136|96:120|96:120|80:64,1,300
192,56,94530,2,0,L|256:0,2,75
288,112,94901,2,0,B|368:120|368:120|392:40,1,150
416,72,95179,2,0,B|496:104|496:104|512:184,1,150
472,208,95456,1,0,0:0:0:0:
408,280,95642,1,0,0:0:0:0:
408,280,95734,1,0,0:0:0:0:
408,280,95827,1,0,0:0:0:0:
408,280,95919,1,0,0:0:0:0:
408,280,96012,2,0,L|312:280,1,75
272,336,96197,2,0,L|280:256,1,75
232,240,96382,6,0,B|128:256|128:256|64:224,1,150
96,192,96660,2,0,B|96:112|96:112|128:24,1,150
119,46,96938,1,0,0:0:0:0:
240,56,97123,2,0,L|312:16,3,75
344,48,97493,1,0,0:0:0:0:
448,112,97679,1,0,0:0:0:0:
384,168,97864,2,0,B|392:248|392:248|344:312,1,150
232,344,98234,2,0,L|256:272,1,75
200,256,98419,1,0,0:0:0:0:
264,192,98605,2,0,L|360:176,3,75
352,144,98975,2,0,L|384:112,7,37.5
408,88,99345,1,0,0:0:0:0:
408,88,99716,1,0,0:0:0:0:
192,152,111197,5,0,0:0:0:0:
264,152,111475,1,0,0:0:0:0:
336,152,111753,1,0,0:0:0:0:
440,152,112123,1,0,0:0:0:0:
104,304,112679,5,0,0:0:0:0:
152,240,112956,1,0,0:0:0:0:
200,176,113234,1,0,0:0:0:0:
256,88,113605,1,0,0:0:0:0:
464,168,114160,5,0,0:0:0:0:
384,144,114438,1,0,0:0:0:0:
304,120,114716,1,0,0:0:0:0:
184,80,115086,1,0,0:0:0:0:
104,112,115642,5,0,0:0:0:0:
160,176,115919,1,0,0:0:0:0:
216,240,116197,1,0,0:0:0:0:
296,320,116567,1,0,0:0:0:0:
416,128,117123,5,0,0:0:0:0:
416,128,117308,1,0,0:0:0:0:
432,200,117493,1,0,0:0:0:0:
432,200,117679,1,0,0:0:0:0:
368,232,117864,2,0,L|432:304,1,90.0000034332277
368,336,118234,2,0,L|272:312,1,90.0000034332277
232,248,118605,2,0,L|224:144,3,90.0000034332277
152,160,119345,2,0,L|40:184,3,90.0000034332277
256,192,120086,12,0,121197,0:0:0:0:
388,115,122679,6,0,L|384:160,3,45.0000017166138
432,192,123049,2,0,B|480:240|480:240|424:264|424:264|368:240,1,180
64,40,123604,2,0,L|32:96,1,60
24,160,123789,2,0,B|96:160|96:160|152:128|152:128|96:88,1,180
392,80,124345,2,0,L|440:24,1,60
328,48,124530,2,0,B|336:112|336:112|400:128|400:128|448:112,1,180
128,304,125086,2,0,L|184:352,1,60
256,344,125271,2,0,B|264:272|264:272|208:288|208:288|168:256,1,180
472,96,125826,6,0,L|408:112,1,60
408,48,126012,2,0,B|336:40|336:40|288:72|288:72|360:104,1,180
24,248,126567,2,0,L|64:200,1,60
96,256,126752,2,0,B|160:256|160:256|120:200|120:200|192:224,1,180
384,360,127308,2,0,L|416:304,1,60
440,264,127493,2,0,B|376:280|376:280|320:320|320:320|384:368,1,180
200,48,128049,1,0,0:0:0:0:
152,32,128141,1,0,0:0:0:0:
144,64,128234,2,0,B|64:64|64:64|72:112|72:112|32:80,1,180
224,320,128789,5,0,0:0:0:0:
272,320,128882,1,0,0:0:0:0:
320,320,128975,2,0,B|384:320|384:320|336:288|336:288|376:224,1,180
480,72,129530,2,0,L|416:64,1,60
408,112,129715,2,0,B|384:40|384:40|368:88|368:88|328:40,1,180
32,312,130271,2,0,L|112:304,1,60
144,296,130456,2,0,B|120:352|120:352|192:336|192:336|248:352,1,180
304,24,131012,1,0,0:0:0:0:
352,48,131104,1,0,0:0:0:0:
392,80,131197,2,0,B|344:120|344:120|272:80|272:80|224:96,1,180
440,216,131753,5,0,0:0:0:0:
440,216,131845,1,0,0:0:0:0:
440,216,131938,2,0,L|384:280,1,60
344,256,132123,2,0,L|320:320,1,60
272,304,132308,1,0,0:0:0:0:
224,320,132401,1,0,0:0:0:0:
176,304,132493,2,0,B|152:248|152:248|72:248|72:248|40:144,1,240
160,72,133049,2,0,L|144:152,1,60
200,120,133234,2,0,L|216:192,1,60
256,192,133419,1,0,0:0:0:0:
304,168,133512,1,0,0:0:0:0:
336,128,133605,1,0,0:0:0:0:
376,88,133697,1,0,0:0:0:0:
424,104,133790,1,0,0:0:0:0:
456,128,133882,1,0,0:0:0:0:
440,176,133975,1,0,0:0:0:0:
416,216,134067,1,0,0:0:0:0:
400,256,134160,1,0,0:0:0:0:
368,280,134253,1,0,0:0:0:0:
312,296,134345,1,0,0:0:0:0:
312,296,134438,1,0,0:0:0:0:
280,328,134530,1,0,0:0:0:0:
232,320,134623,1,0,0:0:0:0:
192,320,134716,2,0,L|120:296,1,60
88,280,134901,6,0,B|40:208|40:208|64:128,1,150,0|0,0:0|0:0,0:0:0:0:
72,120,135178,1,0,0:0:0:0:
144,72,135364,1,0,0:0:0:0:
144,72,135456,2,0,B|224:96|224:96|304:80,1,150
384,48,135826,1,0,0:0:0:0:
432,168,136012,2,0,B|352:128|352:128|384:208,1,150
424,256,136382,2,0,B|408:336|408:336|336:312,1,150
320,336,136660,2,0,B|232:352|232:352|176:312,1,150
144,280,136938,1,0,0:0:0:0:
64,176,137123,2,0,L|136:200,1,75
192,168,137308,2,0,L|160:88,1,75
112,56,137493,2,0,L|32:112,1,75
64,176,137678,5,0,0:0:0:0:
96,200,137771,1,0,0:0:0:0:
128,224,137864,2,0,B|88:296|88:296|144:336,1,150
184,344,138141,1,0,0:0:0:0:
288,256,138326,1,0,0:0:0:0:
288,256,138419,2,0,B|352:320|352:320|424:304,1,150
456,224,138789,1,0,0:0:0:0:
376,176,138975,2,0,B|408:128|408:128|440:152|440:152|472:104,1,150
304,64,139345,2,0,B|224:48|224:48|136:64,1,150
128,88,139623,2,0,B|48:112|48:112|128:144,1,150
144,176,139901,1,0,0:0:0:0:
200,248,140086,1,0,0:0:0:0:
232,280,140178,1,0,0:0:0:0:
232,320,140271,1,0,0:0:0:0:
272,352,140364,1,0,0:0:0:0:
320,344,140456,1,0,0:0:0:0:
368,336,140549,1,0,0:0:0:0:
408,328,140641,5,0,0:0:0:0:
416,288,140734,1,0,0:0:0:0:
400,248,140826,2,0,B|312:240|312:240|280:176,1,150
285,184,141104,1,0,0:0:0:0:
224,112,141289,1,0,0:0:0:0:
224,112,141382,2,0,B|288:88|288:88|384:72,1,150
384,144,141752,2,0,L|472:176,2,75
384,144,142123,1,0,0:0:0:0:
392,248,142308,2,0,B|320:272|320:272|336:344,1,150
280,336,142586,2,0,B|224:304|224:304|120:296,1,150
96,288,142864,1,0,0:0:0:0:
72,192,143049,2,0,L|24:128,3,75
136,208,143419,2,0,L|120:128,1,75
120,96,143604,5,0,0:0:0:0:
152,64,143697,1,0,0:0:0:0:
200,64,143789,2,0,L|368:56,1,150
408,96,144067,2,0,L|256:128,1,150
240,176,144345,2,0,L|264:256,1,75
304,256,144530,2,0,L|392:240,3,75
464,280,144901,2,0,L|408:352,1,75
368,304,145086,2,0,L|280:328,1,75
248,328,145271,2,0,B|152:336|152:336|128:272,1,150
64,256,145549,2,0,B|112:176|112:176|184:208|184:208|208:152,1,225
208,72,146012,1,0,0:0:0:0:
256,48,146104,1,0,0:0:0:0:
296,80,146197,1,0,0:0:0:0:
352,72,146289,1,0,0:0:0:0:
400,96,146382,2,0,L|360:160,1,75
432,184,146567,2,0,L|360:232,1,75
368,280,146752,6,0,B|296:328|296:328|224:296,1,150
239,302,147030,1,0,0:0:0:0:
152,240,147215,1,0,0:0:0:0:
152,240,147308,2,0,L|104:72,1,150
111,95,147678,2,0,B|184:136|184:136|272:120,1,150
312,56,148049,1,0,0:0:0:0:
440,128,148234,2,0,B|344:144|344:144|384:208,1,150
408,208,148512,2,0,L|456:352,1,150
416,336,148789,1,0,0:0:0:0:
312,336,148975,2,0,L|224:328,1,75
72,304,149160,2,0,L|152:320,1,75
288,272,149345,2,0,L|200:224,1,75
72,96,149530,5,0,0:0:0:0:
88,144,149623,1,0,0:0:0:0:
104,184,149715,2,0,B|136:264|136:264|208:288,1,150
197,284,149993,1,0,0:0:0:0:
328,200,150178,1,0,0:0:0:0:
328,200,150271,2,0,B|424:256|424:256|432:200,1,150
400,136,150641,1,0,0:0:0:0:
312,64,150826,2,0,L|392:40,2,75
224,72,151197,2,0,B|224:152|224:152|144:120,1,150
136,80,151475,2,0,B|64:40|64:40|8:112,1,150
64,144,151752,1,0,0:0:0:0:
104,208,151938,2,0,L|32:264,3,75
56,288,152308,1,0,0:0:0:0:
80,320,152401,1,0,0:0:0:0:
128,312,152493,5,0,0:0:0:0:
160,336,152586,1,0,0:0:0:0:
200,352,152678,1,0,0:0:0:0:
304,328,152864,1,0,0:0:0:0:
304,328,152956,1,0,0:0:0:0:
408,248,153141,1,0,0:0:0:0:
408,248,153234,2,0,B|336:224|336:224|328:136|328:136|416:120|416:120|432:64,1,300
320,56,153789,2,0,L|256:0,2,75
224,112,154160,2,0,B|144:120|144:120|120:40,1,150
96,72,154438,2,0,B|16:104|16:104|0:184,1,150
40,208,154715,1,0,0:0:0:0:
104,280,154901,1,0,0:0:0:0:
104,280,154993,1,0,0:0:0:0:
104,280,155086,1,0,0:0:0:0:
104,280,155178,1,0,0:0:0:0:
104,280,155271,2,0,L|200:280,1,75
240,336,155456,2,0,L|232:256,1,75
280,240,155641,6,0,B|384:256|384:256|448:224,1,150
416,192,155919,2,0,B|416:112|416:112|384:24,1,150
393,46,156197,1,0,0:0:0:0:
272,56,156382,2,0,L|200:16,3,75
168,48,156752,1,0,0:0:0:0:
64,112,156938,1,0,0:0:0:0:
128,168,157123,2,0,B|120:248|120:248|168:312,1,150
280,344,157493,2,0,L|256:272,1,75
312,256,157678,1,0,0:0:0:0:
240,200,157864,2,0,L|176:112,3,90.0000034332277
176,176,158234,2,0,L|112:88,3,90.0000034332277
128,56,158605,5,0,0:0:0:0:
128,56,158790,1,0,0:0:0:0:
456,192,159716,5,0,0:0:0:0:
456,192,159901,1,0,0:0:0:0:
304,272,160642,5,0,0:0:0:0:
216,184,160827,2,0,L|144:112,1,90.0000034332277
304,96,161012,2,0,L|368:168,1,90.0000034332277
216,200,161197,2,0,L|168:288,1,90.0000034332277
368,184,161382,2,0,L|432:104,1,90.0000034332277
440,64,161567,5,0,0:0:0:0:
440,64,161753,1,0,0:0:0:0:
200,328,162679,5,0,0:0:0:0:
200,328,162864,1,0,0:0:0:0:
160,80,163605,5,0,0:0:0:0:
240,128,163790,1,0,0:0:0:0:
288,152,164067,1,0,0:0:0:0:
328,168,164345,1,0,0:0:0:0:
400,232,164530,5,0,0:0:0:0:
136,336,164901,1,0,0:0:0:0:
80,88,165271,1,0,0:0:0:0:
312,24,165642,1,0,0:0:0:0:
336,136,166012,1,0,0:0:0:0:
256,272,166382,1,0,0:0:0:0:
120,192,166753,1,0,0:0:0:0:
200,64,167123,1,0,0:0:0:0:
232,144,167493,1,0,0:0:0:0:
288,192,167864,1,0,0:0:0:0:
240,248,168234,1,0,0:0:0:0:
176,200,168605,1,0,0:0:0:0:
232,144,168975,5,0,0:0:0:0:
232,144,169160,1,0,0:0:0:0:
320,120,169345,1,0,0:0:0:0:
320,120,169530,1,0,0:0:0:0:
320,200,169716,2,0,L|416:240,1,90.0000034332277
448,304,169901,2,0,L|320:288,1,90.0000034332277
288,272,170086,2,0,L|208:328,3,90.0000034332277
176,320,170456,6,0,B|112:240|112:240|176:144,1,180.000006866455
152,144,170734,1,0,0:0:0:0:
72,72,170919,1,0,0:0:0:0:
72,72,171012,2,0,B|176:32|176:32|248:48,1,180.000006866455
336,72,171382,2,0,L|424:0,2,90.0000034332277
392,160,171753,1,0,0:0:0:0:
352,224,171938,2,0,B|408:296|408:296|312:320,1,180.000006866455
288,320,172216,2,0,B|216:256|216:256|48:328,1,270.000010299683
64,208,172679,5,0,0:0:0:0:
104,176,172771,1,0,0:0:0:0:
96,128,172864,1,0,0:0:0:0:
112,80,172956,1,0,0:0:0:0:
144,56,173049,2,0,L|248:56,1,90.0000034332277
224,16,173234,2,0,L|304:104,1,90.0000034332277
320,88,173419,2,0,B|408:104|408:104|480:184,1,180.000006866455
456,208,173697,1,0,0:0:0:0:
408,280,173882,5,0,0:0:0:0:
408,280,173975,2,0,B|304:320|304:320|248:296,1,90.0000034332277
288,320,174160,1,0,0:0:0:0:
104,176,174345,1,0,0:0:0:0:
128,16,174530,1,0,0:0:0:0:
160,256,174716,1,0,0:0:0:0:
224,136,174901,2,0,B|304:80|304:80|408:88|408:88|408:96,1,180.000006866455
416,96,175179,2,0,B|488:152|488:152|400:192|400:192|432:280,1,270.000010299683
392,296,175642,1,0,0:0:0:0:
352,312,175734,1,0,0:0:0:0:
312,296,175827,1,0,0:0:0:0:
264,312,175919,1,0,0:0:0:0:
224,280,176012,1,0,0:0:0:0:
192,256,176105,1,0,0:0:0:0:
136,256,176197,1,0,0:0:0:0:
120,208,176290,1,0,0:0:0:0:
120,168,176382,6,0,B|144:72|144:72|248:80,1,180.000006866455
256,64,176660,1,0,0:0:0:0:
384,56,176845,1,0,0:0:0:0:
384,56,176938,2,0,L|416:272,1,180.000006866455
304,176,177308,2,0,L|184:168,2,90.0000034332277
304,176,177679,1,0,0:0:0:0:
184,80,177864,2,0,B|88:112|88:112|88:200|88:200|96:192,1,180.000006866455
96,224,178142,2,0,B|128:320|128:320|304:224,1,270.000010299683
352,152,178605,5,0,0:0:0:0:
336,104,178697,1,0,0:0:0:0:
376,72,178790,1,0,0:0:0:0:
416,88,178882,1,0,0:0:0:0:
456,120,178975,2,0,L|496:216,1,90.0000034332277
472,240,179160,1,0,0:0:0:0:
448,272,179253,1,0,0:0:0:0:
408,296,179345,2,0,B|304:328|304:328|224:288,1,180.000006866455
192,288,179623,1,0,0:0:0:0:
72,240,179808,1,0,0:0:0:0:
72,240,179901,2,0,L|112:56,1,180.000006866455
136,112,180271,2,0,L|16:136,2,90.0000034332277
256,88,180642,5,0,0:0:0:0:
352,104,180827,2,0,B|432:56|432:56|496:120,1,180.000006866455
464,168,181105,2,0,B|400:256|400:256|320:240,1,180.000006866455
312,208,181382,2,0,B|224:192|224:192|264:288,1,180.000006866455
264,280,181938,1,0,0:0:0:0:
136,112,182308,5,0,0:0:0:0:
136,112,182401,1,0,0:0:0:0:
136,112,182493,1,0,0:0:0:0:
136,112,182586,1,0,0:0:0:0:
312,232,182864,5,0,0:0:0:0:
312,232,182956,1,0,0:0:0:0:
312,232,183049,1,0,0:0:0:0:
312,232,183142,1,0,0:0:0:0:
120,312,183419,5,0,0:0:0:0:
120,312,183789,6,0,L|104:176,1,120
144,112,184160,2,0,L|80:72,2,60
289,107,184530,2,0,L|264:224,1,120
360,296,184901,1,0,0:0:0:0:
360,296,184993,1,0,0:0:0:0:
360,296,185086,1,0,0:0:0:0:
440,176,185271,2,0,L|304:184,1,120
232,136,185641,2,0,L|152:160,2,60
144,64,186012,2,0,L|184:224,1,120
88,240,186382,1,0,0:0:0:0:
88,240,186475,1,0,0:0:0:0:
88,240,186567,1,0,0:0:0:0:
416,224,186752,6,0,L|264:288,1,120
200,304,187123,1,0,0:0:0:0:
200,304,187215,1,0,0:0:0:0:
200,304,187308,1,0,0:0:0:0:
200,304,187493,2,0,L|160:160,1,120
104,120,187864,2,0,L|32:96,3,60
32,40,188234,2,0,L|192:24,1,120
288,72,188604,1,0,0:0:0:0:
288,72,188697,1,0,0:0:0:0:
288,72,188789,1,0,0:0:0:0:
368,200,188975,2,0,L|272:312,1,120
288,232,189345,2,0,L|240:176,1,60
104,104,189530,2,0,L|152:152,1,60
120,336,189715,6,0,L|160:208,1,120
208,96,190086,2,0,L|288:88,2,60
408,256,190456,2,0,L|256:272,1,120
192,304,190826,1,0,0:0:0:0:
192,304,190919,1,0,0:0:0:0:
192,304,191012,1,0,0:0:0:0:
80,72,191197,2,0,L|128:192,1,120
224,176,191567,2,0,L|224:112,2,60
272,120,191938,2,0,L|408:136,1,120
448,208,192308,1,0,0:0:0:0:
448,208,192401,1,0,0:0:0:0:
448,208,192493,1,0,0:0:0:0:
352,328,192678,6,0,L|288:216,1,120
200,232,193049,2,0,L|112:224,2,60
104,312,193419,2,0,L|80:176,1,120
152,104,193789,2,0,L|224:80,3,60
144,136,194160,2,0,L|296:176,1,120
392,112,194530,1,0,0:0:0:0:
392,112,194623,1,0,0:0:0:0:
392,112,194715,1,0,0:0:0:0:
392,112,194901,1,0,0:0:0:0:
136,40,195086,1,0,0:0:0:0:
64,272,195271,1,0,0:0:0:0:
312,352,195456,1,0,0:0:0:0:
256,192,195642,6,0,B|304:152|304:152|368:152,1,120
440,192,196012,1,0,0:0:0:0:
448,224,196105,1,0,0:0:0:0:
456,256,196197,1,0,0:0:0:0:
336,272,196383,2,0,B|280:296|280:296|216:312,1,120
152,184,196753,2,0,L|96:144,2,60
320,48,197123,2,0,L|192:48,1,120
256,152,197494,1,0,0:0:0:0:
256,152,197586,1,0,0:0:0:0:
256,152,197679,1,0,0:0:0:0:
376,160,197864,2,0,B|448:168|448:168|408:200|408:200|408:208,1,120
304,280,198234,2,0,L|288:208,2,60
160,312,198605,6,0,L|64:208,1,120
112,128,198975,2,0,L|32:144,2,60
224,72,199346,2,0,B|240:136|240:136|296:120|296:120,1,120
424,112,199716,1,0,0:0:0:0:
424,144,199809,1,0,0:0:0:0:
416,176,199901,1,0,0:0:0:0:
424,272,200086,2,0,B|352:312|352:312|296:304,1,120
216,280,200457,2,0,L|168:224,3,60
160,208,200827,2,0,B|120:136|120:136|168:88|168:88,1,120
224,80,201197,2,0,L|288:120,3,60
320,104,201567,6,0,L|408:192,1,120
336,256,201938,1,0,0:0:0:0:
360,280,202030,1,0,0:0:0:0:
384,304,202123,1,0,0:0:0:0:
224,248,202308,2,0,B|184:320|184:320|96:304,1,120
64,216,202679,2,0,L|120:184,2,60
192,64,203049,2,0,L|160:184,1,120
256,128,203419,1,0,0:0:0:0:
256,128,203512,1,0,0:0:0:0:
256,128,203605,1,0,0:0:0:0:
320,88,203790,2,0,B|400:96|400:96|456:136,1,120
480,264,204160,1,0,0:0:0:0:
440,248,204253,1,0,0:0:0:0:
400,232,204345,1,0,0:0:0:0:
152,304,204530,6,0,L|256:216,1,120
232,288,204901,1,0,0:0:0:0:
264,304,204993,1,0,0:0:0:0:
304,320,205086,1,0,0:0:0:0:
440,72,205271,2,0,L|304:80,1,120
328,160,205642,2,0,L|376:200,2,60
184,88,206012,2,0,B|120:128|120:128|120:184,1,120
160,264,206382,2,0,L|232:256,3,60
264,264,206753,2,0,B|296:280|296:280|320:184,1,120
352,104,207123,2,0,L|416:144,3,60
440,176,207493,5,0,0:0:0:0:
440,176,207679,1,0,0:0:0:0:
392,304,207864,2,0,L|336:280,1,60
120,168,208049,2,0,L|200:200,1,60
208,208,208234,1,0,0:0:0:0:
208,208,208419,1,0,0:0:0:0:
336,40,208605,2,0,L|320:112,1,60
272,352,208790,2,0,L|288:288,1,60
320,264,208975,1,0,0:0:0:0:
320,264,209160,1,0,0:0:0:0:
64,248,209345,2,0,L|128:216,1,60
400,96,209530,2,0,L|344:120,1,60
312,160,209716,1,0,0:0:0:0:
312,160,210086,1,0,0:0:0:0:
80,192,210456,5,0,0:0:0:0:
80,192,210642,1,0,0:0:0:0:
160,192,210827,1,0,0:0:0:0:
160,192,210919,1,0,0:0:0:0:
160,192,211012,1,0,0:0:0:0:
160,192,211105,1,0,0:0:0:0:
208,192,211197,1,0,0:0:0:0:
208,192,211382,1,0,0:0:0:0:
288,192,211567,1,0,0:0:0:0:
288,192,211660,1,0,0:0:0:0:
288,192,211753,1,0,0:0:0:0:
288,192,211845,1,0,0:0:0:0:
336,192,211938,1,0,0:0:0:0:
336,192,212123,1,0,0:0:0:0:
424,192,212308,1,0,0:0:0:0:
424,192,212401,1,0,0:0:0:0:
424,192,212493,1,0,0:0:0:0:
424,192,212586,1,0,0:0:0:0:
424,192,212679,1,0,0:0:0:0:
