osu file format v12

[General]
AudioFilename: Negai Hana.mp3
AudioLeadIn: 0
PreviewTime: 86804
Countdown: 0
SampleSet: Soft
StackLeniency: 0.7
Mode: 0
LetterboxInBreaks: 0
WidescreenStoryboard: 1

[Editor]
DistanceSpacing: 1.1
BeatDivisor: 4
GridSize: 4

[Metadata]
Title:Negai Hana
TitleUnicode:願い花
Artist:OutputP
ArtistUnicode:アウトプットP
Creator:Tsumetaku
Version:Normal
Source:
Tags:vocaloid vocaloid2 Hatsune Miku life Output 輸出 ボーカロイド
BeatmapID:285693
BeatmapSetID:74436

[Difficulty]
HPDrainRate:3
CircleSize:4
OverallDifficulty:3
ApproachRate:4
SliderMultiplier:0.78
SliderTickRate:1

[Events]
//Background and Video events
0,0,"sakakidani_201308291503.png",0,0
Video,0,"Hana.avi"
//Break Periods
2,117130,125340
2,152806,163448
//Storyboard Layer 0 (Background)
//Storyboard Layer 1 (Fail)
//Storyboard Layer 2 (Pass)
//Storyboard Layer 3 (Foreground)
//Storyboard Sound Samples
//Background Colour Transformations
3,100,163,162,255

[TimingPoints]
5039,405.405405405405,4,2,1,35,1,0
9905,-100,4,2,1,35,0,0
10714,-100,4,2,2,35,0,0
11120,-100,4,2,1,35,0,0
15579,-100,4,2,2,35,0,0
15782,-100,4,2,1,35,0,0
26930,-100,4,2,2,35,0,0
27336,-100,4,2,1,35,0,0
28552,-100,4,2,2,35,0,0
28957,-100,4,2,1,35,0,0
34228,-100,4,2,1,35,0,0
60581,-100,4,2,1,40,0,0
67473,-100,4,2,1,35,0,0
73554,-100,4,2,1,40,0,0
75579,-100,4,2,2,40,0,0
75984,-100,4,2,1,40,0,0
78822,-100,4,2,2,40,0,0
79228,-100,4,2,1,40,0,0
80446,-100,4,2,1,45,0,0
87741,-100,4,2,1,60,0,1
99903,-100,4,2,1,55,0,0
100714,-100,4,2,1,60,0,1
111660,-100,4,2,1,65,0,1
116930,-100,4,2,1,35,0,0
126660,-100,4,2,1,45,0,0
133957,-100,4,2,2,45,0,0
134363,-100,4,2,1,45,0,0
135579,-100,4,2,2,45,0,0
135984,-100,4,2,1,45,0,0
139633,-100,4,2,1,35,0,0
140444,-100,4,2,2,35,0,0
140849,-100,4,2,1,35,0,0
143687,-100,4,2,2,35,0,0
144093,-100,4,2,1,35,0,0
149363,-100,4,2,1,40,0,0
152606,-100,4,2,1,35,0,0
164768,-100,4,2,1,40,0,0
178552,-100,4,1,0,50,0,0
181795,-100,4,1,1,55,0,1
185849,-100,4,1,2,55,0,1
186255,-100,4,1,1,55,0,1
193957,-100,4,1,1,50,0,0
194768,-100,4,1,1,55,0,1
207741,-100,4,2,1,35,0,0
228822,476.190476190476,4,2,1,30,1,0

[Colours]
Combo1 : 217,145,179
Combo2 : 75,222,174
Combo3 : 116,169,250
Combo4 : 170,145,217

[HitObjects]
80,136,9903,5,6,0:0:0:0:
72,128,10309,2,0,L|232:120,1,156
168,136,11525,1,0,0:0:0:0:
88,192,11930,2,0,L|172:188,2,78,0|8|0,0:0|0:0|0:0,0:0:0:0:
164,112,13147,6,0,L|328:116,1,156,0|8,0:0|0:0,0:0:0:0:
204,112,14363,1,0,0:0:0:0:
152,184,14768,2,0,L|284:192,2,117
124,184,16390,6,0,L|288:168,1,156,0|8,0:0|0:0,0:0:0:0:
132,152,17606,1,0,0:0:0:0:
144,204,18011,2,0,L|304:208,1,156,0|8,0:0|0:0,0:0:0:0:
168,212,19228,1,0,0:0:0:0:
112,112,19633,6,0,L|272:112,2,156,0|8|0,0:0|0:0|0:0,0:0:0:0:
168,80,21660,2,0,L|252:92,2,78,0|8|0,0:0|0:0|0:0,0:0:0:0:
68,164,22876,6,0,L|232:164,1,156,0|8,0:0|0:0,0:0:0:0:
232,160,24093,1,0,0:0:0:0:
104,172,24498,2,0,L|192:176,1,78
92,116,25309,2,0,L|180:112,1,78,8|0,0:0|0:0,0:0:0:0:
128,184,26120,6,0,L|372:204,1,234
196,128,27741,2,0,L|312:128,2,117
160,204,29363,6,0,L|328:204,1,156,0|8,0:0|0:0,0:0:0:0:
152,228,30579,1,0,0:0:0:0:
196,172,30984,2,0,L|356:176,2,156,0|8|0,0:0|0:0|0:0,0:0:0:0:
96,128,33011,1,0,0:0:0:0:
92,184,33417,2,0,L|176:184,1,78,8|0,0:0|0:0,0:0:0:0:
220,136,34228,2,0,L|308:144,2,78,0|0|8,0:0|0:0|0:0,0:0:0:0:
252,196,35444,5,0,0:0:0:0:
132,216,35849,2,0,L|300:220,1,156,4|8,0:0|0:0,0:0:0:0:
72,232,37066,1,0,0:0:0:0:
108,192,37471,2,0,L|264:228,1,156,0|8,0:0|0:0,0:0:0:0:
220,192,38687,5,0,0:0:0:0:
172,176,39093,2,0,L|304:180,1,117
152,256,39903,2,0,L|280:256,2,117,8|0|0,0:0|0:0|0:0,0:0:0:0:
136,176,41525,5,8,0:0:0:0:
136,176,41930,1,0,0:0:0:0:
136,176,42336,2,0,L|296:172,1,156,0|8,0:0|0:0,0:0:0:0:
192,156,43552,2,0,L|276:152,1,78
152,200,44363,1,0,0:0:0:0:
152,200,44768,5,8,0:0:0:0:
152,200,45174,1,0,0:0:0:0:
236,112,45579,2,0,L|324:116,1,78
184,200,46390,2,0,L|308:208,1,117,8|0,0:0|0:0,0:0:0:0:
220,136,47201,2,0,L|300:156,2,78,0|0|8,0:0|0:0|0:0,0:0:0:0:
192,180,48417,5,0,0:0:0:0:
132,216,48822,2,0,L|300:228,1,156,0|8,0:0|0:0,0:0:0:0:
72,232,50038,1,0,0:0:0:0:
108,192,50444,2,0,L|272:232,1,156,0|8,0:0|0:0,0:0:0:0:
220,192,51660,5,0,0:0:0:0:
172,176,52066,2,0,L|288:176,1,117
152,256,52876,2,0,L|268:252,2,117,8|0|0,0:0|0:0|0:0,0:0:0:0:
136,176,54498,5,8,0:0:0:0:
136,176,54903,1,0,0:0:0:0:
136,176,55309,2,0,L|300:164,1,156,0|8,0:0|0:0,0:0:0:0:
152,112,56525,6,0,L|244:112,1,78
192,216,57336,2,0,L|280:232,2,78,0|8|0,0:0|0:0|0:0,0:0:0:0:
256,192,58552,8,0,60174,0:0:0:0:
256,192,60579,6,0,L|328:228,2,78,0|8|0,0:0|0:0|0:0,0:0:0:0:
140,140,61795,2,0,L|256:252,1,156,0|8,0:0|0:0,0:0:0:0:
104,240,63011,1,0,0:0:0:0:
172,208,63417,2,0,L|256:224,1,78
104,240,64228,6,0,L|264:264,1,156,8|0,0:0|0:0,0:0:0:0:
132,212,65444,2,0,L|212:220,1,78,0|8,0:0|0:0,0:0:0:0:
281,219,66255,2,0,L|444:224,1,156
184,232,67471,5,8,0:0:0:0:
184,232,67876,1,0,0:0:0:0:
280,244,68282,2,0,L|432:292,1,156,0|8,0:0|0:0,0:0:0:0:
232,272,69498,1,0,0:0:0:0:
180,172,69903,6,0,L|268:172,2,78,0|0|8,0:0|0:0|0:0,0:0:0:0:
140,192,71120,1,0,0:0:0:0:
180,200,71525,2,0,L|336:224,1,156,0|8,0:0|0:0,0:0:0:0:
188,88,72741,2,0,L|232:96,1,39
236,101,73147,6,0,L|324:104,2,78,0|0|8,0:0|0:0|0:0,0:0:0:0:
148,140,74363,1,0,0:0:0:0:
88,232,74768,2,0,L|212:228,2,117
180,260,76390,2,0,L|260:272,1,78
200,204,77201,6,0,L|324:200,1,117
228,152,78011,2,0,L|348:160,2,117
156,132,79633,2,0,L|236:160,1,78
96,184,80444,5,8,0:0:0:0:
84,128,80849,2,0,L|248:124,1,156
200,140,82065,1,8,0:0:0:0:
200,140,82471,2,0,L|360:144,1,156
52,228,83687,5,8,0:0:0:0:
104,148,84093,2,0,L|264:144,1,156
104,200,85309,2,0,L|184:200,1,78,8|0,0:0|0:0,0:0:0:0:
120,96,86120,6,0,L|204:96,2,78,0|0|8,0:0|0:0|0:0,0:0:0:0:
132,248,87336,1,0,0:0:0:0:
164,160,87741,2,0,L|336:152,1,156,4|8,0:0|0:0,0:0:0:0:
68,208,88957,2,0,L|152:212,1,78
104,152,89768,2,0,L|196:152,1,78,0|8,0:0|0:0,0:0:0:0:
124,184,90579,5,0,0:0:0:0:
104,228,90984,2,0,L|268:232,2,156,0|8|0,0:0|0:0|0:0,0:0:0:0:
300,132,93011,1,0,0:0:0:0:
64,144,93417,2,0,L|236:156,1,156,8|0,0:0|0:0,0:0:0:0:
208,172,94633,1,0,0:0:0:0:
92,180,95038,2,0,L|224:192,2,117,8|0|0,0:0|0:0|0:0,0:0:0:0:
148,196,96660,6,0,L|312:192,1,156,8|0,0:0|0:0,0:0:0:0:
160,172,97876,1,0,0:0:0:0:
160,228,98282,2,0,L|284:216,2,117,8|0|0,0:0|0:0|0:0,0:0:0:0:
216,112,99903,5,8,0:0:0:0:
216,112,100309,1,0,0:0:0:0:
60,168,100714,2,0,L|220:176,1,156,0|8,0:0|0:0,0:0:0:0:
68,208,101930,2,0,L|164:212,1,78
104,152,102741,2,0,L|200:152,1,78,0|8,0:0|0:0,0:0:0:0:
124,184,103552,5,0,0:0:0:0:
104,228,103957,2,0,L|268:228,2,156,0|8|0,0:0|0:0|0:0,0:0:0:0:
164,60,105984,2,0,L|256:52,1,78,0|8,0:0|0:0,0:0:0:0:
120,96,106795,6,0,L|172:96,2,39
192,120,107606,1,0,0:0:0:0:
136,204,108011,2,0,L|256:196,2,117,8|0|0,0:0|0:0|0:0,0:0:0:0:
4,124,109633,2,0,L|84:120,1,78,8|0,0:0|0:0,0:0:0:0:
144,176,110241,2,0,L|236:172,2,78
108,120,111255,1,8,0:0:0:0:
88,192,111660,6,0,L|128:188,1,39
96,232,112066,2,0,L|184:240,1,78
204,236,112674,2,0,L|288:236,2,78
235,238,113687,1,4,0:0:0:0:
256,192,113890,12,0,116930,0:0:0:0:
304,72,126660,6,0,L|412:200,1,156,4|8,0:0|0:0,0:0:0:0:
292,224,127876,1,0,0:0:0:0:
212,228,128282,2,0,L|104:108,1,156,0|8,0:0|0:0,0:0:0:0:
208,208,129498,1,0,0:0:0:0:
160,208,129903,6,0,L|324:200,1,156,0|8,0:0|0:0,0:0:0:0:
220,172,131120,1,0,0:0:0:0:
220,172,131525,2,0,L|304:172,2,78,0|0|8,0:0|0:0|0:0,0:0:0:0:
176,200,132741,1,0,0:0:0:0:
32,124,133147,6,0,L|360:136,1,312
160,224,135174,2,0,L|320:232,1,156
112,200,136390,2,0,L|200:224,2,78,0|0|8,0:0|0:0|0:0,0:0:0:0:
144,240,137606,2,0,L|224:256,2,78
120,156,138822,5,0,0:0:0:0:
120,156,139228,1,0,0:0:0:0:
88,232,139633,2,0,L|208:236,2,117
100,264,141255,2,0,L|180:276,1,78
104,152,142066,6,0,L|184:160,1,78,8|0,0:0|0:0,0:0:0:0:
228,152,142876,2,0,L|352:160,2,117
156,132,144498,2,0,L|240:160,1,78
96,184,145309,5,8,0:0:0:0:
64,196,145714,2,0,L|116:208,1,39
164,204,146120,2,0,L|256:204,1,78
200,140,146930,1,8,0:0:0:0:
200,140,147336,1,0,0:0:0:0:
152,208,147538,2,0,L|280:204,1,117
52,228,148552,5,8,0:0:0:0:
132,144,148957,2,0,L|176:156,1,39
152,172,149363,2,0,L|240:168,1,78
132,144,149971,1,0,0:0:0:0:
120,96,150174,2,0,L|212:100,1,78,8|0,0:0|0:0,0:0:0:0:
216,148,150782,1,0,0:0:0:0:
132,144,150984,6,0,L|216:168,2,78,0|0|8,0:0|0:0|0:0,0:0:0:0:
132,248,152201,1,0,0:0:0:0:
132,248,152606,1,4,0:0:0:0:
148,136,164768,5,0,0:0:0:0:
148,136,165174,1,0,0:0:0:0:
188,144,165579,2,0,L|276:160,1,78,4|0,0:0|0:0,0:0:0:0:
128,92,166390,5,8,0:0:0:0:
128,92,166795,1,0,0:0:0:0:
144,140,167201,2,0,L|240:140,2,78,0|0|8,0:0|0:0|0:0,0:0:0:0:
180,160,168417,5,0,0:0:0:0:
144,48,168822,2,0,L|312:48,1,156,0|8,0:0|0:0,0:0:0:0:
188,64,170038,1,0,0:0:0:0:
88,132,170444,2,0,L|244:132,1,156,0|8,0:0|0:0,0:0:0:0:
116,180,171660,6,0,L|200:176,1,78
116,156,172471,1,0,0:0:0:0:
116,200,172876,2,0,L|236:192,2,117,8|0|0,0:0|0:0|0:0,0:0:0:0:
100,160,174498,1,8,0:0:0:0:
48,200,174903,2,0,L|204:200,1,156
144,184,176120,1,8,0:0:0:0:
188,152,176525,6,0,L|240:164,1,39
96,228,176930,2,0,L|220:232,2,117
284,168,178552,5,4,0:0:0:0:
216,156,179160,1,4,0:0:0:0:
216,156,179768,1,4,0:0:0:0:
164,172,180174,5,8,0:0:0:0:
164,172,180376,2,0,L|216:160,2,39
80,240,180984,6,0,L|128:256,1,39,8|0,0:0|0:0,0:0:0:0:
132,232,181390,2,0,L|168:208,1,39
88,112,181795,2,0,L|216:104,1,117
104,152,182606,6,0,L|192:152,1,78,8|0,0:0|0:0,0:0:0:0:
184,200,183214,2,0,L|228:196,1,39
164,96,183620,1,0,0:0:0:0:
104,152,183822,2,0,L|184:156,1,78,0|8,0:0|0:0,0:0:0:0:
164,96,184633,6,0,L|204:112,1,39
80,224,185038,2,0,L|204:216,2,117
68,232,186457,2,0,L|200:220,1,117
132,136,187471,5,8,0:0:0:0:
132,136,187876,1,0,0:0:0:0:
112,140,188282,2,0,L|196:132,1,78
160,148,188890,1,0,0:0:0:0:
128,184,189092,2,0,L|252:196,2,117,8|0|0,0:0|0:0|0:0,0:0:0:0:
148,196,190714,6,0,L|312:188,1,156,8|0,0:0|0:0,0:0:0:0:
160,172,191930,1,0,0:0:0:0:
160,228,192336,2,0,L|288:216,2,117
168,84,193957,5,8,0:0:0:0:
216,112,194363,1,0,0:0:0:0:
60,168,194768,2,0,L|228:176,1,156,0|8,0:0|0:0,0:0:0:0:
80,244,195984,5,0,0:0:0:0:
80,244,196187,1,0,0:0:0:0:
104,100,196390,2,0,L|156:100,1,39
200,160,196795,2,0,L|288:160,1,78,0|8,0:0|0:0,0:0:0:0:
184,124,197606,6,0,L|228:120,1,39
104,228,198011,2,0,L|188:220,2,78,0|0|8,0:0|0:0|0:0,0:0:0:0:
104,228,199025,2,0,L|192:212,1,78
116,148,199633,2,0,L|240:152,1,117
232,151,200444,1,8,0:0:0:0:
116,148,200849,6,0,L|164:148,1,39
257,85,201255,2,0,L|300:160,1,78
136,204,202065,2,0,L|256:204,2,117,8|0|0,0:0|0:0|0:0,0:0:0:0:
100,136,203687,6,0,L|184:144,1,78,8|0,0:0|0:0,0:0:0:0:
188,184,204295,2,0,L|272:184,2,78
148,100,205309,1,8,0:0:0:0:
180,136,205714,6,0,L|232:136,1,39
136,232,206120,2,0,L|216:232,1,78
235,238,206728,2,0,L|324:240,2,78
208,176,207741,1,4,0:0:0:0:
232,76,208147,6,0,L|232:200,1,117
148,144,209160,2,0,L|152:268,1,117
248,264,209971,1,0,0:0:0:0:
248,264,210376,1,0,0:0:0:0:
248,264,210782,1,0,0:0:0:0:
172,208,210984,6,0,L|304:208,1,117
112,268,211795,2,0,L|160:272,1,39
96,204,212606,2,0,L|216:212,2,117
56,208,214228,6,0,L|180:208,1,117
220,184,215241,1,0,0:0:0:0:
176,212,215647,2,0,L|308:212,1,117
140,168,216457,2,0,L|224:176,2,78
100,160,217471,2,0,L|268:156,1,156
96,232,218484,1,0,0:0:0:0:
96,232,219093,6,0,L|220:220,1,117
264,152,220106,1,0,0:0:0:0:
112,168,220714,2,0,L|232:176,2,117
176,188,222336,6,0,L|300:200,1,117
112,124,223349,2,0,L|196:128,1,78
192,216,223957,6,0,L|352:172,2,156
168,128,225984,2,0,L|300:120,1,117
112,208,227201,6,0,L|324:208,1,195
180,180,228822,2,0,L|336:176,2,156
128,176,231202,2,0,L|260:188,2,117
256,192,232869,8,0,236917,0:0:0:0:
