osu file format v12

[General]
AudioFilename: Negai Hana.mp3
AudioLeadIn: 0
PreviewTime: 86804
Countdown: 0
SampleSet: Soft
StackLeniency: 0.6
Mode: 0
LetterboxInBreaks: 0
WidescreenStoryboard: 1

[Editor]
DistanceSpacing: 1.1
BeatDivisor: 4
GridSize: 4

[Metadata]
Title:Negai Hana
TitleUnicode:願い花
Artist:OutputP
ArtistUnicode:アウトプットP
Creator:Tsumetaku
Version:Hard
Source:
Tags:vocaloid vocaloid2 Hatsune Miku life Output 輸出 ボーカロイド
BeatmapID:295464
BeatmapSetID:74436

[Difficulty]
HPDrainRate:5
CircleSize:5
OverallDifficulty:6
ApproachRate:6
SliderMultiplier:1.16
SliderTickRate:1

[Events]
//Background and Video events
0,0,"sakakidani_201308291503.png",0,0
Video,0,"Hana.avi"
//Break Periods
2,117130,125610
//Storyboard Layer 0 (Background)
//Storyboard Layer 1 (Fail)
//Storyboard Layer 2 (Pass)
//Storyboard Layer 3 (Foreground)
//Storyboard Sound Samples
//Background Colour Transformations
3,100,163,162,255

[TimingPoints]
5039,405.405405405405,4,2,1,35,1,0
9903,-120.481927710843,4,2,1,35,0,0
34228,-100,4,2,1,35,0,0
60579,-100,4,2,1,40,0,0
67471,-100,4,2,1,35,0,0
73552,-100,4,2,1,40,0,0
80444,-100,4,2,1,45,0,0
87741,-86.2068965517241,4,2,1,60,0,1
99901,-86.2068965517241,4,2,1,55,0,0
100712,-86.2068965517241,4,2,1,60,0,1
111660,-86.2068965517241,4,2,1,65,0,1
116930,-100,4,2,1,35,0,0
126660,-100,4,2,1,45,0,0
139633,-100,4,2,1,35,0,0
149363,-100,4,1,1,30,0,0
152606,-151.515151515152,4,2,1,35,0,0
164768,-120.481927710843,4,2,1,40,0,0
178552,-100,4,1,0,50,0,0
181795,-86.2068965517241,4,1,1,55,0,1
193957,-86.2068965517241,4,1,1,50,0,0
194768,-86.2068965517241,4,1,1,55,0,1
207741,-100,4,2,1,35,0,0
228822,476.190476190476,4,2,1,30,1,0

[Colours]
Combo1 : 217,145,179
Combo2 : 75,222,174
Combo3 : 116,169,250
Combo4 : 170,145,217

[HitObjects]
256,172,9903,1,4,0:0:0:0:
348,196,10309,2,0,L|404:212,1,48.1400006978302
436,236,10714,1,0,0:0:0:0:
452,284,10917,1,0,0:0:0:0:
324,296,11322,2,0,P|256:280|184:296,1,144.420002093491
140,316,12133,2,0,P|98:340|51:348,2,96.2800013956604
148,252,13147,6,0,P|140:208|148:156,1,96.2800013956604
168,112,13755,1,0,0:0:0:0:
160,64,13957,1,0,0:0:0:0:
116,40,14160,2,0,P|66:32|20:40,1,96.2800013956604
48,80,14768,2,0,P|56:128|48:176,1,96.2800013956604
36,220,15376,1,0,0:0:0:0:
108,288,15782,1,0,0:0:0:0:
288,332,16390,6,0,P|332:352|380:352,1,96.2800013956604
416,320,16998,2,0,P|392:276|396:224,1,96.2800013956604
444,116,17809,2,0,P|396:108|344:120,1,96.2800013956604
308,140,18417,1,0,0:0:0:0:
264,164,18620,2,0,P|216:172|168:164,2,96.2800013956604
292,192,19633,6,0,P|276:244|248:276,1,96.2800013956604
204,292,20241,1,0,0:0:0:0:
156,292,20444,1,0,0:0:0:0:
112,272,20647,1,0,0:0:0:0:
204,108,21255,2,0,P|256:108|296:124,1,96.2800013956604
336,152,21863,1,0,0:0:0:0:
392,264,22268,1,0,0:0:0:0:
120,232,22876,6,0,P|112:184|120:136,1,96.2800013956604
144,96,23484,1,0,0:0:0:0:
180,64,23687,1,0,0:0:0:0:
224,76,23890,2,0,P|272:84|320:76,1,96.2800013956604
368,68,24498,2,0,P|356:132|368:212,1,144.420002093491
464,244,25511,2,0,L|428:336,1,96.2800013956604
384,316,26120,6,0,P|336:324|287:316,1,96.2800013956604
248,292,26728,2,0,L|248:244,1,48.1400006978302
204,224,27133,2,0,P|164:188|124:172,1,96.2800013956604
76,172,27741,1,0,0:0:0:0:
96,304,28147,1,0,0:0:0:0:
140,284,28349,2,0,P|172:249|191:205,1,96.2800013956604
52,80,29363,6,0,B|98:33|186:129|234:85,1,192.560002791321
356,48,30579,1,0,0:0:0:0:
328,172,30984,2,0,P|324:224|344:264,1,96.2800013956604
476,188,31795,2,0,P|472:292|420:360,1,192.560002791321,0|0,0:0|0:0,0:0:0:0:
304,352,33011,2,0,P|264:324|248:280,1,96.2800013956604
344,264,33822,1,0,0:0:0:0:
440,270,34228,6,0,P|425:215|384:176,2,116
344,264,35444,1,0,0:0:0:0:
164,196,35849,6,0,P|108:208|48:204,1,116
240,176,36660,1,8,0:0:0:0:
164,88,37066,1,0,0:0:0:0:
64,136,37471,2,0,L|204:144,2,116,0|0|8,0:0|0:0|0:0,0:0:0:0:
156,112,38687,1,0,0:0:0:0:
136,144,39093,2,0,L|256:132,1,116
152,208,39701,1,0,0:0:0:0:
88,224,39903,2,0,L|228:216,1,116,8|0,0:0|0:0,0:0:0:0:
124,268,40511,1,0,0:0:0:0:
124,268,40714,2,0,L|204:256,2,58
144,160,41525,1,8,0:0:0:0:
144,160,41930,1,0,0:0:0:0:
156,164,42336,6,0,L|288:188,1,116
240,200,43147,1,8,0:0:0:0:
124,268,43552,1,0,0:0:0:0:
124,268,43755,2,0,L|264:264,1,116
148,144,44363,2,0,L|276:140,1,116,0|8,0:0|0:0,0:0:0:0:
152,120,45174,1,0,0:0:0:0:
128,176,45579,6,0,L|264:176,1,116
136,232,46187,1,0,0:0:0:0:
124,292,46390,2,0,L|260:292,1,116,8|0,0:0|0:0,0:0:0:0:
176,232,46998,1,0,0:0:0:0:
152,264,47201,2,0,L|280:272,2,116,0|0|8,0:0|0:0|0:0,0:0:0:0:
140,172,48417,1,0,0:0:0:0:
144,204,48822,6,0,L|272:208,2,116,0|0|8,0:0|0:0|0:0,0:0:0:0:
240,132,50038,1,0,0:0:0:0:
48,156,50444,2,0,L|188:160,1,116
112,112,51255,1,8,0:0:0:0:
188,152,51660,6,0,L|316:156,2,116
152,208,52674,1,0,0:0:0:0:
104,224,52876,2,0,L|224:224,1,116,8|0,0:0|0:0,0:0:0:0:
124,268,53484,1,0,0:0:0:0:
124,268,53687,2,0,L|196:264,2,58
140,184,54498,1,8,0:0:0:0:
140,184,54903,1,0,0:0:0:0:
108,132,55309,2,0,L|240:144,2,116,0|0|8,0:0|0:0|0:0,0:0:0:0:
140,68,56525,2,0,L|216:72,1,58
112,184,56930,2,0,L|244:208,1,116
112,144,57741,2,0,L|244:140,1,116,8|0,0:0|0:0,0:0:0:0:
256,192,58552,12,0,60174,0:0:0:0:
184,204,60579,6,0,L|252:220,1,58
180,148,60984,1,8,0:0:0:0:
180,148,61187,1,0,0:0:0:0:
180,148,61390,1,0,0:0:0:0:
180,148,61593,1,0,0:0:0:0:
160,120,61795,6,0,L|280:116,1,116
148,168,62403,2,0,L|220:160,2,58,0|8|0,0:0|0:0|0:0,0:0:0:0:
84,96,63011,1,0,0:0:0:0:
88,156,63214,2,0,L|212:156,1,116
160,136,63822,6,0,L|224:136,1,58
160,168,64228,1,8,0:0:0:0:
160,168,64430,1,0,0:0:0:0:
160,168,64633,1,0,0:0:0:0:
160,168,64836,1,0,0:0:0:0:
96,240,65038,6,0,L|224:244,1,116
176,96,65647,2,0,L|248:104,2,58,0|8|0,0:0|0:0|0:0,0:0:0:0:
240,200,66255,2,0,L|372:200,2,116
200,108,67471,5,8,0:0:0:0:
128,172,67876,1,0,0:0:0:0:
148,256,68282,2,0,L|268:252,1,116
288,136,68890,1,0,0:0:0:0:
288,136,69093,2,0,L|408:152,1,116,8|0,0:0|0:0,0:0:0:0:
148,200,69701,5,0,0:0:0:0:
104,168,69903,2,0,L|240:184,1,116
68,224,70511,1,0,0:0:0:0:
68,224,70714,2,0,L|128:236,1,58,8|0,0:0|0:0,0:0:0:0:
192,104,71120,5,0,0:0:0:0:
140,148,71322,2,0,L|260:144,1,116
112,92,71930,2,0,L|192:88,1,58
268,248,72336,2,0,L|400:256,1,116,8|0,0:0|0:0,0:0:0:0:
288,212,72944,2,0,L|368:216,1,58
100,104,73349,6,0,L|240:104,1,116
203,158,73957,1,8,0:0:0:0:
203,158,74160,1,0,0:0:0:0:
203,158,74363,1,0,0:0:0:0:
203,158,74566,1,0,0:0:0:0:
112,188,74768,6,0,L|232:192,1,116
172,80,75376,2,0,L|240:80,2,58,0|8|0,0:0|0:0|0:0,0:0:0:0:
88,184,75984,2,0,L|220:184,1,116
156,100,76593,6,0,L|240:104,2,58
40,204,77201,1,8,0:0:0:0:
40,204,77403,1,0,0:0:0:0:
40,204,77606,1,0,0:0:0:0:
40,204,77809,1,0,0:0:0:0:
76,204,78011,6,0,L|200:200,1,116
156,112,78620,2,0,L|216:108,2,58,0|8|0,0:0|0:0|0:0,0:0:0:0:
112,236,79228,2,0,L|232:240,2,116
120,120,80444,6,0,L|248:104,1,116,8|0,0:0|0:0,0:0:0:0:
112,188,81052,1,0,0:0:0:0:
112,188,81255,2,0,L|192:184,2,58
120,120,82066,6,0,L|248:128,1,116,8|0,0:0|0:0,0:0:0:0:
112,188,82674,1,0,0:0:0:0:
112,188,82876,2,0,L|180:184,2,58
112,188,83687,6,0,L|236:164,1,116,8|0,0:0|0:0,0:0:0:0:
104,128,84295,1,0,0:0:0:0:
144,116,84498,2,0,L|272:112,1,116
144,180,85106,2,0,L|208:180,2,58,0|8|0,0:0|0:0|0:0,0:0:0:0:
112,128,85714,2,0,L|192:128,1,58
170,128,86120,2,0,L|296:128,1,116
216,52,86930,2,0,L|264:96,1,58,8|0,0:0|0:0,0:0:0:0:
258,91,87336,2,0,L|296:152,1,58
68,196,87741,2,0,L|212:196,1,134.560004106445,4|0,0:0|0:0,0:0:0:0:
176,192,88349,1,0,0:0:0:0:
136,232,88552,6,0,L|224:240,2,67.2800020532227,8|0|0,0:0|0:0|0:0,0:0:0:0:
140,144,89160,2,0,L|224:148,1,67.2800020532227
219,146,89566,1,0,0:0:0:0:
124,224,89768,2,0,L|280:224,1,134.560004106445,0|8,0:0|0:0,0:0:0:0:
140,164,90579,5,0,0:0:0:0:
140,164,90782,1,0,0:0:0:0:
140,164,90984,2,0,L|292:160,1,134.560004106445
176,224,91593,2,0,L|264:244,1,67.2800020532227,0|8,0:0|0:0,0:0:0:0:
140,164,91998,2,0,L|292:168,2,134.560004106445
268,128,93011,1,0,0:0:0:0:
168,184,93417,5,8,0:0:0:0:
168,184,93822,1,0,0:0:0:0:
168,184,94228,2,0,L|320:184,1,134.560004106445
148,224,94836,1,0,0:0:0:0:
148,224,95038,2,0,L|28:304,1,134.560004106445,8|0,0:0|0:0,0:0:0:0:
60,232,95647,2,0,L|72:148,2,67.2800020532227
164,148,96255,6,0,L|320:148,2,134.560004106445,0|8|0,0:0|0:0|0:0,0:0:0:0:
132,92,97268,2,0,L|220:96,1,67.2800020532227
132,92,97674,1,0,0:0:0:0:
56,176,97876,2,0,L|216:172,2,134.560004106445,0|8|0,0:0|0:0|0:0,0:0:0:0:
128,196,98890,2,0,L|280:212,1,134.560004106445
80,160,99498,1,0,0:0:0:0:
256,184,99903,6,0,L|276:100,1,67.2800020532227,8|0,0:0|0:0,0:0:0:0:
216,120,100309,2,0,L|192:200,1,67.2800020532227
172,244,100714,2,0,L|144:96,1,134.560004106445,0|0,0:0|0:0,0:0:0:0:
176,148,101322,1,0,0:0:0:0:
104,116,101525,2,0,L|76:280,1,134.560004106445,8|0,0:0|0:0,0:0:0:0:
112,284,102133,1,0,0:0:0:0:
160,272,102336,2,0,L|252:276,1,67.2800020532227
200,220,102741,2,0,L|360:216,1,134.560004106445,0|8,0:0|0:0,0:0:0:0:
108,200,103552,5,0,0:0:0:0:
108,200,103755,1,0,0:0:0:0:
108,200,103957,2,0,L|268:208,1,134.560004106445
196,136,104566,2,0,L|284:152,1,67.2800020532227,0|8,0:0|0:0,0:0:0:0:
84,184,104971,2,0,L|224:188,2,134.560004106445
140,148,105984,2,0,L|304:144,1,134.560004106445,0|8,0:0|0:0,0:0:0:0:
92,148,106795,5,0,0:0:0:0:
92,148,106998,1,0,0:0:0:0:
116,192,107201,2,0,L|208:196,1,67.2800020532227
120,240,107606,2,0,L|264:240,2,134.560004106445,0|8|0,0:0|0:0|0:0,0:0:0:0:
128,204,108620,2,0,L|288:196,1,134.560004106445
192,208,109228,1,0,0:0:0:0:
136,200,109633,2,0,L|276:196,1,134.560004106445,8|0,0:0|0:0,0:0:0:0:
120,240,110241,2,0,L|260:236,2,134.560004106445
176,168,111255,1,8,0:0:0:0:
176,168,111660,5,0,0:0:0:0:
176,168,111863,1,0,0:0:0:0:
204,76,112066,2,0,L|296:72,2,67.2800020532227
320,192,112674,2,0,L|220:308,2,134.560004106445
228,168,113687,1,4,0:0:0:0:
256,192,113788,12,0,116930,0:0:0:0:
144,120,126660,6,0,L|144:256,1,116,4|0,0:0|0:0,0:0:0:0:
296,312,127471,2,0,L|320:184,1,116,8|0,0:0|0:0,0:0:0:0:
276,152,128079,1,0,0:0:0:0:
128,168,128282,2,0,L|264:184,2,116,0|0|8,0:0|0:0|0:0,0:0:0:0:
92,228,129498,1,0,0:0:0:0:
48,268,129903,2,0,L|296:264,1,232,0|8,0:0|0:0,0:0:0:0:
144,244,131120,1,0,0:0:0:0:
160,192,131525,6,0,L|296:200,2,116,0|0|8,0:0|0:0|0:0,0:0:0:0:
176,200,132741,1,0,0:0:0:0:
124,252,133147,2,0,L|368:256,2,232,0|8|0,0:0|0:0|0:0,0:0:0:0:
152,232,135174,5,0,0:0:0:0:
152,232,135579,1,8,0:0:0:0:
152,232,135984,2,0,L|280:236,1,116
120,148,136593,2,0,L|256:148,1,116
192,196,137201,1,8,0:0:0:0:
160,136,137606,6,0,L|240:144,1,77.3333333333333
239,139,138011,2,0,L|328:136,1,77.3333333333333
116,160,138417,2,0,L|188:164,1,58
212,184,138822,5,8,0:0:0:0:
212,184,139025,1,0,0:0:0:0:
212,184,139228,1,0,0:0:0:0:
212,184,139430,1,0,0:0:0:0:
212,184,139633,2,0,L|344:176,1,116
204,240,140241,2,0,L|284:244,2,58,0|8|0,0:0|0:0|0:0,0:0:0:0:
96,184,140849,2,0,L|212:180,1,116
168,152,141457,6,0,L|252:148,2,58
232,168,142066,1,8,0:0:0:0:
232,168,142268,1,0,0:0:0:0:
232,168,142471,1,0,0:0:0:0:
232,168,142674,1,0,0:0:0:0:
64,212,142876,6,0,L|196:208,1,116
112,144,143484,2,0,L|188:140,2,58,0|8|0,0:0|0:0|0:0,0:0:0:0:
180,212,144093,2,0,L|308:212,1,116
160,140,144701,2,0,L|224:136,1,58
217,136,145106,1,0,0:0:0:0:
160,196,145309,6,0,L|288:192,1,116,8|0,0:0|0:0,0:0:0:0:
168,284,145917,1,0,0:0:0:0:
176,68,146120,2,0,L|248:68,1,58
48,156,146525,6,0,L|176:152,2,116,0|8|0,0:0|0:0|0:0,0:0:0:0:
160,112,147538,1,0,0:0:0:0:
152,200,147741,2,0,L|232:204,1,58
100,164,148147,6,0,L|228:160,2,116,0|8|0,0:0|0:0|0:0,0:0:0:0:
180,172,149160,1,0,0:0:0:0:
256,192,149261,12,4,150984,0:0:0:0:
352,144,151390,5,0,0:0:0:0:
160,96,151795,1,8,0:0:0:0:
160,96,152201,1,0,0:0:0:0:
64,152,152606,6,0,L|144:156,1,76.5599997663574,4|0,0:0|0:0,0:0:0:0:
76,84,153417,2,0,L|196:80,2,114.839999649536
232,156,155038,1,0,0:0:0:0:
136,184,155444,5,0,0:0:0:0:
136,184,155647,1,0,0:0:0:0:
140,148,155849,2,0,L|216:152,1,76.5599997663574
124,276,156457,2,0,L|212:280,1,76.5599997663574
64,152,157268,2,0,L|144:156,1,76.5599997663574
196,140,157876,1,0,0:0:0:0:
208,80,158282,5,0,0:0:0:0:
192,184,158687,1,0,0:0:0:0:
192,184,159093,2,0,L|272:192,1,76.5599997663574
112,248,159903,2,0,L|192:252,1,76.5599997663574
264,168,160511,2,0,L|340:164,1,76.5599997663574
208,176,161120,1,0,0:0:0:0:
124,200,161525,5,0,0:0:0:0:
108,128,161930,1,0,0:0:0:0:
196,152,162336,2,0,L|288:160,2,76.5599997663574
160,68,163552,1,0,0:0:0:0:
172,108,163755,1,0,0:0:0:0:
148,140,163957,2,0,L|216:188,1,76.5599997663574
200,168,164768,5,0,0:0:0:0:
200,168,165174,1,0,0:0:0:0:
200,168,165579,2,0,L|280:220,1,96.2800013956604,4|0,0:0|0:0,0:0:0:0:
168,240,166390,2,0,L|272:236,1,96.2800013956604,8|0,0:0|0:0,0:0:0:0:
96,252,166998,1,0,0:0:0:0:
144,176,167201,2,0,L|200:172,1,48.1400006978302
100,212,167606,2,0,L|212:216,1,96.2800013956604,0|8,0:0|0:0,0:0:0:0:
136,224,168417,6,0,L|200:232,1,48.1400006978302
148,256,168822,2,0,L|256:256,1,96.2800013956604
224,192,169430,2,0,L|292:192,2,48.1400006978302,0|8|0,0:0|0:0|0:0,0:0:0:0:
116,216,170038,1,0,0:0:0:0:
0,200,170241,2,0,L|104:208,1,96.2800013956604
124,128,170849,2,0,L|236:120,1,96.2800013956604,0|8,0:0|0:0,0:0:0:0:
112,236,171660,5,0,0:0:0:0:
112,236,171863,1,0,0:0:0:0:
84,232,172066,2,0,L|192:232,1,96.2800013956604
144,248,172876,2,0,L|244:244,1,96.2800013956604,8|0,0:0|0:0,0:0:0:0:
56,260,173484,2,0,L|156:268,1,96.2800013956604
80,224,174093,2,0,L|184:224,2,96.2800013956604,0|8|0,0:0|0:0|0:0,0:0:0:0:
132,168,175106,2,0,L|236:168,2,96.2800013956604
124,176,176120,1,8,0:0:0:0:
104,212,176525,5,0,0:0:0:0:
124,176,176728,1,0,0:0:0:0:
104,212,176930,2,0,L|204:192,1,96.2800013956604
136,252,177538,2,0,L|240:256,2,96.2800013956604
52,44,178552,6,0,L|176:80,1,116,4|0,0:0|0:0,0:0:0:0:
88,216,179160,2,0,L|208:208,1,116,4|0,0:0|0:0,0:0:0:0:
128,144,179768,2,0,L|248:136,1,116,4|8,0:0|0:0,0:0:0:0:
284,216,180376,2,0,L|352:216,2,58,0|0|0,0:0|0:0|0:0,0:0:0:0:
312,88,180984,2,0,L|352:84,3,29
312,88,181390,2,0,L|352:84,3,29
68,196,181795,6,0,L|224:196,1,134.560004106445
176,192,182403,1,0,0:0:0:0:
136,232,182606,2,0,L|208:240,2,67.2800020532227,8|0|0,0:0|0:0|0:0,0:0:0:0:
140,144,183214,2,0,L|232:144,1,67.2800020532227
219,146,183620,1,0,0:0:0:0:
176,192,183822,2,0,L|324:188,2,134.560004106445,0|8|0,0:0|0:0|0:0,0:0:0:0:
140,164,184836,1,0,0:0:0:0:
140,164,185038,2,0,L|288:160,1,134.560004106445
176,224,185647,2,0,L|264:244,1,67.2800020532227,0|8,0:0|0:0,0:0:0:0:
140,164,186052,2,0,L|296:168,2,134.560004106445
172,136,187066,1,0,0:0:0:0:
168,184,187471,5,8,0:0:0:0:
168,184,187876,1,0,0:0:0:0:
168,184,188282,2,0,L|320:180,1,134.560004106445
148,224,188890,1,0,0:0:0:0:
148,224,189093,2,0,L|268:320,1,134.560004106445,8|0,0:0|0:0,0:0:0:0:
60,232,189701,2,0,L|72:148,2,67.2800020532227
164,148,190309,6,0,L|328:148,2,134.560004106445,0|8|0,0:0|0:0|0:0,0:0:0:0:
132,92,191322,2,0,L|212:88,1,67.2800020532227
132,92,191728,1,0,0:0:0:0:
56,176,191930,2,0,L|216:172,2,134.560004106445,0|8|0,0:0|0:0|0:0,0:0:0:0:
128,196,192944,2,0,L|280:208,1,134.560004106445
180,136,193552,1,0,0:0:0:0:
256,184,193957,6,0,L|276:100,1,67.2800020532227,8|0,0:0|0:0,0:0:0:0:
216,120,194363,2,0,L|184:208,1,67.2800020532227
172,244,194768,2,0,L|144:96,1,134.560004106445
176,148,195376,1,0,0:0:0:0:
104,116,195579,2,0,L|76:280,1,134.560004106445,8|0,0:0|0:0,0:0:0:0:
112,284,196187,1,0,0:0:0:0:
160,272,196390,2,0,L|252:276,1,67.2800020532227
200,220,196795,2,0,L|360:216,2,134.560004106445,0|8|0,0:0|0:0|0:0,0:0:0:0:
108,200,197809,1,0,0:0:0:0:
108,200,198011,2,0,L|244:200,1,134.560004106445
196,136,198620,2,0,L|284:152,1,67.2800020532227,0|8,0:0|0:0,0:0:0:0:
84,184,199025,2,0,L|240:180,2,134.560004106445
76,140,200038,2,0,L|232:136,1,134.560004106445,0|8,0:0|0:0,0:0:0:0:
116,192,200849,5,0,0:0:0:0:
116,192,201052,1,0,0:0:0:0:
116,192,201255,2,0,L|208:196,1,67.2800020532227
120,240,201660,2,0,L|260:244,2,134.560004106445,0|8|0,0:0|0:0|0:0,0:0:0:0:
128,204,202674,2,0,L|288:196,1,134.560004106445
192,208,203282,1,0,0:0:0:0:
136,200,203687,2,0,L|280:192,1,134.560004106445,8|0,0:0|0:0,0:0:0:0:
120,240,204295,2,0,L|260:240,2,134.560004106445
144,200,205309,1,8,0:0:0:0:
176,168,205714,5,0,0:0:0:0:
176,168,205917,1,0,0:0:0:0:
204,76,206120,2,0,L|296:72,2,67.2800020532227
364,140,206728,2,0,L|280:248,2,134.560004106445
72,224,207741,6,0,L|212:244,1,116,6|0,0:0|0:0,0:0:0:0:
228,160,208349,2,0,L|296:168,2,58
160,204,209160,2,0,L|352:212,1,174,0|0,0:0|0:0,0:0:0:0:
196,156,209971,2,0,L|328:164,1,116
112,236,210782,1,0,0:0:0:0:
112,236,210984,6,0,L|304:240,1,174,0|0,0:0|0:0,0:0:0:0:
156,312,211795,1,0,0:0:0:0:
164,280,211998,2,0,L|352:288,1,174,0|2,0:0|0:0,0:0:0:0:
200,176,213011,2,0,L|264:172,1,58
168,136,213417,2,0,L|240:152,1,58
56,236,214228,6,0,L|248:252,1,174,2|0,0:0|0:0,0:0:0:0:
196,280,215241,1,0,0:0:0:0:
192,220,215647,2,0,L|316:216,2,116
188,244,216863,1,0,0:0:0:0:
168,272,217268,1,0,0:0:0:0:
112,284,217471,6,0,L|344:280,1,232
224,260,218484,1,0,0:0:0:0:
152,216,219093,2,0,L|336:220,1,174,2|0,0:0|0:0,0:0:0:0:
204,264,220106,1,0,0:0:0:0:
112,204,220714,6,0,L|232:204,1,116,2|0,0:0|0:0,0:0:0:0:
92,168,221322,2,0,L|168:168,1,58
160,136,221728,2,0,L|336:144,2,174
48,208,223349,2,0,L|248:216,1,174,0|0,0:0|0:0,0:0:0:0:
88,168,224363,2,0,L|272:168,1,174
200,160,225579,5,0,0:0:0:0:
116,220,225984,2,0,L|300:216,1,174
144,156,227201,2,0,L|276:168,2,116,2|0|0,0:0|0:0|0:0,0:0:0:0:
144,156,228214,1,0,0:0:0:0:
196,176,228822,6,0,L|436:204,2,232,2|0|2,0:0|0:0|0:0,0:0:0:0:
140,208,231202,2,0,L|264:220,1,116
144,152,231917,2,0,L|332:168,1,174,2|0,0:0|0:0,0:0:0:0:
256,192,232869,12,0,236917,0:0:0:0:
