osu file format v14

[General]
AudioFilename: Bullshit!! hard problem.mp3
AudioLeadIn: 0
PreviewTime: 38893
Countdown: 0
SampleSet: Normal
StackLeniency: 0.4
Mode: 0
LetterboxInBreaks: 0
WidescreenStoryboard: 0

[Editor]
Bookmarks: 21750,30750,40036,60607,69750,88036,108607,116607,124607,152036
DistanceSpacing: 0.9
BeatDivisor: 4
GridSize: 4
TimelineZoom: 1.5

[Metadata]
Title:Bullshit!! Hard problem
TitleUnicode:Bullshit!! Hard problem
Artist:Outer
ArtistUnicode:Outer
Creator:Heatherfield
Version:TRaSH
Source:Nekonade Distortion
Tags:WHITESOFT KOTOKO
BeatmapID:359113
BeatmapSetID:144617

[Difficulty]
HPDrainRate:5
CircleSize:4
OverallDifficulty:8
ApproachRate:9
SliderMultiplier:1.8
SliderTickRate:1

[Events]
//Background and Video events
0,0,"bull.jpg",0,0
//Break Periods
2,60664,67864
2,108806,116007
//Storyboard Layer 0 (Background)
//Storyboard Layer 1 (Fail)
//Storyboard Layer 2 (Pass)
//Storyboard Layer 3 (Foreground)
//Storyboard Sound Samples

[TimingPoints]
1179,285.714285714286,4,1,0,50,1,0
40036,-83.3333333333333,4,1,0,50,0,1
48321,-66.6666666666667,4,1,0,50,0,1
49179,-83.3333333333333,4,1,0,50,0,1
56036,-100,4,1,0,50,0,0
88036,-83.3333333333333,4,1,0,50,0,1
96607,-66.6666666666667,4,1,0,50,0,1
97179,-83.3333333333333,4,1,0,50,0,1
104036,-83.3333333333333,4,1,0,50,0,0
124607,-83.3333333333333,4,1,0,50,0,1
132893,-66.6666666666667,4,1,0,50,0,1
133750,-83.3333333333333,4,1,0,50,0,1
140607,-83.3333333333333,4,1,0,50,0,0
152036,-50,4,1,0,50,0,1
152054,-50,4,1,0,50,0,0
152321,-83.3333333333333,4,1,0,50,0,0

[Colours]
Combo1 : 252,194,233
Combo2 : 255,255,255
Combo3 : 245,245,120
Combo4 : 221,159,244

[HitObjects]
112,136,1036,5,0,0:0:0:0:
112,136,1107,1,0,0:0:0:0:
112,136,1179,1,0,1:0:0:0:
197,108,1321,1,0,0:0:0:0:
223,195,1464,1,0,0:0:0:0:
136,224,1607,1,0,0:0:0:0:
343,325,1893,1,0,0:0:0:0:
353,236,2036,1,0,0:0:0:0:
424,288,2179,6,0,B|472:304|472:304|456:224|456:224|520:176|520:72,1,270
368,40,2750,2,0,B|424:80|424:80|435:123|416:144|416:144|352:200,1,180
288,264,3179,1,0,0:0:0:0:
288,280,3250,1,0,0:0:0:0:
288,296,3321,1,0,0:0:0:0:
288,312,3393,1,0,0:0:0:0:
288,324,3464,6,0,L|192:312,1,90
376,272,3750,2,0,L|496:284,1,90
424,80,4036,1,0,0:0:0:0:
344,136,4179,1,0,0:0:0:0:
248,120,4321,1,0,0:0:0:0:
184,48,4464,2,0,P|120:88|64:224,1,180
16,288,4893,2,0,P|56:320|128:336,1,90
288,264,5179,2,0,P|248:240|190:224,1,90
352,336,5464,1,0,0:0:0:0:
488,152,5607,6,0,B|424:160|432:224|432:224|464:304,1,180
400,216,6036,1,0,0:0:0:0:
304,224,6179,1,0,0:0:0:0:
208,232,6321,1,0,0:0:0:0:
240,136,6464,2,0,B|236:96|212:64|212:64|144:40|108:96,2,180
96,272,7179,6,0,L|80:176,1,90
216,288,7464,2,0,L|230:376,1,90
230,376,7750,1,0,0:0:0:0:
400,244,7893,2,0,B|380:144|380:144|408:100|464:100,1,180
284,41,8321,2,0,P|236:50|200:72,1,90
68,206,8607,2,0,P|112:205|152:184,1,90
152,184,8893,1,0,0:0:0:0:
424,168,9036,6,0,P|344:160|240:240,1,180
192,296,9464,1,0,0:0:0:0:
280,360,9607,1,0,0:0:0:0:
376,312,9750,2,0,L|344:200,1,90
352,224,10036,1,0,0:0:0:0:
408,40,10179,2,0,P|448:104|448:208,1,180
472,364,10607,1,0,0:0:0:0:
388,288,10750,2,0,P|336:272|268:272,1,90
228,168,11036,2,0,P|136:168|36:132,2,180
192,336,11750,5,0,0:0:0:0:
296,368,11893,1,0,0:0:0:0:
316,260,12036,1,0,0:0:0:0:
440,312,12179,1,0,0:0:0:0:
444,300,12250,1,0,0:0:0:0:
448,288,12321,1,0,0:0:0:0:
452,276,12393,1,0,0:0:0:0:
456,264,12464,1,0,0:0:0:0:
460,252,12536,1,0,0:0:0:0:
464,240,12607,6,0,P|447:192|404:128,1,90
224,40,12893,2,0,P|238:83|280:144,1,90
224,280,13179,1,0,0:0:0:0:
128,240,13321,1,0,0:0:0:0:
48,312,13464,1,0,0:0:0:0:
136,368,13607,2,0,P|120:256|152:160,1,180
328,328,14036,6,0,L|224:304,1,90
400,232,14321,1,0,0:0:0:0:
400,232,14464,1,0,0:0:0:0:
464,320,14607,1,0,0:0:0:0:
512,128,14750,2,0,P|400:128|336:64,1,180
304,320,15179,6,0,P|288:280|272:208,1,90
288,128,15464,1,0,0:0:0:0:
192,80,15607,1,0,0:0:0:0:
112,152,15750,1,0,0:0:0:0:
160,248,15893,2,0,P|96:328|8:296,1,180
72,72,16321,6,0,L|88:192,1,90
188,190,16607,1,0,0:0:0:0:
254,104,16750,1,0,0:0:0:0:
348,156,16893,1,0,0:0:0:0:
448,36,17036,2,0,B|426:93|426:93|440:152|440:152|432:228,1,180
348,156,17464,5,0,0:0:0:0:
348,156,17607,1,0,0:0:0:0:
348,156,17750,1,0,0:0:0:0:
348,156,17893,1,0,0:0:0:0:
348,156,18036,1,0,0:0:0:0:
288,248,18179,2,0,L|100:200,1,180
8,332,18607,5,0,0:0:0:0:
8,332,18750,1,0,0:0:0:0:
8,332,18893,1,0,0:0:0:0:
8,332,19036,1,0,0:0:0:0:
8,332,19179,1,0,0:0:0:0:
104,364,19321,2,0,B|160:324|160:324|144:244|64:204,1,180
256,316,19749,5,0,0:0:0:0:
360,332,19892,1,0,0:0:0:0:
376,228,20035,1,0,0:0:0:0:
272,204,20179,2,0,B|288:116|288:116|316:80|332:32,1,180
440,84,20607,5,0,0:0:0:0:
488,232,20750,1,0,0:0:0:0:
412,324,20893,1,0,0:0:0:0:
412,324,20964,1,0,0:0:0:0:
424,96,21179,5,0,0:0:0:0:
472,244,21322,1,0,0:0:0:0:
396,336,21465,1,0,0:0:0:0:
396,336,21536,1,0,0:0:0:0:
304,72,21750,6,0,L|424:116,1,90
476,88,22036,1,0,0:0:0:0:
504,272,22179,2,0,P|424:272|368:192,1,180
207,319,22607,2,0,L|187:231,2,90
91,306,23036,2,0,P|59:230|59:114,1,180
1,36,23464,5,0,0:0:0:0:
408,92,23750,1,0,0:0:0:0:
228,332,24036,6,0,L|268:252,1,90
256,160,24322,1,0,0:0:0:0:
512,168,24465,2,0,P|436:216|344:204,1,180
104,304,24893,2,0,L|76:192,2,90
124,128,25321,2,0,L|104:32,1,90
208,56,25607,1,0,0:0:0:0:
208,56,25679,1,0,0:0:0:0:
208,56,25750,6,0,B|288:52|288:52|332:92|332:92|388:56,1,180
384,212,26179,1,0,0:0:0:0:
376,224,26250,1,0,0:0:0:0:
368,236,26321,1,0,0:0:0:0:
444,284,26464,6,0,P|444:148|484:108,2,180
444,284,27179,1,0,0:0:0:0:
248,132,27464,1,0,0:0:0:0:
248,42,27607,1,0,0:0:0:0:
325,87,27750,1,0,0:0:0:0:
300,352,28036,5,0,0:0:0:0:
12,144,28321,1,0,0:0:0:0:
184,56,28607,6,0,L|300:88,1,90
336,144,28893,1,0,0:0:0:0:
504,116,29036,2,0,P|424:120|372:-4,1,180
444,308,29464,2,0,L|412:224,1,90
256,76,29750,1,0,0:0:0:0:
256,76,29892,2,0,L|300:176,1,90
480,328,30178,1,0,0:0:0:0:
480,328,30250,1,0,0:0:0:0:
480,328,30321,6,0,B|440:236|440:236|440:200|440:200|408:156,1,180
484,56,30750,1,0,0:0:0:0:
484,56,30821,1,0,0:0:0:0:
484,56,30893,6,0,L|368:28,1,90
308,56,31179,1,0,0:0:0:0:
340,152,31322,2,0,P|212:100|208:0,1,180
60,268,31750,2,0,L|44:164,2,90
116,340,32179,2,0,P|209:329|312:356,1,180
380,376,32607,5,0,0:0:0:0:
480,60,32893,1,0,0:0:0:0:
184,80,33179,6,0,L|208:192,1,90
280,220,33465,1,0,0:0:0:0:
52,152,33608,2,0,P|95:231|220:236,1,180
408,128,34036,2,0,L|424:36,2,90
372,248,34464,2,0,L|328:168,1,90
232,28,34750,1,0,0:0:0:0:
232,28,34822,1,0,0:0:0:0:
232,28,34893,2,0,B|256:120|256:120|236:168|236:168|260:220,1,180
228,328,35321,5,0,0:0:0:0:
215,331,35393,1,0,0:0:0:0:
203,334,35464,1,0,0:0:0:0:
132,304,35607,2,0,B|104:352|104:352|64:220,2,180
400,256,36464,1,0,0:0:0:0:
400,166,36607,1,0,0:0:0:0:
477,211,36750,1,0,0:0:0:0:
64,108,37036,6,0,P|128:88|208:108,1,135
228,128,37321,2,0,L|204:24,1,90
156,272,37750,5,0,0:0:0:0:
416,316,37893,1,0,0:0:0:0:
444,336,38179,6,0,P|432:252|488:208,1,135
508,216,38464,2,0,L|468:104,1,90
432,104,38679,2,0,L|440:56,1,45
364,16,38893,1,0,0:0:0:0:
364,16,39036,2,0,L|332:202,1,180
64,312,39464,5,0,0:0:0:0:
64,312,39607,1,0,0:0:0:0:
84,316,39679,1,0,0:0:0:0:
100,320,39750,1,0,0:0:0:0:
116,324,39821,1,0,0:0:0:0:
132,328,39893,1,0,0:0:0:0:
148,332,39964,1,0,0:0:0:0:
168,336,40036,5,0,0:0:0:0:
270,263,40179,2,0,B|168:232|168:232|160:148|181:127,1,215.999993408203
181,127,40607,1,0,0:0:0:0:
276,72,40750,2,0,P|272:136|248:200,2,107.999996704102
124,200,41179,1,0,0:0:0:0:
124,200,41321,2,0,P|104:256|112:332,1,107.999996704102
360,364,41607,5,0,0:0:0:0:
256,340,41750,1,0,0:0:0:0:
276,232,41893,1,0,0:0:0:0:
384,260,42036,2,0,P|416:204|416:84,1,161.999995056153
408,56,42321,5,0,0:0:0:0:
304,24,42464,1,0,0:0:0:0:
328,128,42607,1,0,0:0:0:0:
224,96,42750,2,0,P|200:148|212:236,1,107.999996704102
260,324,43036,2,0,P|284:272|272:184,1,107.999996704102
20,272,43321,6,0,L|164:236,1,107.999996704102
445,247,43607,2,0,L|301:283,1,107.999996704102
56,304,43893,1,0,0:0:0:0:
56,304,44036,2,0,P|44:356|128:356,1,161.999995056153
160,316,44321,2,0,P|208:308|304:332,1,107.999996704102
456,104,44607,5,0,0:0:0:0:
342,134,44750,1,0,0:0:0:0:
257,56,44893,1,0,0:0:0:0:
132,60,45036,2,0,P|120:96|108:200,1,107.999996704102
228,344,45321,2,0,P|240:308|252:204,1,107.999996704102
148,88,45607,2,0,P|136:124|124:228,1,107.999996704102
264,277,45893,6,0,B|324:325|420:313|486:356,2,215.999993408203
356,177,46607,1,0,0:0:0:0:
356,177,46750,2,0,P|412:151|464:136,2,107.999996704102
297,311,47179,1,0,0:0:0:0:
297,311,47321,2,0,P|242:298|182:295,1,107.999996704102
80,345,47607,2,0,L|29:228,1,107.999996704102
20,52,47893,2,0,P|64:128|208:124,1,215.999993408203
448,308,48321,6,0,P|500:240|416:272,1,202.500007724762
443,293,48607,2,0,P|495:225|411:257,1,202.500007724762
384,136,48893,2,0,P|324:108|240:96,1,135.000005149842
36,44,49179,5,0,0:0:0:0:
36,44,49322,2,0,P|40:120|160:140,1,215.999993408203
40,352,49750,1,0,0:0:0:0:
102,238,49893,1,0,0:0:0:0:
218,295,50036,1,0,0:0:0:0:
304,198,50179,2,0,L|288:78,1,107.999996704102
218,295,50464,2,0,L|202:175,1,107.999996704102
456,56,50750,5,0,0:0:0:0:
352,88,50893,1,0,0:0:0:0:
384,192,51036,1,0,0:0:0:0:
488,168,51179,2,0,P|492:252|488:360,1,161.999995056153
448,360,51464,5,0,0:0:0:0:
276,308,51607,1,0,0:0:0:0:
424,376,51750,1,0,0:0:0:0:
268,280,51893,2,0,P|200:252|144:244,1,107.999996704102
364,204,52179,2,0,P|432:232|488:240,1,107.999996704102
180,336,52464,6,0,P|132:352|72:360,1,107.999996704102
228,152,52750,2,0,P|276:136|336:128,1,107.999996704102
432,176,53036,1,0,0:0:0:0:
416,384,53179,2,0,P|360:312|352:208,1,161.999995056153
308,280,53464,2,0,P|248:268|192:250,1,107.999996704102
121,92,53750,5,0,0:0:0:0:
32,151,53893,2,0,B|23:191|58:290|20:377,2,215.999993408203
161,94,54607,1,0,0:0:0:0:
250,186,54750,2,0,B|331:154|331:154|391:170|482:179,1,215.999993408203
256,192,55107,12,0,55750,0:0:0:0:
136,184,56036,5,0,0:0:0:0:
208,260,56179,1,0,0:0:0:0:
300,260,56321,1,0,0:0:0:0:
376,184,56464,1,0,0:0:0:0:
256,340,56750,1,0,0:0:0:0:
158,42,57036,2,0,B|255:192|255:192|358:39,1,360
128,288,58179,5,0,0:0:0:0:
184,220,58321,1,0,0:0:0:0:
256,272,58464,1,0,0:0:0:0:
328,220,58606,1,0,0:0:0:0:
384,288,58749,1,0,0:0:0:0:
256,352,59035,1,0,0:0:0:0:
94,63,59321,2,0,B|257:142|257:142|417:64,1,360
256,44,60464,5,0,0:0:0:0:
96,120,68464,5,0,0:0:0:0:
100,128,68750,5,0,0:0:0:0:
104,132,69036,5,0,0:0:0:0:
108,136,69321,5,0,0:0:0:0:
176,65,69464,1,0,0:0:0:0:
189,53,69536,1,0,0:0:0:0:
205,47,69607,1,0,0:0:0:0:
222,41,69679,1,0,0:0:0:0:
239,41,69750,5,0,0:0:0:0:
283,85,69893,1,0,0:0:0:0:
327,129,70036,1,0,0:0:0:0:
371,173,70179,1,0,0:0:0:0:
215,131,70321,5,0,0:0:0:0:
255,150,70464,1,0,0:0:0:0:
295,168,70607,1,0,0:0:0:0:
335,188,70750,1,0,0:0:0:0:
232,221,70893,5,0,0:0:0:0:
258,216,71036,1,0,0:0:0:0:
284,211,71179,1,0,0:0:0:0:
310,206,71322,1,0,0:0:0:0:
286,305,71464,5,0,0:0:0:0:
296,290,71607,1,0,0:0:0:0:
308,276,71750,1,0,0:0:0:0:
319,262,71893,1,0,0:0:0:0:
295,352,72036,5,0,0:0:0:0:
251,308,72179,1,0,0:0:0:0:
207,264,72322,1,0,0:0:0:0:
163,220,72465,1,0,0:0:0:0:
319,262,72607,5,0,0:0:0:0:
279,243,72750,1,0,0:0:0:0:
239,225,72893,1,0,0:0:0:0:
199,205,73036,1,0,0:0:0:0:
302,172,73179,5,0,0:0:0:0:
276,177,73322,1,0,0:0:0:0:
250,182,73465,1,0,0:0:0:0:
224,187,73608,1,0,0:0:0:0:
248,88,73750,5,0,0:0:0:0:
238,103,73893,1,0,0:0:0:0:
226,117,74036,1,0,0:0:0:0:
215,131,74179,1,0,0:0:0:0:
281,28,74321,5,0,0:0:0:0:
291,89,74464,1,0,0:0:0:0:
304,150,74607,1,0,0:0:0:0:
315,211,74750,1,0,0:0:0:0:
369,59,74893,5,0,0:0:0:0:
362,102,75035,1,0,0:0:0:0:
355,146,75178,1,0,0:0:0:0:
348,189,75321,1,0,0:0:0:0:
433,122,75464,5,0,0:0:0:0:
415,142,75607,1,0,0:0:0:0:
396,160,75750,1,0,0:0:0:0:
377,179,75893,1,0,0:0:0:0:
473,214,76035,5,0,0:0:0:0:
455,214,76178,1,0,0:0:0:0:
436,217,76321,1,0,0:0:0:0:
419,217,76464,1,0,0:0:0:0:
469,315,76607,6,0,P|440:331|381:341,1,90
384,341,76893,1,0,0:0:0:0:
258,337,77036,2,0,P|256:246|242:149,2,180
135,342,77750,1,0,0:0:0:0:
135,342,77893,5,0,0:0:0:0:
478,281,78179,1,0,0:0:0:0:
120,176,78464,1,0,0:0:0:0:
460,296,78750,1,0,0:0:0:0:
460,296,78821,1,0,0:0:0:0:
460,296,78893,5,0,0:0:0:0:
416,252,79036,1,0,0:0:0:0:
372,208,79179,1,0,0:0:0:0:
328,164,79322,1,0,0:0:0:0:
484,206,79464,5,0,0:0:0:0:
444,187,79607,1,0,0:0:0:0:
404,169,79750,1,0,0:0:0:0:
364,149,79893,1,0,0:0:0:0:
467,116,80036,5,0,0:0:0:0:
441,121,80179,1,0,0:0:0:0:
415,126,80322,1,0,0:0:0:0:
389,131,80465,1,0,0:0:0:0:
384,40,80607,6,0,P|311:48|248:68,1,135
124,136,80893,2,0,P|168:148|220:152,1,90
231,384,81179,5,0,0:0:0:0:
219,324,81322,1,0,0:0:0:0:
203,264,81465,1,0,0:0:0:0:
188,204,81608,1,0,0:0:0:0:
142,358,81751,5,0,0:0:0:0:
147,315,81893,1,0,0:0:0:0:
152,271,82036,1,0,0:0:0:0:
156,227,82179,1,0,0:0:0:0:
75,299,82322,5,0,0:0:0:0:
92,278,82465,1,0,0:0:0:0:
110,259,82608,1,0,0:0:0:0:
128,239,82751,1,0,0:0:0:0:
36,168,82893,6,0,P|104:144|188:128,1,135
285,89,83179,2,0,P|248:60|208:44,1,90
208,44,83464,1,0,0:0:0:0:
352,220,83607,6,0,L|392:36,2,180
408,292,84321,1,0,0:0:0:0:
320,304,84464,2,0,P|264:312|212:272,1,90
80,336,84750,2,0,P|136:328|188:368,1,90
34,211,85036,2,0,P|11:148|60:43,1,180
227,141,85464,2,0,L|137:148,1,90
278,235,85750,5,0,0:0:0:0:
448,40,85893,1,0,0:0:0:0:
428,56,86179,6,0,P|416:140|472:184,1,135
492,176,86464,2,0,L|452:288,1,90
413,289,86679,2,0,L|421:337,1,45
341,380,86893,1,0,0:0:0:0:
341,380,87036,2,0,L|308:194,1,180
48,80,87464,5,0,0:0:0:0:
48,80,87607,5,0,0:0:0:0:
68,76,87679,1,0,0:0:0:0:
84,72,87750,1,0,0:0:0:0:
100,68,87821,1,0,0:0:0:0:
116,64,87893,1,0,0:0:0:0:
132,60,87964,1,0,0:0:0:0:
152,56,88036,5,0,0:0:0:0:
188,156,88179,2,0,P|304:152|376:60,1,215.999993408203
368,83,88607,1,0,0:0:0:0:
456,292,88750,2,0,P|416:228|420:176,2,107.999996704102
396,384,89179,1,0,0:0:0:0:
396,384,89321,2,0,P|340:368|276:372,1,107.999996704102
188,336,89607,5,0,0:0:0:0:
81,360,89750,1,0,0:0:0:0:
57,254,89893,1,0,0:0:0:0:
162,230,90036,2,0,P|140:124|160:56,1,161.999995056153
176,24,90321,5,0,0:0:0:0:
276,64,90464,1,0,0:0:0:0:
288,172,90607,1,0,0:0:0:0:
396,168,90750,2,0,P|464:204|504:192,1,107.999996704102
204,276,91036,2,0,P|136:240|96:252,1,107.999996704102
272,36,91321,2,0,P|260:112|272:160,1,107.999996704102
404,208,91607,2,0,P|416:132|404:84,1,107.999996704102
504,304,91893,5,0,0:0:0:0:
504,304,92036,2,0,P|448:344|356:316,1,161.999995056153
312,344,92321,2,0,P|259:318|176:328,1,107.999996704102
88,164,92607,5,0,0:0:0:0:
120,60,92750,1,0,0:0:0:0:
224,36,92893,1,0,0:0:0:0:
320,84,93036,2,0,P|352:140|356:216,1,107.999996704102
272,336,93321,2,0,P|236:280|224:200,1,107.999996704102
248,72,93607,2,0,P|296:48|356:40,1,107.999996704102
464,104,93893,2,0,B|484:168|412:240|488:328,2,215.999993408203
364,64,94607,1,0,0:0:0:0:
364,64,94750,2,0,P|280:48|240:56,2,107.999996704102
340,188,95179,5,0,0:0:0:0:
340,188,95321,2,0,P|284:184|224:140,1,107.999996704102
188,296,95607,2,0,P|128:224|132:172,1,107.999996704102
12,172,95893,2,0,P|48:96|108:76,1,107.999996704102
172,60,96179,5,0,0:0:0:0:
240,144,96321,1,0,0:0:0:0:
240,144,96393,1,0,0:0:0:0:
240,144,96464,1,0,0:0:0:0:
344,100,96607,6,0,P|416:136|532:88,1,202.500007724762
476,224,96893,2,0,P|416:276|392:336,1,135.000005149842
216,360,97179,5,0,0:0:0:0:
216,360,97321,2,0,B|140:324|156:213|92:159,1,215.999993408203
22,77,97750,1,0,0:0:0:0:
163,84,97893,2,0,L|293:59,2,107.999996704102
43,196,98321,1,0,0:0:0:0:
174,208,98464,2,0,P|169:253|156:321,1,107.999996704102
280,260,98750,5,0,0:0:0:0:
431,225,98893,1,0,0:0:0:0:
386,335,99036,1,0,0:0:0:0:
263,250,99179,2,0,P|275:166|351:134,1,161.999995056153
378,140,99464,5,0,0:0:0:0:
450,44,99607,2,0,B|494:114|462:176|514:252,2,215.999993408203
307,77,100321,1,0,0:0:0:0:
307,77,100464,2,0,P|250:65|180:80,1,107.999996704102
1,112,100750,2,0,P|48:162|129:172,1,107.999996704102
143,290,101036,1,0,0:0:0:0:
143,290,101107,1,0,0:0:0:0:
143,290,101179,1,0,0:0:0:0:
204,215,101321,1,0,0:0:0:0:
300,228,101464,1,0,0:0:0:0:
375,166,101607,1,0,0:0:0:0:
375,166,101679,1,0,0:0:0:0:
375,166,101750,5,0,0:0:0:0:
419,79,101893,2,0,P|349:58|176:48,2,215.999993408203
468,192,102607,1,0,0:0:0:0:
419,305,102750,2,0,P|349:326|176:336,1,215.999993408203
256,192,103054,12,0,103750,0:0:0:0:
160,192,104036,5,0,0:0:0:0:
132,296,104179,1,0,0:0:0:0:
352,192,104321,1,0,0:0:0:0:
380,296,104464,1,0,0:0:0:0:
256,344,104750,6,0,L|256:200,1,107.999996704102
348,120,105036,2,0,P|248:64|168:116,1,215.999993408203
170,111,105607,2,0,P|261:63|348:120,1,215.999993408203
184,340,106179,1,0,0:0:0:0:
328,340,106321,1,0,0:0:0:0:
128,228,106464,1,0,0:0:0:0:
384,228,106607,1,0,0:0:0:0:
256,260,106750,5,0,0:0:0:0:
256,52,107036,6,0,L|256:176,1,107.999996704102
256,260,107321,2,0,P|180:228|176:100,1,215.999993408203
256,360,107750,1,0,0:0:0:0:
256,360,107893,2,0,P|332:328|336:200,1,215.999993408203
256,102,108321,1,0,0:0:0:0:
256,102,108464,2,0,L|256:48,2,53.9999983520508
380,216,116607,6,0,P|376:300|256:312,1,215.999993408203
132,168,117036,2,0,P|136:84|256:72,1,215.999993408203
432,348,117607,1,0,0:0:0:0:
336,296,117750,2,0,P|328:204|352:76,2,215.999993408203
80,36,118607,5,0,0:0:0:0:
176,88,118750,2,0,P|184:180|160:308,2,215.999993408203
280,56,119464,1,0,0:0:0:0:
388,44,119607,1,0,0:0:0:0:
396,64,119679,1,0,0:0:0:0:
404,84,119750,1,0,0:0:0:0:
344,176,119893,1,0,0:0:0:0:
372,184,119964,1,0,0:0:0:0:
400,192,120036,5,0,0:0:0:0:
496,144,120179,1,0,0:0:0:0:
508,288,120321,2,0,P|500:356|404:364,1,161.999995056153
368,356,120607,1,0,0:0:0:0:
288,280,120750,1,0,0:0:0:0:
196,336,120893,2,0,P|48:212|112:116,1,323.999990112305
288,280,121464,5,0,0:0:0:0:
312,176,121607,1,0,0:0:0:0:
420,160,121750,1,0,0:0:0:0:
464,252,121893,1,0,0:0:0:0:
464,64,122036,1,0,0:0:0:0:
24,92,122321,5,0,0:0:0:0:
88,320,122464,1,0,0:0:0:0:
112,348,122750,6,0,P|120:256|216:184,1,215.999993408203
368,176,123179,2,0,L|316:128,1,53.9999983520508
312,84,123321,2,0,L|424:108,1,107.999996704102
240,16,123607,2,0,P|176:104|212:228,1,215.999993408203
420,308,124036,5,0,0:0:0:0:
420,308,124179,1,0,0:0:0:0:
404,312,124250,1,0,0:0:0:0:
388,316,124321,1,0,0:0:0:0:
372,320,124393,1,0,0:0:0:0:
356,324,124464,1,0,0:0:0:0:
340,328,124536,1,0,0:0:0:0:
324,332,124607,5,0,0:0:0:0:
220,356,124750,2,0,P|184:320|284:224,1,215.999993408203
420,268,125178,1,0,0:0:0:0:
420,268,125321,2,0,P|480:248|516:212,2,107.999996704102
364,120,125750,1,0,0:0:0:0:
364,120,125892,2,0,P|308:104|244:108,1,107.999996704102
200,352,126178,5,0,0:0:0:0:
232,176,126321,1,0,0:0:0:0:
312,264,126464,1,0,0:0:0:0:
220,140,126607,2,0,P|144:160|84:224,1,161.999995056153
68,268,126892,5,0,0:0:0:0:
72,92,127035,1,0,0:0:0:0:
72,92,127107,1,0,0:0:0:0:
72,92,127178,1,0,0:0:0:0:
176,100,127321,2,0,P|192:40|172:-4,1,107.999996704102
256,184,127607,2,0,P|316:200|360:180,1,107.999996704102
496,64,127892,2,0,P|508:140|496:188,1,107.999996704102
364,236,128178,2,0,P|352:160|364:112,1,107.999996704102
504,304,128464,5,0,0:0:0:0:
504,304,128607,2,0,P|448:344|356:316,1,161.999995056153
312,344,128892,2,0,P|259:318|176:328,1,107.999996704102
152,188,129178,5,0,0:0:0:0:
96,352,129321,1,0,0:0:0:0:
96,352,129393,1,0,0:0:0:0:
96,352,129464,1,0,0:0:0:0:
36,248,129607,2,0,P|13:188|21:112,1,107.999996704102
122,11,129892,2,0,P|148:72|148:153,1,107.999996704102
248,312,130178,2,0,P|296:336|356:344,1,107.999996704102
464,252,130464,2,0,B|484:188|412:116|488:28,2,215.999993408203
364,320,131178,1,0,0:0:0:0:
364,320,131321,2,0,P|280:336|240:328,2,107.999996704102
271,225,131750,5,0,0:0:0:0:
271,225,131892,2,0,P|225:199|172:196,1,107.999996704102
385,170,132178,2,0,P|366:120|324:88,1,107.999996704102
224,232,132464,2,0,B|160:200|81:234|4:180,1,215.999993408203
92,344,132893,6,0,P|40:276|124:308,1,202.500007724762
97,329,133179,2,0,P|45:261|129:293,1,202.500007724762
156,172,133465,2,0,P|216:144|300:132,1,135.000005149842
336,332,133750,5,0,0:0:0:0:
336,332,133892,2,0,B|336:292|344:264|344:264|408:280|408:280|420:244|424:192,1,215.999993408203
392,80,134321,1,0,0:0:0:0:
392,80,134464,2,0,L|504:64,2,107.999996704102
304,156,134892,1,0,0:0:0:0:
304,156,135035,2,0,P|244:192|200:188,1,107.999996704102
80,108,135321,5,0,0:0:0:0:
116,292,135464,1,0,0:0:0:0:
20,184,135607,1,0,0:0:0:0:
20,184,135679,1,0,0:0:0:0:
20,184,135750,2,0,P|20:268|32:296,1,107.999996704102
228,312,136035,5,0,0:0:0:0:
364,292,136179,1,0,0:0:0:0:
364,292,136250,1,0,0:0:0:0:
364,292,136321,1,0,0:0:0:0:
364,292,136464,2,0,P|436:284|480:288,1,107.999996704102
320,196,136750,2,0,P|248:180|200:160,1,107.999996704102
68,80,137035,6,0,L|64:248,1,161.999995056153
96,292,137321,2,0,P|156:287|230:242,1,107.999996704102
292,304,137607,1,0,0:0:0:0:
292,304,137678,1,0,0:0:0:0:
292,304,137750,1,0,0:0:0:0:
364,240,137892,1,0,0:0:0:0:
456,268,138035,1,0,0:0:0:0:
256,116,138321,5,0,0:0:0:0:
256,116,138464,2,0,P|148:140|20:132,2,215.999993408203
256,116,139178,1,0,0:0:0:0:
256,192,139321,12,0,140321,0:0:0:0:
256,280,140607,5,0,0:0:0:0:
256,128,140750,1,0,0:0:0:0:
176,176,140893,1,0,0:0:0:0:
336,176,141036,1,0,0:0:0:0:
256,356,141321,6,0,P|328:324|344:272,1,107.999996704102
256,356,141607,2,0,P|180:316|144:192,1,215.999993408203
256,28,142036,1,0,0:0:0:0:
256,28,142179,2,0,P|332:68|368:192,1,215.999993408203
181,245,142750,5,0,0:0:0:0:
284,104,142893,1,0,0:0:0:0:
284,279,143036,1,0,0:0:0:0:
181,138,143179,1,0,0:0:0:0:
347,192,143321,1,0,0:0:0:0:
112,328,143607,6,0,P|80:256|84:196,1,107.999996704102
48,68,143893,2,0,P|120:164|216:164,1,215.999993408203
464,316,144321,1,0,0:0:0:0:
464,316,144464,2,0,P|392:220|296:220,1,215.999993408203
256,52,145036,1,0,0:0:0:0:
160,104,145179,5,0,0:0:0:0:
256,52,145321,1,0,0:0:0:0:
352,104,145464,1,0,0:0:0:0:
256,216,145607,1,0,0:0:0:0:
40,240,145893,6,0,P|112:320|116:368,1,107.999996704102
212,360,146179,2,0,L|424:272,1,215.999993408203
464,96,146607,1,0,0:0:0:0:
464,96,146750,2,0,L|264:178,1,215.999993408203
88,184,147321,5,0,0:0:0:0:
127,321,147464,1,0,0:0:0:0:
180,162,147607,1,0,0:0:0:0:
74,268,147750,1,0,0:0:0:0:
264,356,147893,1,0,0:0:0:0:
460,208,148179,6,0,P|384:228|376:264,1,107.999996704102
332,328,148464,2,0,P|260:224|296:140,1,215.999993408203
287,148,148893,1,0,0:0:0:0:
124,40,149036,2,0,P|100:124|192:232,1,215.999993408203
288,264,149464,5,0,0:0:0:0:
288,264,149607,5,0,0:0:0:0:
288,264,149750,5,0,0:0:0:0:
256,192,149768,8,0,150893,0:0:0:0:
416,96,151036,5,0,0:0:0:0:
252,244,151321,5,0,0:0:0:0:
336,264,151464,1,0,0:0:0:0:
420,284,151607,1,0,0:0:0:0:
268,352,151750,5,0,0:0:0:0:
184,332,151893,1,0,0:0:0:0:
96,308,152036,2,0,P|4:204|144:220,1,360
72,236,152464,6,0,P|48:180|72:100,1,107.999996704102
100,64,152750,1,0,0:0:0:0:
176,100,152893,1,0,0:0:0:0:
172,272,153036,6,0,B|221:266|258:235|258:235|273:186|273:186|314:182|356:201,1,215.999993408203
329,280,153464,2,0,P|390:290|450:258,1,107.999996704102
476,200,153750,1,0,0:0:0:0:
448,120,153893,1,0,0:0:0:0:
504,52,154036,1,0,0:0:0:0:
309,57,154179,6,0,B|280:128|287:208|287:208|388:189,1,215.999993408203
224,280,154607,2,0,P|160:224|96:208,1,107.999996704102
46,245,154893,1,0,0:0:0:0:
15,152,155036,1,0,0:0:0:0:
107,121,155179,1,0,0:0:0:0:
40,336,155321,6,0,P|172:356|252:336,1,215.999993408203
340,264,155750,2,0,P|364:344|352:372,1,107.999996704102
483,239,156036,1,0,0:0:0:0:
398,190,156179,1,0,0:0:0:0:
395,93,156321,1,0,0:0:0:0:
312,244,156464,6,0,P|268:172|312:32,1,215.999993408203
137,192,156893,5,0,0:0:0:0:
137,192,157036,1,0,0:0:0:0:
137,192,157179,1,0,0:0:0:0:
137,192,157322,1,0,0:0:0:0:
137,192,157465,1,0,0:0:0:0:
280,232,157608,6,0,B|224:192|224:192|240:112|324:56,1,215.999993408203
112,238,158036,5,0,0:0:0:0:
112,238,158179,1,0,0:0:0:0:
112,238,158322,1,0,0:0:0:0:
112,238,158465,1,0,0:0:0:0:
112,238,158608,1,0,0:0:0:0:
256,272,158750,6,0,B|200:232|200:232|216:152|300:96,1,215.999993408203
425,56,159179,5,0,0:0:0:0:
383,143,159321,1,0,0:0:0:0:
436,224,159464,1,0,0:0:0:0:
377,301,159607,2,0,P|270:309|168:273,1,215.999993408203
83,321,160036,5,0,0:0:0:0:
43,232,160179,1,0,0:0:0:0:
111,163,160321,1,0,0:0:0:0:
99,167,160393,1,0,0:0:0:0:
13,359,160607,5,0,0:0:0:0:
110,270,160750,1,0,0:0:0:0:
193,346,160892,1,0,0:0:0:0:
203,353,160964,1,0,0:0:0:0:
256,192,161179,12,0,162321,0:0:0:0:
