osu file format v9

[General]
AudioFilename: bull.mp3
AudioLeadIn: 1000
PreviewTime: 66557
Countdown: 0
SampleSet: Soft
StackLeniency: 0.7
Mode: 0
LetterboxInBreaks: 1

[Editor]
DistanceSpacing: 1
BeatDivisor: 4
GridSize: 8

[Metadata]
Title:Bullshit!! Hard problem!!
Artist:Outer
Creator:Aenna
Version:Hard
Source:Nekonade Distortion
Tags:Whitesoft KOTOKO

[Difficulty]
HPDrainRate:4
CircleSize:4
OverallDifficulty:5
ApproachRate:7
SliderMultiplier:1.4
SliderTickRate:1

[Events]
//Background and Video events
Video,-1300,"nekonade_movie.avi"
0,0,"neko.jpg"
//Break Periods
2,51757,58657
//Storyboard Layer 0 (Background)
//Storyboard Layer 1 (Fail)
//Storyboard Layer 2 (Pass)
//Storyboard Layer 3 (Foreground)
//Storyboard Sound Samples
//Background Colour Transformations
3,100,0,0,0

[TimingPoints]
1272,285.714285714286,4,1,1,60,1,0
11986,-100,4,1,1,40,0,0
12557,-100,4,1,1,60,0,0
14272,-100,4,1,1,40,0,0
14843,-100,4,1,1,60,0,0
16557,-100,4,1,1,40,0,0
17129,-100,4,1,1,60,0,0
18843,-100,4,1,1,40,0,0
19414,-100,4,1,1,60,0,0
21414,-100,4,1,1,40,0,0
21700,-100,4,1,1,60,0,0
23414,-100,4,1,1,40,0,0
23986,-100,4,1,1,60,0,0
25700,-100,4,1,1,40,0,0
26272,-100,4,1,1,60,0,0
29914,-100,4,1,1,50,0,0
30914,-100,4,1,1,80,0,0
45700,-100,4,2,1,80,0,0
47986,-100,4,1,1,60,0,0
66486,-100,4,1,1,50,0,0
67414,-100,4,1,1,80,0,0
82272,-100,4,2,1,80,0,0
84557,-100,4,1,1,60,0,0
92414,-200,4,1,1,70,0,0
92700,-200,4,1,1,0,0,0
93557,-100,4,1,1,60,0,0
103986,-100,4,2,1,0,0,0

[Colours]
Combo1 : 0,225,225
Combo2 : 255,102,179
Combo3 : 249,124,0

[HitObjects]
88,112,1272,2,0,B|80:152|88:192,1,70
152,152,1557,2,0,B|158:181|150:221,1,70
256,320,1986,1,0
320,352,2129,1,0
392,336,2272,6,0,B|440:280|416:192,1,140
328,96,2843,2,0,B|280:152|304:240,1,140
301,227,3272,1,0
301,227,3414,1,0
248,296,3557,6,0,B|184:336|96:312,1,140,4|8
56,272,3986,1,0
88,208,4129,2,0,B|80:168|88:128,2,70,0|0|8
160,224,4557,6,0,B|216:176|296:176,1,140
360,192,4986,2,0,B|384:216|392:256,1,70,8|0
320,264,5272,2,0,B|320:304|304:344,1,70
240,352,5557,1,8
168,360,5700,6,0,B|96:336|80:240,1,140
80,184,6129,1,8
136,136,6272,2,0,B|160:104|192:96,1,70
264,80,6557,2,0,B|280:120|272:160,1,70,0|8
216,192,6843,6,0,B|224:272|296:320,1,140
352,336,7272,1,8
352,336,7414,1,0
416,304,7557,2,0,B|456:288|496:296,2,70,0|0|8
360,256,7986,6,0,B|320:200|344:104,1,140
384,64,8414,1,8
248,48,8700,1,0
216,112,8843,1,0
168,56,8986,1,8
136,120,9129,6,0,B|88:176|104:272,1,140
144,312,9557,2,0,B|184:328|224:328,1,70,8|0
224,256,9843,2,0,B|264:248|296:232,1,70
336,176,10129,1,8
256,64,10414,6,0,B|176:64,2,70,0|0|8
384,120,10986,2,0,B|464:120,1,70
480,184,11271,1,8
440,240,11414,2,0,B|360:240,1,70
296,240,11700,2,0,B|256:240,2,35,0|0|8
208,344,12129,6,0,B|128:360|56:304,1,140,0|8
32,184,12700,5,4
88,136,12843,2,0,B|120:112|168:112,1,70,0|8
224,128,13129,2,0,B|240:160|240:200,1,70
176,232,13414,2,0,B|168:272|176:312,2,70,0|8|0
240,272,13843,2,0,B|304:312|384:288,1,140,0|8
464,184,14414,6,0,B|400:144|320:168,1,140,0|8
192,168,14986,5,4
120,168,15129,1,0
56,200,15271,1,8
128,320,15557,1,0
200,320,15700,1,0
264,288,15843,1,8
344,176,16129,2,0,B|360:96|312:32,1,140,0|8
200,112,16700,6,0,B|184:192|232:256,1,140,0|8
360,288,17271,6,0,B|392:272|416:240,1,70,4|0
432,176,17557,2,0,B|448:144|440:96,2,70,8|0|0
360,176,17986,2,0,B|320:168|288:176,2,70,0|8|0
368,104,18414,2,0,B|312:40|224:56,1,140,0|8
128,128,18986,6,0,B|184:192|272:176,1,140,0|8
392,216,19557,6,0,B|448:256|440:352,2,140,4|8|0
256,256,20414,1,8
120,216,20700,6,0,B|64:216,2,35,8|0|0
168,160,20986,2,0,B|208:104,1,70,8|0
208,103,21271,5,8
352,104,21557,1,8
352,248,21843,6,0,B|288:208|192:240,1,140,4|8
160,280,22272,1,0
88,272,22414,2,0,B|40:216|64:128,1,140,0|8
88,72,22843,1,0
152,112,22986,2,0,B|224:128|288:80,1,140,0|8
424,88,23557,6,0,B|472:144|456:224,1,140,0|8
352,312,24129,5,4
216,336,24414,1,8
112,240,24700,2,0,B|96:208|104:160,2,70,0|0|8
176,272,25129,1,0
240,240,25272,2,0,B|296:192|384:208,1,140,0|8
456,96,25843,5,0
320,48,26129,1,8
192,96,26414,6,0,B|168:168,1,70,4|0
112,120,26700,2,0,B|88:192,1,70,8|0
64,256,26986,2,0,B|112:312,1,70
176,336,27272,1,8
248,328,27414,6,0,B|320:312,1,70
280,256,27700,2,0,B|352:240,1,70,0|8
416,264,27986,2,0,B|448:200,1,70
384,168,28272,2,0,B|408:120,2,35,0|0|8
256,104,28700,5,4
256,104,28843,2,0,B|168:104,1,70,0|8
120,136,29129,2,0,B|104:168|104:216,1,70
192,272,29414,2,0,B|208:240|208:192,1,70,0|8
272,168,29700,2,0,B|304:184|328:216,1,70
304,280,29986,5,0
304,280,30129,1,8
352,336,30272,2,0,B|416:304,1,70
488,296,30557,1,0
472,224,30700,2,0,B|480:144,1,70,8|0
448,88,30986,6,0,B|392:40|312:48,1,140,4|8
256,88,31414,1,0
194,47,31557,2,0,B|120:40|64:88,1,140,0|8
80,160,31986,2,0,B|96:192|88:232,1,70
48,288,32272,5,0
112,320,32414,2,0,B|144:336|200:336,1,70,8|0
248,312,32700,1,0
280,248,32843,1,0
264,176,32986,1,8
264,176,33272,6,0,B|320:120|416:144,1,140,4|8
448,184,33700,2,0,B|464:216|456:256,1,70
416,312,33986,2,0,B|344:296,1,70,0|8
312,232,34272,2,0,B|240:248|208:320,1,140
144,352,34700,1,8
88,304,34843,1,0
120,240,34986,2,0,B|136:160|88:96,1,140,0|8
224,48,35557,6,0,B|296:64,1,70,4|0
328,128,35843,1,8
360,192,35986,2,0,B|432:208,1,70
416,280,36272,1,0
368,336,36414,2,0,B|299:320,1,70,8|0
240,280,36700,1,0
168,288,36843,6,0,B|144:320|144:360,2,70,0|8|0
184,216,37272,1,0
128,168,37414,2,0,B|128:96,1,70,0|8
184,48,37700,5,0
256,48,37843,1,0
328,48,37986,2,0,B|376:48,2,35,0|0|8
296,112,38272,2,0,B|272:176,1,70
216,224,38557,2,0,B|240:288,1,70,0|8
304,328,38843,2,0,B|344:328,2,35
168,304,39272,6,0,B|104:344|24:320,2,140,8|0|8
120,176,40129,6,0,B|80:112|104:32,2,140,4|8|0
184,208,40843,1,0
248,176,40986,6,0,B|288:240|264:320,2,140,0|0|8
184,208,41700,1,0
120,240,41843,2,0,B|48:240,2,70,0|0|8
248,176,42414,6,0,B|336:176,1,70,4|0
392,176,42700,1,8
376,248,42843,2,0,B|224:248,1,140
176,288,43272,1,8
104,288,43414,6,0,B|64:224|104:144,1,140
144,96,43843,1,8
216,96,43986,1,0
144,96,44129,1,0
288,96,44414,1,8
392,192,44700,6,0,B|408:224|400:264,1,70,4|0
352,312,44986,1,8
280,320,45129,2,0,B|200:320,1,70
152,280,45414,2,0,B|136:248|144:208,1,70,0|8
256,192,45700,12,4,46986
104,192,48272,6,0,B|88:224|96:264,1,70,0|8
232,232,48700,2,0,B|248:200|240:160,1,70,0|8
336,64,49129,1,0
400,96,49272,6,0,B|392:176,1,70,8|0
320,176,49557,2,0,B|312:256,1,70,8|0
200,328,49986,1,0
128,328,50129,1,0
56,328,50272,1,0
56,192,50557,6,0,B|40:160|47:123,1,70,0|8
184,152,50986,2,0,B|199:183|192:220,1,70,0|8
320,272,51414,1,0
392,272,51557,1,4
400,112,59557,5,2
272,64,59843,2,0,B|240:48|192:56,1,70,2|0
64,72,60272,1,2
40,208,60557,2,0,B|32:248|40:288,1,70,2|0
160,352,60986,1,2
280,280,61272,1,2
280,280,61414,1,0
248,144,61700,5,2
376,80,61986,1,2
472,184,62272,2,0,B|488:216|480:256,1,70,2|0
368,336,62700,1,2
224,336,62986,6,0,B|136:336,1,70,2|0
80,336,63272,1,2
136,208,63557,1,2
208,208,63700,1,0
280,208,63843,2,0,B|432:208,1,140,2|0
400,72,64414,5,2
328,88,64557,1,0
256,80,64700,2,0,B|224:64|184:64,1,70,2|0
120,88,64986,2,0,B|104:112|104:160,1,70,2|0
144,216,65272,5,8
144,216,65414,1,8
280,256,65700,2,0,B|336:208|416:216,1,140,8|0
480,240,66129,1,8
472,312,66272,2,0,B|440:328|400:328,1,70
336,328,66557,6,0,B|168:328,1,140
128,328,66986,1,0
32,224,67272,1,8
64,88,67557,6,0,B|120:40|200:48,1,140,4|8
264,64,67986,1,0
336,56,68129,2,0,B|376:112|352:208,1,140,0|8
288,160,68557,2,0,B|272:192|280:232,1,70
240,288,68843,5,0
304,320,68986,2,0,B|336:336|392:336,1,70,8|0
440,320,69272,1,0
472,256,69414,1,0
464,184,69557,1,8
464,184,69843,6,0,B|408:128|312:152,1,140,4|8
264,168,70272,2,0,B|248:136|255:99,1,70
216,40,70557,2,0,B|144:48,1,70,0|8
72,48,70843,2,0,B|32:112|56:192,1,140
88,248,71272,1,8
152,216,71414,1,0
184,280,71557,2,0,B|248:320|336:288,1,140,0|8
456,192,72129,6,0,B|384:192,1,70,4|0
328,144,72414,1,8
256,152,72557,2,0,B|184:152,1,70
120,176,72843,1,0
56,144,72986,2,0,B|40:112|48:72,1,70,8|0
112,40,73271,1,0
184,48,73414,6,0,B|264:48,2,70,0|8|0
152,112,73843,1,0
120,176,73986,2,0,B|120:246,1,70,0|8
128,320,74271,5,0
200,336,74414,1,0
272,352,74557,2,0,B|307:352,2,35,0|0|8
272,280,74843,2,0,B|296:214,1,70
360,248,75129,2,0,B|384:182,1,70,0|8
408,112,75414,2,0,B|443:112,2,35
256,192,75843,6,0,B|192:152|112:176,2,140,8|0|8
400,280,76700,6,0,B|440:216|416:136,2,140,4|8|0
328,264,77414,1,0
264,296,77557,6,0,B|200:328|112:296,2,140,0|0|8
256,224,78271,1,0
288,160,78414,2,0,B|288:72,2,70,0|0|8
144,72,78986,6,0,B|104:72|72:96,1,70,4|0
40,152,79271,1,8
56,224,79414,2,0,B|96:288|184:304,1,140
240,312,79843,1,8
312,296,79986,6,0,B|360:240|336:152,1,140
312,96,80414,1,8
312,96,80557,1,0
248,64,80700,1,0
96,128,80986,1,8
96,128,81271,6,0,B|80:160|88:200,1,70,4|0
112,264,81557,1,8
176,296,81700,2,0,B|256:296,1,70
312,272,81986,2,0,B|328:240|320:200,1,70,0|8
256,192,82271,12,4,83557
408,192,84843,6,0,B|424:224|416:264,1,70,0|8
280,232,85271,2,0,B|264:200|272:160,1,70,0|8
176,64,85700,1,0
112,96,85843,6,0,B|120:176,1,70,8|0
192,176,86129,2,0,B|200:256,1,70,8|0
312,328,86557,1,0
384,328,86700,1,0
456,328,86843,1,0
456,192,87129,6,0,B|472:160|465:123,2,70,0|8|0
384,208,87557,1,8
312,200,87700,2,0,B|152:200,1,140
104,224,88129,6,0,B|48:176,1,70,8|0
104,128,88414,2,0,B|48:80,1,70,8|0
184,32,88843,1,0
256,32,88986,1,0
328,32,89129,1,0
416,136,89414,6,0,B|432:168|424:208,1,70,0|8
296,256,89843,2,0,B|280:224|288:184,1,70,0|8
160,128,90271,2,0,B|88:128,1,70,0|8
96,200,90557,2,0,B|16:200,2,70,0|8|0
120,336,91129,1,0
184,304,91271,1,0
256,304,91414,1,0
400,304,91700,5,0
400,304,91843,1,8
488,192,92129,1,0
488,192,92271,1,8
408,80,92557,2,0,B|184:80,1,210
72,248,93843,6,0,B|104:320,1,70,8|0
240,336,94271,2,0,B|312:320,1,70,0|8
272,256,94557,2,0,B|344:240,1,70,0|8
424,128,94986,5,4
360,96,95129,2,0,B|328:88|288:88,1,70,0|8
272,160,95414,2,0,B|234:160|202:152,1,70
136,120,95700,1,0
136,120,95843,1,8
80,168,95986,6,0,B|24:216|56:320,1,140
104,344,96414,2,0,B|176:344,1,70,8|0
208,264,96700,2,0,B|136:264,2,70,0|0|8
280,312,97129,6,0,B|424:312,1,140
480,272,97557,2,0,B|488:232|488:200,1,70,8|0
400,152,97843,2,0,B|392:192|392:224,2,70,0|0|8
336,72,98271,6,0,B|176:72,1,140
128,96,98700,1,8
128,96,98843,1,0
64,64,98986,2,0,B|40:96|40:136,1,70
56,200,99271,1,8
120,232,99414,6,0,B|280:232,1,140
304,176,99843,2,0,B|248:224|272:320,1,140,8|0
328,344,100271,2,0,B|368:328|400:328,1,70,0|8
464,352,100557,6,0,B|520:304|496:208,1,140
448,168,100986,1,8
384,200,101129,2,0,B|304:224|232:160,1,140
216,112,101557,1,8
144,128,101700,6,0,B|80:160|80:248,1,140
104,312,102129,1,8
104,312,102271,1,0
176,296,102414,2,0,B|256:296,1,70
320,296,102700,1,8
392,296,102843,1,0
456,264,102986,6,0,B|496:264,2,35,8|0|0
408,208,103271,2,0,B|368:144,1,70,8|0
328,88,103557,2,0,B|288:88,2,35,8|0|0
400,72,103843,1,8
256,192,104129,12,0,105379
