osu file format v9

[General]
AudioFilename: bull.mp3
AudioLeadIn: 1000
PreviewTime: 66557
Countdown: 0
SampleSet: Normal
StackLeniency: 0.7
Mode: 0
LetterboxInBreaks: 1

[Editor]
DistanceSpacing: 1
BeatDivisor: 4
GridSize: 8

[Metadata]
Title:Bullshit!! Hard problem!!
Artist:Outer
Creator:Aenna
Version:Normal
Source:Nekonade Distortion
Tags:Whitesoft KOTOKO

[Difficulty]
HPDrainRate:2
CircleSize:3
OverallDifficulty:2
ApproachRate:2
SliderMultiplier:0.999999999999999
SliderTickRate:1

[Events]
//Background and Video events
Video,-1300,"nekonade_movie.avi"
0,0,"neko.jpg"
//Break Periods
2,51614,57997
//Storyboard Layer 0 (Background)
//Storyboard Layer 1 (Fail)
//Storyboard Layer 2 (Pass)
//Storyboard Layer 3 (Foreground)
//Storyboard Sound Samples
//Background Colour Transformations
3,100,0,0,0

[TimingPoints]
1272,285.714285714286,4,1,1,70,1,0
29843,-100,4,1,1,50,0,0
30843,-100,4,1,1,80,0,0
47843,-100,4,1,1,60,0,0
67272,-100,4,1,1,80,0,0
84557,-100,4,1,1,60,0,0
92486,-200,4,1,1,70,0,0
92700,-200,4,1,1,0,0,0
93557,-100,4,1,1,60,0,0
103843,-100,4,2,0,0,0,0

[Colours]
Combo1 : 0,225,225
Combo2 : 255,102,179
Combo3 : 249,124,0

[HitObjects]
424,64,1272,2,0,B|464:128|440:216,1,150
272,312,2272,2,0,B|152:312,1,99.9999999999999
136,216,2843,2,0,B|288:216,1,150
384,184,3557,5,0
256,32,4129,1,0
72,120,4700,2,0,B|48:168|56:232,1,99.9999999999999
136,280,5272,1,0
336,304,5843,6,0,B|384:336,2,50
368,208,6414,1,0
256,40,6986,1,0
72,128,7557,1,0
144,312,8129,6,0,B|352:312,1,200,4|0
400,120,9272,2,0,B|192:120,1,200
56,256,10414,6,0,B|128:328|240:312,1,200
288,304,11129,2,0,B|328:264|392:256,1,99.9999999999999
456,192,11700,1,0
368,72,12129,1,0
168,88,12700,6,0,B|80:144|80:272,1,200,4|0
256,360,13843,2,0,B|344:304|344:176,1,200
288,104,14700,1,0
200,64,14986,6,0,B|88:64,2,99.9999999999999
144,256,16129,2,0,B|256:256,2,99.9999999999999
64,192,16986,1,0
152,144,17271,6,0,B|232:168|312:112,1,150,4|0
384,72,17986,2,0,B|448:176|384:320,1,250
288,336,18986,2,0,B|176:336,1,99.9999999999999
96,288,19557,6,0,B|96:232,1,50,4|0
176,176,19986,1,0
256,112,20272,1,0
312,256,20700,6,0,B|368:256,2,50
256,72,21843,6,0,B|144:72|80:176,1,200,4|0
88,360,22986,2,0,B|200:360|264:256,1,200
360,96,24129,6,0,B|464:96,2,99.9999999999999,4|0|0
160,64,25272,2,0,B|56:64,2,99.9999999999999
232,136,26129,1,0
328,104,26414,6,0,B|416:176|392:304,1,200,4|0
200,344,27557,2,0,B|112:272|136:144,1,200
168,72,28414,1,0
256,120,28700,6,0,B|256:176,1,50,4|0
256,272,29129,2,0,B|312:328|392:320,1,150
472,192,29986,6,0,B|488:112|424:48,1,150
328,72,30700,1,0
224,72,30986,5,4
32,128,31557,1,0
88,320,32129,2,0,B|296:320,1,200
472,240,33272,6,0,B|488:120|416:48,1,200,4|0
224,48,34414,2,0,B|208:168|280:240,1,200
352,296,35272,1,0
256,336,35557,6,0,B|152:368|56:304,1,200,4|0
16,112,36700,2,0,B|120:80|216:144,1,200
408,144,37843,5,0
264,176,38272,2,0,B|248:128|272:72,2,99.9999999999999
112,160,39272,6,0,B|112:216|152:264,1,99.9999999999999
208,336,39843,1,0
304,320,40129,6,0,B|424:296|456:176,2,200,4|0|0
256,120,41843,1,0
208,312,42414,6,0,B|88:288|56:168,2,200,4|0|0
256,120,44129,2,0,B|256:224,1,99.9999999999999
256,320,44700,5,0
408,192,45272,1,0
256,56,45843,1,0
160,72,46129,2,0,B|80:152|128:264,1,200,8|8
200,328,46986,1,0
80,120,48272,6,0,B|80:176,1,50,0|8
176,200,48700,2,0,B|176:152,1,50,0|8
256,88,49129,1,0
432,264,50557,6,0,B|432:208,1,50,0|8
336,184,50986,2,0,B|336:232,1,50,0|8
256,296,51414,1,0
128,64,59557,6,0,B|48:136|80:264,2,200,2|2|2
256,216,61272,1,2
448,160,61843,6,0,B|416:48|296:8,2,200,2|2|2
336,328,63557,2,0,B|238:296|206:184,1,200,2|2
352,48,64700,5,2
448,224,65272,1,8
336,328,65700,2,0,B|216:328,1,99.9999999999999,8|0
184,328,66129,2,0,B|72:328,1,99.9999999999999
64,128,66986,1,0
256,64,67557,6,0,B|368:48|440:152,2,200,4|0|0
256,264,69272,1,0
256,64,69843,6,0,B|144:48|72:152,2,200,4|0|0
256,264,71557,1,0
440,344,72129,6,0,B|496:256|464:144,2,200,4|0|0
256,264,73843,1,0
72,344,74414,6,0,B|16:256|48:144,2,200,4|0|0
256,264,76129,1,0
256,64,76700,5,4
96,192,77271,1,0
256,312,77843,1,0
416,192,78414,2,0,B|312:192,1,99.9999999999999
216,192,78986,5,4
392,96,79557,1,0
448,288,80129,1,0
392,96,80700,2,0,B|288:96,1,99.9999999999999
200,56,81271,5,0
24,144,81843,1,0
128,312,82414,1,0
216,352,82700,2,0,B|320:384|416:312,1,200,8|8
480,248,83557,1,0
80,120,84843,6,0,B|80:176,1,50,0|8
176,200,85271,2,0,B|176:152,1,50,0|8
256,88,85700,1,0
432,264,87129,6,0,B|432:208,1,50,0|8
336,184,87557,2,0,B|336:232,1,50,0|8
256,296,87986,1,0
80,214,89414,6,0,B|80:264,1,50,0|8
176,232,89843,2,0,B|176:182,1,50,0|8
256,120,90271,1,0
432,120,91700,6,0,B|432:176,1,50,0|8
336,200,92129,2,0,B|336:152,1,50,0|8
256,88,92557,6,0,B|240:136|272:184|256:272,1,175
160,328,93843,6,0,B|112:328,1,50,8|0
48,248,94271,2,0,B|16:184|40:96,1,150,8|8
120,40,94986,6,0,B|336:40,2,200,4|0|0
256,192,96700,1,0
392,344,97271,6,0,B|176:344,2,200,4|0|0
256,192,98986,1,0
96,320,99557,6,0,B|96:120,2,200,4|0|0
256,192,101271,1,0
416,64,101843,2,0,B|416:264,2,200,4|0|0
256,192,104129,12,0,105379
