osu file format v13

[General]
AudioFilename: Our Stolen Theory-United (L.A.O.S Remix) [Full] (www.myfree.cc).mp3
AudioLeadIn: 0
PreviewTime: 147345
Countdown: 0
SampleSet: Normal
StackLeniency: 0.7
Mode: 0
LetterboxInBreaks: 0
EpilepsyWarning: 1
WidescreenStoryboard: 1

[Editor]
Bookmarks: 48606,54100,59242,77414,81528,114434,124034,125406,169300,180271,191234,210442,212832,232377,235120,255700,257071,298214,300957,322900
DistanceSpacing: 1.4
BeatDivisor: 4
GridSize: 4
TimelineZoom: 1.299999

[Metadata]
Title:United (L.A.O.S Remix)
TitleUnicode:United (L.A.O.S Remix)
Artist:Our Stolen Theory
ArtistUnicode:Our Stolen Theory
Creator:Asphyxia
Version:Infinity
Source:
Tags:drum and bass dnb marathon Xgor
BeatmapID:550235
BeatmapSetID:237768

[Difficulty]
HPDrainRate:6
CircleSize:4
OverallDifficulty:9
ApproachRate:9.2
SliderMultiplier:1.9
SliderTickRate:1

[Events]
//Background and Video events
0,0,"wallpaper-1322673.jpg",0,0
//Break Periods
2,169487,179689
//Storyboard Layer 0 (Background)
//Storyboard Layer 1 (Fail)
//Storyboard Layer 2 (Pass)
//Storyboard Layer 3 (Foreground)
//Storyboard Sound Samples

[TimingPoints]
15688,342.857142857143,4,2,0,70,1,0
15688,-125,4,2,0,70,0,0
37630,-100,4,2,1,70,0,0
54088,-100,4,2,4,50,0,0
59230,-100,4,1,1,50,0,0
59573,-100,4,2,2,80,0,0
77402,-100,4,1,1,60,0,0
80830,-100,4,1,1,65,0,0
81516,-100,4,1,1,70,0,1
102088,-100,4,2,4,70,0,1
103459,-100,4,2,2,80,0,0
124030,-100,4,1,1,60,0,0
125402,-100,4,1,1,60,0,0
143230,-100,4,1,1,60,0,0
145973,-100,4,2,4,60,0,0
146659,-100,4,2,4,65,0,0
147345,-100,4,1,1,70,0,1
167916,-100,4,2,4,70,0,1
169288,-100,4,1,1,80,0,0
180259,-166.666666666667,4,2,0,70,0,0
191230,-125,4,2,3,75,0,0
210430,-100,4,1,1,60,0,0
213173,-100,4,1,1,60,0,0
233745,-100,4,2,4,60,0,0
235116,-100,4,1,1,60,0,0
252945,-100,4,1,1,60,0,0
255688,-100,4,2,4,60,0,0
257059,-83.3333333333333,4,1,1,70,0,1
277630,-83.3333333333333,4,2,4,70,0,0
279002,-100,4,2,4,80,0,0
298202,-100,4,1,1,60,0,0
299573,-100,4,2,4,60,0,0
300945,-100,4,2,4,80,0,0
318773,-100,4,1,1,60,0,0
321516,-100,4,2,4,60,0,0
322888,-100,4,2,0,80,0,0
327002,-100,4,2,0,60,0,0
328373,-100,4,2,0,40,0,0
329402,-100,4,2,0,20,0,0
329745,-100,4,2,0,15,0,0
330430,-100,4,2,0,10,0,0
331116,-100,4,2,0,5,0,0

[Colours]
Combo1 : 247,157,157
Combo2 : 224,177,252
Combo3 : 251,217,153
Combo4 : 131,180,252

[HitObjects]
152,140,15686,5,2,0:0:0:0:
216,76,15859,1,0,0:0:0:0:
256,160,16030,1,0,0:0:0:0:
296,244,16202,2,0,L|376:256,1,76,2|0,0:0|0:0,0:0:0:0:
260,144,16545,1,0,0:0:0:0:
200,288,16716,2,0,L|120:300,1,76,2|0,0:0|0:0,0:0:0:0:
264,124,17059,5,0,0:0:0:0:
204,56,17230,2,0,P|160:64|128:84,2,76,2|0|0,0:0|0:0|0:0,0:0:0:0:
348,184,17745,2,0,P|381:201|418:207,1,76,2|0,0:0|0:0,0:0:0:0:
264,124,18088,1,0,0:0:0:0:
236,212,18259,1,2,0:0:0:0:
188,316,18430,5,2,0:0:0:0:
116,260,18602,1,0,0:0:0:0:
48,200,18773,1,0,0:0:0:0:
20,288,18945,2,0,L|0:368,1,76,2|0,0:0|0:0,0:0:0:0:
44,176,19288,1,0,0:0:0:0:
128,208,19459,2,0,P|168:212|208:192,1,76,2|0,0:0|0:0,0:0:0:0:
356,88,19802,5,0,0:0:0:0:
416,156,19973,2,0,L|496:164,1,76,2|0,0:0|0:0,0:0:0:0:
364,100,20316,1,0,0:0:0:0:
424,168,20487,2,0,L|504:176,1,76,2|0,0:0|0:0,0:0:0:0:
336,294,20830,1,0,0:0:0:0:
276,236,21002,1,2,0:0:0:0:
210,363,21173,5,0,0:0:0:0:
302,373,21345,1,0,0:0:0:0:
194,277,21516,1,0,0:0:0:0:
124,336,21688,1,2,0:0:0:0:
92,252,21859,1,0,0:0:0:0:
160,192,22030,1,0,0:0:0:0:
56,168,22202,2,0,L|-24:184,1,76,2|0,0:0|0:0,0:0:0:0:
172,40,22545,5,0,0:0:0:0:
216,120,22716,2,0,P|256:132|296:124,1,76,2|0,0:0|0:0,0:0:0:0:
476,240,23059,1,0,0:0:0:0:
396,196,23230,2,0,P|358:191|322:202,1,76,2|0,0:0|0:0,0:0:0:0:
264,272,23573,1,0,0:0:0:0:
220,352,23745,1,2,0:0:0:0:
136,192,23916,5,0,0:0:0:0:
172,276,24088,1,0,0:0:0:0:
324,140,24259,1,0,0:0:0:0:
236,156,24430,2,0,L|156:140,1,76,2|0,0:0|0:0,0:0:0:0:
324,140,24773,1,0,0:0:0:0:
392,200,24945,2,0,L|466:214,1,76,2|0,0:0|0:0,0:0:0:0:
312,364,25288,5,0,0:0:0:0:
248,300,25459,2,0,P|236:256|244:212,1,76,2|0,0:0|0:0,0:0:0:0:
380,92,25802,1,0,0:0:0:0:
296,124,25973,2,0,P|244:128|148:72,1,152,2|0,0:0|0:0,0:0:0:0:
388,72,26488,1,2,0:0:0:0:
428,288,26659,5,4,0:0:0:0:
492,224,26830,1,0,0:0:0:0:
404,204,27002,1,0,0:0:0:0:
364,352,27173,2,0,P|328:364|284:360,1,76,2|0,0:0|0:0,0:0:0:0:
144,284,27516,1,0,0:0:0:0:
228,244,27688,2,0,L|312:256,1,76,2|0,0:0|0:0,0:0:0:0:
144,284,28030,5,0,0:0:0:0:
104,204,28202,2,0,L|28:193,1,76,2|0,0:0|0:0,0:0:0:0:
232,132,28545,1,0,0:0:0:0:
324,141,28716,2,0,P|364:145|408:121,1,76,2|0,0:0|0:0,0:0:0:0:
224,103,29059,1,0,0:0:0:0:
216,275,29230,1,2,0:0:0:0:
180,192,29402,5,0,0:0:0:0:
324,248,29573,1,0,0:0:0:0:
224,104,29745,1,0,0:0:0:0:
296,48,29916,2,0,L|400:64,1,76,2|0,0:0|0:0,0:0:0:0:
368,164,30259,1,0,0:0:0:0:
368,164,30430,2,0,L|472:180,1,76,2|0,0:0|0:0,0:0:0:0:
432,280,30773,5,0,0:0:0:0:
432,280,30945,2,0,L|536:296,1,76,2|0,0:0|0:0,0:0:0:0:
320,336,31288,1,0,0:0:0:0:
252,276,31459,2,0,P|240:236|256:192,1,76,2|0,0:0|0:0,0:0:0:0:
320,336,31802,1,0,0:0:0:0:
176,340,31973,2,0,L|80:328,1,76,2|0,0:0|0:0,0:0:0:0:
8,176,32316,5,0,0:0:0:0:
96,144,32488,1,0,0:0:0:0:
180,180,32659,2,0,P|200:220|205:268,1,76,2|0,0:0|0:0,0:0:0:0:
416,368,33002,1,0,0:0:0:0:
364,292,33173,2,0,P|371:247|395:205,1,76,2|0,0:0|0:0,0:0:0:0:
508,128,33516,5,0,0:0:0:0:
436,76,33688,2,0,P|412:40|408:4,1,76,2|0,0:0|0:0,0:0:0:0:
328,112,34030,1,0,0:0:0:0:
328,112,34202,2,0,L|320:276,1,152,2|0,0:0|0:0,0:0:0:0:
304,352,34716,1,2,0:0:0:0:
224,204,34888,5,0,0:0:0:0:
128,336,35059,1,0,0:0:0:0:
228,188,35230,1,0,0:0:0:0:
304,352,35402,1,2,0:0:0:0:
232,168,35573,1,0,0:0:0:0:
220,308,35745,1,0,0:0:0:0:
256,192,35916,12,0,37288,0:0:0:0:
132,72,37630,5,4,0:0:0:0:
220,32,37802,1,0,0:0:0:0:
212,128,37973,1,8,0:0:0:0:
344,268,38145,1,0,0:0:0:0:
340,244,38230,1,0,0:0:0:0:
336,220,38316,1,0,0:0:0:0:
332,196,38402,1,0,0:0:0:0:
328,172,38488,1,0,0:0:0:0:
436,276,38659,2,0,P|420:324|380:352,1,95,8|0,0:0|0:0,0:0:0:0:
224,312,39002,5,0,0:0:0:0:
140,352,39173,1,0,0:0:0:0:
84,276,39345,1,8,0:0:0:0:
200,112,39516,1,0,0:0:0:0:
168,96,39602,1,0,0:0:0:0:
132,92,39688,1,0,0:0:0:0:
96,100,39773,1,0,0:0:0:0:
68,124,39859,1,0,0:0:0:0:
276,232,40030,2,0,L|372:224,1,95,8|0,0:0|0:0,0:0:0:0:
308,104,40373,5,0,0:0:0:0:
180,216,40545,1,0,0:0:0:0:
128,136,40716,1,8,0:0:0:0:
292,200,40888,1,0,0:0:0:0:
304,236,40973,1,0,0:0:0:0:
316,272,41059,1,0,0:0:0:0:
328,308,41145,1,0,0:0:0:0:
340,344,41230,1,0,0:0:0:0:
424,192,41402,1,8,0:0:0:0:
232,124,41573,1,0,0:0:0:0:
320,92,41745,6,0,P|340:48|336:-8,2,95,0|0|8,0:0|0:0|0:0,0:0:0:0:
232,124,42259,1,0,0:0:0:0:
220,160,42345,1,0,0:0:0:0:
220,196,42430,1,0,0:0:0:0:
228,232,42516,1,0,0:0:0:0:
244,268,42602,2,0,P|244:320|224:364,1,95,0|8,0:0|0:0,0:0:0:0:
104,196,42945,1,0,0:0:0:0:
184,144,43116,6,0,L|288:156,1,95
72,44,43459,1,8,0:0:0:0:
24,252,43630,1,0,0:0:0:0:
52,280,43716,1,0,0:0:0:0:
88,292,43802,1,0,0:0:0:0:
128,292,43888,1,0,0:0:0:0:
160,276,43973,1,0,0:0:0:0:
272,152,44145,2,0,L|296:248,1,95,8|0,0:0|0:0,0:0:0:0:
268,36,44488,5,0,0:0:0:0:
160,200,44659,1,0,0:0:0:0:
392,176,44830,1,8,0:0:0:0:
304,216,45002,1,0,0:0:0:0:
300,240,45088,1,0,0:0:0:0:
296,264,45173,1,0,0:0:0:0:
292,288,45259,1,0,0:0:0:0:
288,312,45345,1,0,0:0:0:0:
496,160,45516,2,0,P|480:112|428:80,1,95,8|0,0:0|0:0,0:0:0:0:
224,336,45859,6,0,L|424:316,1,190,0|8,0:0|0:0,0:0:0:0:
184,192,46373,1,0,0:0:0:0:
156,220,46459,1,0,0:0:0:0:
120,233,46545,1,0,0:0:0:0:
82,235,46630,1,0,0:0:0:0:
46,220,46716,1,0,0:0:0:0:
248,76,46888,1,8,0:0:0:0:
272,264,47059,1,0,0:0:0:0:
328,20,47230,5,0,0:0:0:0:
176,136,47402,1,0,0:0:0:0:
392,204,47573,1,8,0:0:0:0:
160,52,47745,1,0,0:0:0:0:
136,48,47830,1,0,0:0:0:0:
112,44,47916,1,0,0:0:0:0:
88,40,48002,1,0,0:0:0:0:
64,36,48088,1,0,0:0:0:0:
272,164,48259,2,0,P|308:168|364:148,1,95,8|0,0:0|0:0,0:0:0:0:
184,28,48602,6,0,L|160:224,1,190,4|8,0:0|0:0,0:0:0:0:
276,360,49116,1,0,0:0:0:0:
276,360,49202,1,0,0:0:0:0:
276,360,49288,1,0,0:0:0:0:
240,208,49459,1,0,0:0:0:0:
400,272,49630,2,0,L|504:260,1,95,8|0,0:0|0:0,0:0:0:0:
368,208,49888,1,0,0:0:0:0:
368,208,49973,6,0,L|273:218,1,95
416,96,50316,2,0,L|520:84,1,95,8|0,0:0|0:0,0:0:0:0:
510,85,50573,1,0,0:0:0:0:
510,85,50659,1,0,0:0:0:0:
264,24,50830,1,0,0:0:0:0:
212,104,51002,2,0,P|168:128|116:128,1,95,8|0,0:0|0:0,0:0:0:0:
264,160,51259,1,0,0:0:0:0:
264,160,51345,6,0,L|284:268,1,95,0|0,0:0|0:0,0:0:0:0:
312,344,51688,1,8,0:0:0:0:
360,140,51859,1,0,0:0:0:0:
392,124,51945,1,0,0:0:0:0:
428,120,52030,1,0,0:0:0:0:
464,124,52116,1,0,0:0:0:0:
496,140,52202,1,0,0:0:0:0:
248,272,52373,2,0,P|196:280|152:264,1,95,8|0,0:0|0:0,0:0:0:0:
312,216,52630,1,0,0:0:0:0:
312,216,52716,6,0,L|424:208,1,95,0|0,0:0|0:0,0:0:0:0:
216,124,53059,1,8,0:0:0:0:
328,300,53230,1,0,0:0:0:0:
328,300,53316,1,0,0:0:0:0:
328,300,53402,1,0,0:0:0:0:
360,148,53573,1,0,0:0:0:0:
124,304,53745,1,8,0:0:0:0:
60,232,53916,1,0,0:0:0:0:
216,124,54088,6,0,P|208:80|192:56,3,47.5,2|0|0|0,1:2|1:0|1:0|1:0,0:0:0:0:
216,224,54430,2,0,P|224:268|240:292,3,47.5,10|0|2|0,1:2|1:0|1:2|1:0,0:0:0:0:
312,180,54773,2,0,P|350:158|368:135,3,47.5,0|0|2|0,1:0|1:0|1:2|1:0,0:0:0:0:
124,180,55116,2,0,P|85:201|67:224,3,47.5,10|0|0|0,1:2|1:0|1:0|1:0,0:3:0:0:
216,124,55459,5,0,1:0:0:0:
240,128,55545,1,0,1:0:0:0:
264,128,55630,1,2,1:2:0:0:
288,124,55716,1,0,1:0:0:0:
312,116,55802,1,8,1:2:0:0:
328,144,55888,1,0,1:0:0:0:
344,172,55973,1,0,1:0:0:0:
360,200,56059,1,0,1:0:0:0:
376,228,56145,5,2,1:2:0:0:
356,272,56230,1,0,1:0:0:0:
361,319,56316,1,2,1:2:0:0:
393,353,56402,1,0,1:0:0:0:
439,364,56488,1,8,1:2:0:0:
483,348,56573,1,0,1:0:0:0:
509,308,56659,1,2,1:2:0:0:
506,260,56745,1,0,1:0:0:0:
480,220,56830,5,0,1:0:0:0:
448,172,56916,1,0,1:0:0:0:
440,116,57002,1,2,1:2:0:0:
452,60,57088,1,0,1:0:0:0:
488,20,57173,1,8,1:2:0:0:
436,44,57259,1,0,1:0:0:0:
380,56,57345,1,0,1:0:0:0:
324,48,57430,1,0,1:0:0:0:
276,20,57516,1,2,1:2:0:0:
256,72,57602,1,0,1:0:0:0:
204,100,57688,1,0,1:0:0:0:
148,100,57773,1,0,1:0:0:0:
96,80,57859,1,8,1:2:0:0:
47,46,57945,1,0,1:0:0:0:
1,81,58030,1,2,1:2:0:0:
21,136,58116,1,0,1:0:0:0:
77,134,58202,6,0,P|88:168|92:208,1,47.5,4|0,1:2|1:0,0:0:0:0:
192,288,58373,1,0,1:0:0:0:
192,288,58459,1,0,1:0:0:0:
192,288,58545,2,0,P|197:264|205:242,1,47.5,4|0,1:2|1:0,0:0:0:0:
336,168,58716,1,0,1:0:0:0:
336,168,58802,1,0,1:0:0:0:
336,168,58888,2,0,P|347:202|351:242,1,47.5,6|0,1:2|1:0,0:0:0:0:
396,336,59059,1,0,1:0:0:0:
452,348,59145,1,0,1:0:0:0:
504,328,59230,5,4,0:0:0:0:
352,44,59573,6,0,P|340:96|356:156,1,95,4|0,0:0|0:0,0:0:0:0:
420,224,59916,1,8,0:0:0:0:
235,322,60088,1,0,0:0:0:0:
235,322,60173,1,0,0:0:0:0:
235,322,60259,2,0,L|143:302,1,95,0|0,0:0|0:0,0:0:0:0:
336,143,60602,1,8,0:0:0:0:
368,344,60773,1,0,0:0:0:0:
368,344,60859,1,0,0:0:0:0:
368,344,60945,5,0,0:0:0:0:
223,200,61116,1,0,0:0:0:0:
384,64,61288,1,8,0:0:0:0:
456,152,61459,1,0,0:0:0:0:
456,152,61545,1,0,0:0:0:0:
456,152,61630,1,0,0:0:0:0:
292,292,61802,1,0,0:0:0:0:
348,192,61973,1,8,0:0:0:0:
136,100,62145,1,0,0:0:0:0:
136,100,62230,1,0,0:0:0:0:
136,100,62316,6,0,P|103:133|115:275,1,190,0|8,0:0|0:0,0:0:0:0:
252,344,62830,1,0,0:0:0:0:
252,344,62916,1,0,0:0:0:0:
252,344,63002,1,0,0:0:0:0:
380,240,63173,1,0,0:0:0:0:
200,196,63345,1,8,0:0:0:0:
260,56,63516,2,0,L|280:160,1,95,0|0,0:0|0:0,0:0:0:0:
312,256,63859,5,0,0:0:0:0:
396,88,64030,1,8,0:0:0:0:
232,240,64202,1,0,0:0:0:0:
232,240,64288,1,0,0:0:0:0:
232,240,64373,2,0,P|184:264|140:272,1,95,0|0,0:0|0:0,0:0:0:0:
268,36,64716,1,8,0:0:0:0:
316,320,64888,1,0,0:0:0:0:
316,320,64973,1,0,0:0:0:0:
316,320,65059,6,0,B|408:288|408:344|508:312,1,190,0|8,0:0|0:0,0:0:0:0:
348,200,65573,1,0,0:0:0:0:
240,244,65745,2,0,P|213:286|209:332,1,95
348,200,66088,1,8,0:0:0:0:
152,188,66259,2,0,L|52:204,1,95
252,44,66602,5,0,0:0:0:0:
320,288,66773,1,8,0:0:0:0:
380,120,66945,1,0,0:0:0:0:
380,120,67030,1,0,0:0:0:0:
380,120,67116,1,0,0:0:0:0:
164,200,67288,1,0,0:0:0:0:
252,128,67459,1,8,0:0:0:0:
328,308,67630,1,0,0:0:0:0:
328,308,67716,1,0,0:0:0:0:
328,308,67802,6,0,L|421:292,1,95,0|0,0:0|0:0,0:0:0:0:
248,112,68145,1,8,0:0:0:0:
188,208,68316,2,0,P|144:240|4:232,1,190,0|0,0:0|0:0,0:0:0:0:
344,160,68830,1,8,0:0:0:0:
272,288,69002,1,0,0:0:0:0:
272,288,69088,1,0,0:0:0:0:
272,288,69173,6,0,P|229:323|187:339,1,95,0|0,0:0|0:0,0:0:0:0:
80,328,69516,1,8,0:0:0:0:
200,108,69688,1,0,0:0:0:0:
244,212,69859,1,0,0:0:0:0:
320,128,70030,1,0,0:0:0:0:
231,21,70202,1,8,0:0:0:0:
184,8,70288,1,0,0:0:0:0:
136,8,70373,1,0,0:0:0:0:
92,24,70459,1,0,0:0:0:0:
60,60,70545,5,4,0:2:0:0:
204,268,70716,1,0,0:0:0:0:
100,312,70888,2,0,L|0:300,1,95,8|0,0:0|0:0,0:0:0:0:
5,300,71145,1,0,0:0:0:0:
5,300,71230,1,0,0:0:0:0:
188,168,71402,1,0,0:0:0:0:
284,232,71573,2,0,P|332:236|388:216,1,95,8|0,0:0|0:0,0:0:0:0:
512,44,71916,6,0,P|464:39|419:53,1,95,0|0,0:0|0:0,0:0:0:0:
344,140,72259,1,8,0:0:0:0:
196,24,72430,1,0,0:0:0:0:
196,24,72516,1,0,0:0:0:0:
196,24,72602,1,0,0:0:0:0:
37,227,72773,2,0,L|132:216,1,95,0|8,0:0|0:0,0:0:0:0:
364,252,73116,1,0,0:0:0:0:
364,252,73202,1,0,0:0:0:0:
364,252,73288,6,0,P|308:260|260:244,1,95
228,144,73630,1,8,0:0:0:0:
184,304,73802,1,0,0:0:0:0:
180,332,73888,1,0,0:0:0:0:
176,360,73973,1,0,0:0:0:0:
312,204,74145,1,0,0:0:0:0:
112,52,74316,1,8,0:0:0:0:
312,88,74488,1,0,0:0:0:0:
312,88,74573,1,0,0:0:0:0:
312,88,74659,6,0,P|360:92|420:68,1,95,0|0,0:0|0:0,0:0:0:0:
220,248,75002,1,8,0:0:0:0:
112,284,75173,1,0,0:0:0:0:
112,284,75259,1,0,0:0:0:0:
112,284,75345,2,0,P|64:288|4:264,2,95,0|0|8,0:0|0:0|0:0,0:0:0:0:
300,176,75859,1,0,0:0:0:0:
300,176,75945,1,0,0:0:0:0:
300,176,76030,6,0,L|288:280,1,95,0|0,0:0|0:0,0:0:0:0:
412,136,76373,1,8,0:0:0:0:
200,32,76545,1,0,0:0:0:0:
200,32,76630,1,0,0:0:0:0:
200,32,76716,2,0,L|210:126,1,95,0|0,0:0|0:0,0:0:0:0:
248,288,77059,1,8,0:0:0:0:
148,232,77230,1,0,0:0:0:0:
148,232,77316,1,0,0:0:0:0:
148,232,77402,6,0,L|84:252,3,47.5,0|0|2|0,0:0|0:0|0:2|0:0,0:0:0:0:
232,172,77745,2,0,L|296:192,3,47.5,8|0|0|0,0:0|0:0|0:0|0:0,0:0:0:0:
108,132,78088,2,0,L|44:152,3,47.5,2|2|2|0,0:2|0:2|0:2|0:0,0:0:0:0:
192,72,78430,2,0,L|256:92,3,47.5,8|0|2|0,0:0|0:0|0:2|0:0,0:0:0:0:
353,107,78773,5,0,0:0:0:0:
380,68,78859,1,0,0:0:0:0:
426,59,78945,1,2,0:2:0:0:
465,85,79030,1,0,0:0:0:0:
475,131,79116,1,0,0:0:0:0:
448,170,79202,1,0,0:0:0:0:
402,180,79288,1,0,0:0:0:0:
362,154,79373,1,0,0:0:0:0:
352,200,79459,5,2,0:2:0:0:
316,232,79545,1,0,0:0:0:0:
272,244,79630,1,0,0:0:0:0:
224,240,79716,1,0,0:0:0:0:
176,228,79802,1,0,0:0:0:0:
128,224,79888,1,0,0:0:0:0:
80,228,79973,1,2,0:2:0:0:
44,260,80059,1,0,0:0:0:0:
36,308,80145,1,0,0:0:0:0:
64,344,80230,1,0,0:0:0:0:
112,352,80316,1,2,0:2:0:0:
152,328,80402,1,0,0:0:0:0:
164,284,80488,1,8,0:0:0:0:
152,240,80573,1,0,0:0:0:0:
124,204,80659,1,0,0:0:0:0:
104,160,80745,1,0,0:0:0:0:
100,112,80830,5,2,0:2:0:0:
128,60,80916,1,0,0:0:0:0:
184,40,81002,1,0,0:0:0:0:
240,52,81088,1,0,0:0:0:0:
276,96,81173,1,8,0:0:0:0:
284,152,81259,1,0,0:0:0:0:
316,200,81345,1,2,0:2:0:0:
368,216,81430,1,0,0:0:0:0:
424,204,81516,5,4,0:0:0:0:
496,116,81688,1,2,0:2:0:0:
324,48,81859,1,8,0:0:0:0:
248,280,82030,1,2,0:2:0:0:
248,280,82116,1,0,0:0:0:0:
248,280,82202,2,0,L|176:288,1,47.5,0|0,0:0|0:0,0:0:0:0:
36,244,82373,2,0,L|83:238,1,47.5,2|0,0:2|0:0,0:0:0:0:
184,128,82545,2,0,L|112:136,1,47.5,8|0,0:0|0:0,0:0:0:0:
288,28,82716,1,2,0:2:0:0:
352,192,82888,5,0,0:0:0:0:
360,212,82973,1,0,0:0:0:0:
368,232,83059,1,2,0:2:0:0:
376,252,83145,1,0,0:0:0:0:
384,276,83230,2,0,L|488:296,1,95,8|0,0:0|0:0,0:0:0:0:
160,188,83573,2,0,L|56:208,1,95,2|2,0:2|0:2,0:0:0:0:
324,56,83916,2,0,L|417:73,1,95,8|2,0:0|0:2,0:0:0:0:
292,280,84259,5,0,0:0:0:0:
248,156,84430,1,2,0:2:0:0:
152,348,84602,1,8,0:0:0:0:
252,136,84773,1,2,0:2:0:0:
132,40,84945,2,0,P|88:32|68:20,1,47.5,0|0,0:0|0:0,0:0:0:0:
192,136,85116,2,0,P|149:151|126:150,1,47.5,2|0,0:2|0:0,0:0:0:0:
296,200,85288,2,0,P|267:234|246:245,1,47.5,8|0,0:0|0:0,0:0:0:0:
364,124,85459,1,2,0:2:0:0:
424,292,85630,5,0,0:0:0:0:
424,292,85716,1,0,0:0:0:0:
424,292,85802,1,2,0:2:0:0:
424,292,85888,1,0,0:0:0:0:
424,292,85973,1,8,0:0:0:0:
256,352,86145,1,0,0:0:0:0:
372,108,86316,1,2,0:2:0:0:
256,352,86488,1,2,0:2:0:0:
80,168,86659,1,8,0:0:0:0:
140,52,86830,1,2,0:2:0:0:
192,268,87002,5,0,0:0:0:0:
300,48,87173,1,0,0:0:0:0:
388,148,87345,2,0,L|504:136,1,95,8|2,0:0|0:2,0:0:0:0:
380,260,87688,2,0,L|316:268,1,47.5
188,200,87859,2,0,L|235:194,1,47.5,2|0,0:2|0:0,0:0:0:0:
92,144,88030,2,0,L|28:152,1,47.5,8|0,0:0|0:0,0:0:0:0:
192,40,88202,1,2,0:2:0:0:
288,252,88373,5,0,0:0:0:0:
332,264,88459,1,0,0:0:0:0:
380,260,88545,1,2,0:2:0:0:
420,236,88630,1,0,0:0:0:0:
452,200,88716,1,8,0:0:0:0:
184,104,88888,1,0,0:0:0:0:
184,104,88973,1,0,0:0:0:0:
184,104,89059,2,0,L|168:216,1,95,2|0,0:2|0:0,0:0:0:0:
360,96,89402,2,0,L|373:1,1,95,8|2,0:0|0:2,0:0:0:0:
232,272,89745,6,0,P|277:323|416:325,1,190,0|8,0:0|0:0,0:0:0:0:
144,140,90259,1,2,0:2:0:0:
144,140,90345,1,0,0:0:0:0:
144,140,90430,2,0,P|140:188|132:208,1,47.5,2|0,0:2|0:0,0:0:0:0:
288,264,90602,2,0,P|277:242|270:220,1,47.5
180,56,90773,2,0,P|203:53|226:46,1,47.5,8|0,0:0|0:0,0:0:0:0:
344,8,90945,1,2,0:2:0:0:
351,190,91116,5,0,0:0:0:0:
368,208,91202,1,0,0:0:0:0:
385,224,91288,1,2,0:2:0:0:
403,242,91373,1,0,0:0:0:0:
420,258,91459,2,0,L|520:244,1,95,8|2,0:0|0:2,0:0:0:0:
180,176,91802,2,0,L|85:162,1,95,0|2,0:0|0:2,0:0:0:0:
352,24,92145,2,0,L|452:10,1,95,8|2,0:0|0:2,0:0:0:0:
244,244,92488,6,0,P|209:265|144:264,1,95,4|2,0:0|0:2,0:0:0:0:
356,112,92830,2,0,L|344:212,1,95,8|2,0:0|0:2,0:0:0:0:
388,312,93173,2,0,P|428:328|452:328,1,47.5,0|0,0:0|0:0,0:0:0:0:
284,272,93345,2,0,P|260:277|240:288,1,47.5,2|0,0:2|0:0,0:0:0:0:
440,212,93516,2,0,P|482:208|504:197,1,47.5,8|0,0:0|0:0,0:0:0:0:
452,120,93688,1,2,0:2:0:0:
240,8,93859,5,0,0:0:0:0:
228,52,93945,1,0,0:0:0:0:
196,84,94030,1,2,0:2:0:0:
152,96,94116,1,0,0:0:0:0:
104,88,94202,1,8,0:0:0:0:
4,236,94373,1,0,0:0:0:0:
4,236,94459,1,0,0:0:0:0:
4,236,94545,1,2,0:2:0:0:
136,348,94716,1,2,0:2:0:0:
328,84,94888,1,8,0:0:0:0:
260,204,95059,1,2,0:2:0:0:
260,204,95145,1,0,0:0:0:0:
260,204,95230,6,0,L|280:308,1,95,0|2,0:0|0:2,0:0:0:0:
512,184,95573,2,0,P|460:172|428:140,1,95,8|0,0:0|0:0,0:0:0:0:
336,32,95916,2,0,P|308:44|276:48,1,47.5,0|0,0:0|0:0,0:0:0:0:
136,96,96088,2,0,P|164:108|196:112,1,47.5,2|0,0:2|0:0,0:0:0:0:
336,192,96259,2,0,P|308:204|276:208,1,47.5,8|0,0:0|0:0,0:0:0:0:
168,200,96430,1,2,0:2:0:0:
344,340,96602,5,0,0:0:0:0:
364,296,96688,1,0,0:0:0:0:
404,272,96773,1,2,0:2:0:0:
452,268,96859,1,0,0:0:0:0:
496,288,96945,2,0,P|460:248|448:192,1,95,8|0,0:0|0:0,0:0:0:0:
320,40,97288,2,0,P|305:84|272:118,1,95,2|2,0:2|0:2,0:0:0:0:
40,296,97630,2,0,P|92:260|180:268,1,142.5,8|0,0:0|0:0,0:0:0:0:
272,332,97973,5,0,0:0:0:0:
364,180,98145,1,2,0:2:0:0:
494,219,98316,2,0,P|501:171|486:125,1,95,8|2,0:0|0:2,0:0:0:0:
340,44,98659,2,0,L|280:56,1,47.5,0|0,0:0|0:0,0:0:0:0:
176,152,98830,2,0,L|222:142,1,47.5,2|0,0:2|0:0,0:0:0:0:
340,56,99002,2,0,L|280:68,1,47.5,8|0,0:0|0:0,0:0:0:0:
100,184,99173,1,2,0:2:0:0:
240,268,99345,5,0,0:0:0:0:
260,280,99430,1,0,0:0:0:0:
280,296,99516,1,2,0:2:0:0:
296,312,99602,1,0,0:0:0:0:
308,332,99688,2,0,P|350:295|410:300,1,95,8|2,0:0|0:2,0:0:0:0:
252,156,100030,2,0,P|216:112|215:69,1,95,2|0,0:2|0:0,0:0:0:0:
128,236,100373,2,0,L|112:392,1,142.5,8|0,0:0|0:0,0:0:0:0:
52,264,100716,6,0,P|48:224|56:204,3,47.5,0|0|2|0,0:0|0:0|0:2|0:0,0:0:0:0:
112,136,101059,2,0,P|117:112|114:89,3,47.5,8|0|2|0,0:0|0:0|0:2|0:0,0:0:0:0:
208,20,101402,2,0,L|268:12,3,47.5,2|0|2|0,0:2|0:0|0:2|0:0,0:0:0:0:
360,104,101745,2,0,L|300:96,3,47.5,8|0|2|0,0:0|0:0|0:2|0:0,0:0:0:0:
208,132,102088,5,2,1:2:0:0:
228,176,102173,1,0,1:0:0:0:
240,220,102259,1,2,1:2:0:0:
232,268,102345,1,0,1:0:0:0:
216,312,102430,1,14,1:2:0:0:
232,356,102516,1,0,1:0:0:0:
272,380,102602,1,2,1:2:0:0:
320,380,102688,1,0,1:0:0:0:
360,352,102773,6,0,L|384:360,6,23.75,6|0|0|0|2|0|0,1:2|1:0|1:0|1:0|1:2|1:0|1:0,0:0:0:0:
332,272,103116,2,0,L|309:264,6,23.75,14|0|0|0|2|0|0,1:2|1:0|1:0|1:0|1:2|1:0|1:0,0:0:0:0:
432,224,103459,6,0,P|464:188|472:132,1,95,4|0,0:0|0:0,0:0:0:0:
424,40,103802,1,8,0:0:0:0:
252,96,103973,1,0,0:0:0:0:
232,104,104059,1,0,0:0:0:0:
212,112,104145,1,0,0:0:0:0:
192,120,104230,1,0,0:0:0:0:
172,128,104316,2,0,L|72:108,1,95,0|8,0:0|0:0,0:0:0:0:
224,320,104659,1,0,0:0:0:0:
224,320,104745,1,0,0:0:0:0:
224,320,104830,6,0,P|280:320|320:296,1,95
424,108,105173,1,8,0:0:0:0:
468,212,105345,1,0,0:0:0:0:
468,212,105430,1,0,0:0:0:0:
468,212,105516,1,0,0:0:0:0:
468,212,105602,1,0,0:0:0:0:
468,212,105688,1,0,0:0:0:0:
300,76,105859,2,0,P|322:30|357:-1,1,95,8|0,0:0|0:0,0:0:0:0:
328,200,106202,6,0,L|208:184,1,95,0|0,0:0|0:0,0:0:0:0:
56,136,106545,1,8,0:0:0:0:
24,336,106716,1,0,0:0:0:0:
24,336,106802,1,0,0:0:0:0:
24,336,106888,2,0,P|68:340|116:312,1,95
200,128,107230,1,8,0:0:0:0:
128,36,107402,1,0,0:0:0:0:
128,36,107488,1,0,0:0:0:0:
128,36,107573,5,0,0:0:0:0:
328,108,107745,1,0,0:0:0:0:
288,216,107916,2,0,L|276:328,1,95,8|0,0:0|0:0,0:0:0:0:
296,344,108173,1,0,0:0:0:0:
328,364,108259,1,0,0:0:0:0:
364,368,108345,1,0,0:0:0:0:
400,360,108430,1,0,0:0:0:0:
508,140,108602,2,0,P|460:144|412:168,1,95,8|0,0:0|0:0,0:0:0:0:
104,200,108945,6,0,P|156:224|284:204,1,190,0|8,0:0|0:0,0:0:0:0:
372,32,109459,1,0,0:0:0:0:
384,52,109545,1,0,0:0:0:0:
396,72,109630,1,0,0:0:0:0:
408,92,109716,1,0,0:0:0:0:
420,112,109802,1,0,0:0:0:0:
324,320,109973,1,8,0:0:0:0:
252,148,110145,1,0,0:0:0:0:
252,148,110230,1,0,0:0:0:0:
252,148,110316,5,0,0:0:0:0:
460,200,110488,1,0,0:0:0:0:
192,272,110659,1,8,0:0:0:0:
176,28,110830,1,0,0:0:0:0:
176,28,110916,1,0,0:0:0:0:
176,28,111002,1,0,0:0:0:0:
80,168,111173,1,0,0:0:0:0:
340,132,111345,1,8,0:0:0:0:
316,244,111516,1,0,0:0:0:0:
316,244,111602,1,0,0:0:0:0:
316,244,111688,6,0,L|208:228,1,95,0|0,0:0|0:0,0:0:0:0:
416,348,112030,2,0,L|524:332,1,95,8|0,0:0|0:0,0:0:0:0:
248,92,112373,2,0,L|140:76,1,95,0|0,0:0|0:0,0:0:0:0:
376,20,112716,1,8,0:0:0:0:
424,252,112888,1,0,0:0:0:0:
424,252,112973,1,0,0:0:0:0:
424,252,113059,5,0,0:0:0:0:
486,118,113230,1,0,0:0:0:0:
277,239,113402,1,8,0:0:0:0:
368,140,113573,1,0,0:0:0:0:
328,112,113659,1,0,0:0:0:0:
280,104,113745,1,0,0:0:0:0:
228,112,113830,1,0,0:0:0:0:
188,136,113916,1,0,0:0:0:0:
144,276,114088,2,0,L|160:380,1,95,8|0,0:0|0:0,0:0:0:0:
304,176,114430,6,0,P|264:124|272:0,1,190,4|8,0:0|0:0,0:0:0:0:
432,244,114945,1,0,0:0:0:0:
404,284,115030,1,0,0:0:0:0:
364,312,115116,1,0,0:0:0:0:
316,324,115202,1,0,0:0:0:0:
268,320,115288,1,0,0:0:0:0:
116,168,115459,2,0,L|96:276,1,95,8|0,0:0|0:0,0:0:0:0:
212,40,115802,5,0,0:0:0:0:
276,132,115973,2,0,P|336:136|376:112,1,95,0|8,0:0|0:0,0:0:0:0:
204,228,116316,1,0,0:0:0:0:
160,206,116402,1,0,0:0:0:0:
111,206,116488,1,0,0:0:0:0:
65,221,116573,1,0,0:0:0:0:
30,255,116659,1,0,0:0:0:0:
284,108,116830,1,8,0:0:0:0:
316,328,117002,1,0,0:0:0:0:
316,328,117088,1,0,0:0:0:0:
316,328,117173,5,0,0:0:0:0:
420,212,117345,1,0,0:0:0:0:
168,140,117516,1,8,0:0:0:0:
284,48,117688,1,0,0:0:0:0:
292,72,117773,1,0,0:0:0:0:
300,96,117859,1,0,0:0:0:0:
308,120,117945,1,0,0:0:0:0:
316,140,118030,2,0,L|424:152,1,95,0|8,0:0|0:0,0:0:0:0:
140,272,118373,1,0,0:0:0:0:
140,272,118459,1,0,0:0:0:0:
140,272,118545,6,0,L|45:261,1,95
216,120,118888,1,8,0:0:0:0:
296,336,119059,2,0,P|376:352|476:288,1,190,0|0,0:0|0:0,0:0:0:0:
492,116,119573,1,8,0:0:0:0:
300,204,119745,1,0,0:0:0:0:
300,204,119830,1,0,0:0:0:0:
300,204,119916,6,0,L|280:104,1,95
200,268,120259,2,0,P|228:304|288:324,1,95,8|0,0:0|0:0,0:0:0:0:
320,324,120516,1,0,0:0:0:0:
364,308,120602,1,0,0:0:0:0:
400,276,120688,1,0,0:0:0:0:
416,232,120773,1,0,0:0:0:0:
144,160,120945,2,0,L|40:168,1,95,8|0,0:0|0:0,0:0:0:0:
192,52,121288,6,0,B|284:84|284:28|380:64,1,190,0|8,0:0|0:0,0:0:0:0:
504,280,121802,1,0,0:0:0:0:
456,268,121888,1,0,0:0:0:0:
412,256,121973,1,0,0:0:0:0:
364,244,122059,1,0,0:0:0:0:
316,232,122145,1,0,0:0:0:0:
152,176,122316,1,8,0:0:0:0:
88,348,122488,1,0,0:0:0:0:
88,348,122573,1,0,0:0:0:0:
88,348,122659,5,0,0:0:0:0:
16,180,122830,1,0,0:0:0:0:
244,20,123002,1,8,0:0:0:0:
220,276,123173,1,0,0:0:0:0:
76,96,123345,1,0,0:0:0:0:
336,56,123516,1,0,0:0:0:0:
104,244,123688,1,8,0:0:0:0:
256,112,123859,1,0,0:0:0:0:
376,264,124030,6,0,L|392:324,1,47.5,0|0,0:0|0:0,0:0:0:0:
432,176,124202,2,0,L|419:130,1,47.5,0|0,0:0|0:0,0:0:0:0:
371,278,124373,6,0,L|388:342,1,47.5,8|0,0:0|0:0,0:0:0:0:
440,164,124545,2,0,L|426:114,1,47.5,0|0,0:0|0:0,0:0:0:0:
364,296,124716,6,0,L|376:348,1,47.5
448,152,124888,2,0,L|437:105,1,47.5,0|0,0:0|0:0,0:0:0:0:
312,24,125059,5,8,0:0:0:0:
256,12,125145,1,0,0:0:0:0:
200,24,125230,1,0,0:0:0:0:
156,60,125316,1,0,0:0:0:0:
100,76,125402,6,0,L|-4:60,1,95,4|0,0:0|0:0,0:0:0:0:
224,256,125745,2,0,P|272:260|320:236,1,95,8|0,0:0|0:0,0:0:0:0:
352,216,126002,1,0,0:0:0:0:
376,256,126088,1,0,0:0:0:0:
400,296,126173,1,0,0:0:0:0:
424,336,126259,1,0,0:0:0:0:
460,144,126430,2,0,P|409:144|356:107,1,95,8|0,0:0|0:0,0:0:0:0:
220,20,126773,5,0,0:0:0:0:
184,196,126945,1,0,0:0:0:0:
36,104,127116,1,8,0:0:0:0:
136,320,127288,1,0,0:0:0:0:
148,300,127373,1,0,0:0:0:0:
160,280,127459,1,0,0:0:0:0:
172,260,127545,1,0,0:0:0:0:
184,240,127630,2,0,L|208:344,1,95,0|8,0:0|0:0,0:0:0:0:
252,52,127973,1,0,0:0:0:0:
252,52,128059,1,0,0:0:0:0:
252,52,128145,6,0,P|204:76|152:72,1,95
16,304,128488,1,8,0:0:0:0:
192,224,128659,1,0,0:0:0:0:
224,192,128745,1,0,0:0:0:0:
268,180,128830,1,0,0:0:0:0:
316,184,128916,1,0,0:0:0:0:
356,208,129002,1,0,0:0:0:0:
476,348,129173,2,0,L|496:244,1,95,8|0,0:0|0:0,0:0:0:0:
288,32,129516,6,0,P|276:88|368:216,1,190,0|8,0:0|0:0,0:0:0:0:
220,312,130030,1,0,0:0:0:0:
220,312,130116,1,0,0:0:0:0:
220,312,130202,2,0,P|216:348|204:368,2,47.5,0|0|0,0:0|0:0|0:0,0:0:0:0:
56,144,130545,2,0,P|116:164|188:136,1,142.5,8|0,0:0|0:0,0:0:0:0:
216,72,130888,6,0,L|200:208,1,95
336,340,131230,1,8,0:0:0:0:
440,176,131402,1,0,0:0:0:0:
452,196,131488,1,0,0:0:0:0:
464,216,131573,1,0,0:0:0:0:
476,236,131659,1,0,0:0:0:0:
488,256,131745,1,0,0:0:0:0:
296,124,131916,1,8,0:0:0:0:
216,276,132088,1,0,0:0:0:0:
216,276,132173,1,0,0:0:0:0:
216,276,132259,5,0,0:0:0:0:
392,88,132430,1,0,0:0:0:0:
140,52,132602,2,0,L|24:40,1,95,8|0,0:0|0:0,0:0:0:0:
48,68,132859,1,0,0:0:0:0:
52,92,132945,1,0,0:0:0:0:
56,116,133030,1,0,0:0:0:0:
60,140,133116,1,0,0:0:0:0:
288,334,133288,2,0,P|309:284|295:231,1,95,8|0,0:0|0:0,0:0:0:0:
208,368,133630,6,0,L|408:348,1,190,0|8,0:0|0:0,0:0:0:0:
508,84,134145,1,0,0:0:0:0:
464,64,134230,1,0,0:0:0:0:
416,56,134316,1,0,0:0:0:0:
368,60,134402,1,0,0:0:0:0:
324,76,134488,1,0,0:0:0:0:
216,212,134659,2,0,L|208:272,2,47.5,8|0|0,0:0|0:0|0:0,0:0:0:0:
344,288,135002,6,0,P|400:281|454:241,1,95,0|0,0:0|0:0,0:0:0:0:
216,96,135345,1,8,0:0:0:0:
416,56,135516,1,0,0:0:0:0:
416,56,135602,1,0,0:0:0:0:
416,56,135688,1,0,0:0:0:0:
440,296,135859,1,0,0:0:0:0:
440,296,135945,1,0,0:0:0:0:
440,296,136030,1,8,0:0:0:0:
208,188,136202,1,0,0:0:0:0:
208,188,136288,1,0,0:0:0:0:
208,188,136373,6,0,L|176:284,1,95,4|0,0:0|0:0,0:0:0:0:
396,136,136716,2,0,P|408:88|388:40,1,95,8|0,0:0|0:0,0:0:0:0:
352,20,136973,1,0,0:0:0:0:
304,8,137059,1,0,0:0:0:0:
256,20,137145,1,0,0:0:0:0:
220,48,137230,1,0,0:0:0:0:
0,272,137402,2,0,P|56:280|108:248,1,95,8|0,0:0|0:0,0:0:0:0:
208,152,137745,6,0,L|184:348,1,190,0|8,0:0|0:0,0:0:0:0:
260,40,138259,1,0,0:0:0:0:
272,88,138345,1,0,0:0:0:0:
284,132,138430,1,0,0:0:0:0:
296,180,138516,1,0,0:0:0:0:
308,228,138602,1,0,0:0:0:0:
420,72,138773,1,8,0:0:0:0:
188,8,138945,1,0,0:0:0:0:
272,288,139116,5,0,0:0:0:0:
384,152,139288,1,0,0:0:0:0:
384,152,139373,1,0,0:0:0:0:
384,152,139459,1,8,0:0:0:0:
472,312,139630,1,0,0:0:0:0:
208,216,139802,1,0,0:0:0:0:
420,72,139973,1,0,0:0:0:0:
140,152,140145,2,0,L|40:140,1,95,8|0,0:0|0:0,0:0:0:0:
192,336,140488,6,0,P|246:332|294:302,1,95,0|0,0:0|0:0,0:0:0:0:
384,188,140830,1,8,0:0:0:0:
460,276,141002,1,0,0:0:0:0:
460,276,141088,1,0,0:0:0:0:
460,276,141173,1,0,0:0:0:0:
492,56,141345,1,0,0:0:0:0:
272,40,141516,1,8,0:0:0:0:
248,260,141688,1,0,0:0:0:0:
248,260,141773,1,0,0:0:0:0:
248,260,141859,6,0,L|140:248,1,95
384,188,142202,1,8,0:0:0:0:
140,76,142373,1,0,0:0:0:0:
188,76,142459,1,0,0:0:0:0:
232,64,142545,1,0,0:0:0:0:
272,40,142630,1,0,0:0:0:0:
304,4,142716,1,0,0:0:0:0:
416,272,142888,2,0,L|400:368,1,95,8|0,0:0|0:0,0:0:0:0:
304,176,143230,6,0,L|288:120,3,47.5,0|0|2|0,0:0|0:0|0:2|0:0,0:0:0:0:
304,272,143573,2,0,L|290:317,3,47.5,8|0|2|0,0:0|0:0|0:2|0:0,0:0:0:0:
224,144,143916,2,0,L|208:88,3,47.5,0|0|2|0,0:0|0:0|0:2|0:0,0:0:0:0:
224,280,144259,2,0,L|210:325,3,47.5,8|0|2|0,0:0|0:0|0:2|0:0,0:0:0:0:
144,208,144602,5,0,0:0:0:0:
96,200,144688,1,0,0:0:0:0:
52,220,144773,1,2,0:2:0:0:
32,264,144859,1,0,0:0:0:0:
40,312,144945,1,8,0:0:0:0:
72,348,145030,1,0,0:0:0:0:
120,356,145116,1,2,0:2:0:0:
164,336,145202,1,0,0:0:0:0:
204,312,145288,1,0,0:0:0:0:
252,304,145373,1,0,0:0:0:0:
300,304,145459,1,2,0:2:0:0:
344,320,145545,1,0,0:0:0:0:
392,324,145630,1,8,0:0:0:0:
436,304,145716,1,0,0:0:0:0:
464,268,145802,1,2,0:2:0:0:
476,220,145888,1,0,0:0:0:0:
468,172,145973,6,0,L|456:112,1,47.5,2|0,1:2|1:0,0:0:0:0:
332,28,146145,2,0,L|341:74,1,47.5,2|0,1:2|1:0,0:0:0:0:
336,232,146316,6,0,L|324:172,1,47.5,14|0,1:2|1:0,0:0:0:0:
200,88,146488,2,0,L|209:134,1,47.5,2|0,1:2|1:0,0:0:0:0:
144,252,146659,6,0,L|148:288,6,23.75,6|0|0|0|2|0|0,1:2|1:0|1:0|1:0|1:2|1:0|1:0,0:0:0:0:
76,192,147002,2,0,L|73:168,6,23.75,14|0|0|0|2|0|0,1:2|1:0|1:0|1:0|1:2|1:0|1:0,0:0:0:0:
152,72,147345,5,4,0:0:0:0:
260,272,147516,1,2,0:2:0:0:
344,168,147688,1,8,0:0:0:0:
436,344,147859,1,2,0:2:0:0:
436,344,147945,1,0,0:0:0:0:
436,344,148030,2,0,L|492:356,1,47.5,0|0,0:0|0:0,0:0:0:0:
316,276,148202,2,0,L|260:288,1,47.5,2|0,0:2|0:0,0:0:0:0:
416,176,148373,2,0,L|472:188,1,47.5,8|0,0:0|0:0,0:0:0:0:
324,48,148545,1,2,0:2:0:0:
184,208,148716,5,0,0:0:0:0:
152,244,148802,1,0,0:0:0:0:
108,260,148888,1,2,0:2:0:0:
60,262,148973,1,0,0:0:0:0:
14,249,149059,1,8,0:0:0:0:
228,88,149230,1,2,0:2:0:0:
300,348,149402,1,2,0:2:0:0:
132,120,149573,1,0,0:0:0:0:
132,120,149659,1,0,0:0:0:0:
132,120,149745,1,8,0:0:0:0:
392,240,149916,1,2,0:2:0:0:
148,28,150088,6,0,L|40:48,1,95,0|2,0:0|0:2,0:0:0:0:
208,176,150430,1,8,0:0:0:0:
368,24,150602,1,2,0:2:0:0:
368,24,150688,1,0,0:0:0:0:
368,24,150773,2,0,P|416:16|432:20,1,47.5
264,100,150945,2,0,P|240:99|217:91,1,47.5,2|0,0:2|0:0,0:0:0:0:
392,156,151116,2,0,L|408:232,1,47.5,8|0,0:0|0:0,0:0:0:0:
452,336,151288,1,2,0:2:0:0:
264,176,151459,5,0,0:0:0:0:
249,211,151545,1,0,0:0:0:0:
222,236,151630,1,2,0:2:0:0:
186,248,151716,1,0,0:0:0:0:
148,244,151802,2,0,L|28:228,1,95,8|2,0:0|0:2,0:0:0:0:
356,292,152145,2,0,L|450:304,1,95,2|2,0:2|0:2,0:0:0:0:
288,52,152488,1,8,0:0:0:0:
240,312,152659,1,2,0:2:0:0:
240,312,152745,1,0,0:0:0:0:
240,312,152830,5,0,0:0:0:0:
408,208,153002,1,0,0:0:0:0:
180,88,153173,1,8,0:0:0:0:
424,224,153345,1,2,0:2:0:0:
424,224,153430,1,0,0:0:0:0:
424,224,153516,2,0,L|496:216,1,47.5
356,320,153688,2,0,L|308:325,1,47.5,2|0,0:2|0:0,0:0:0:0:
272,136,153859,2,0,L|344:128,1,47.5,8|0,0:0|0:0,0:0:0:0:
176,196,154030,1,0,0:0:0:0:
76,16,154202,5,0,0:0:0:0:
48,56,154288,1,0,0:0:0:0:
32,100,154373,1,0,0:0:0:0:
32,148,154459,1,0,0:0:0:0:
48,192,154545,2,0,B|52:240|24:284,1,95,8|0,0:0|0:0,0:0:0:0:
192,44,154888,2,0,B|236:72|236:72|336:64,1,142.5,2|0,0:2|0:0,0:0:0:0:
424,52,155230,1,8,0:0:0:0:
408,256,155402,1,2,0:2:0:0:
408,256,155488,1,0,0:0:0:0:
408,256,155573,5,0,0:0:0:0:
204,60,155745,1,2,0:2:0:0:
88,308,155916,2,0,P|148:320|228:280,1,142.5,8|0,0:0|0:0,0:0:0:0:
296,204,156259,2,0,L|312:152,1,47.5
360,304,156430,2,0,L|346:349,1,47.5,2|0,0:2|0:0,0:0:0:0:
288,188,156602,2,0,L|304:136,1,47.5,8|0,0:0|0:0,0:0:0:0:
368,28,156773,1,2,0:2:0:0:
184,204,156945,5,0,0:0:0:0:
140,224,157030,1,0,0:0:0:0:
92,232,157116,1,2,0:2:0:0:
44,224,157202,1,0,0:0:0:0:
4,196,157288,1,8,0:0:0:0:
220,96,157459,1,2,0:2:0:0:
256,340,157630,1,2,0:2:0:0:
280,28,157802,1,0,0:0:0:0:
280,28,157888,1,0,0:0:0:0:
280,28,157973,1,8,0:0:0:0:
208,268,158145,1,2,0:2:0:0:
396,176,158316,6,0,L|516:184,1,95,4|0,0:0|0:0,0:0:0:0:
256,340,158659,1,8,0:0:0:0:
136,164,158830,1,2,0:2:0:0:
136,164,158916,1,0,0:0:0:0:
136,164,159002,2,0,L|80:180,1,47.5
152,56,159173,2,0,L|197:42,1,47.5,2|0,0:2|0:0,0:0:0:0:
308,168,159345,2,0,P|280:168|240:156,1,47.5,8|0,0:0|0:0,0:0:0:0:
380,80,159516,1,2,0:2:0:0:
432,312,159688,5,0,0:0:0:0:
436,316,159773,1,0,0:0:0:0:
440,320,159859,1,2,0:2:0:0:
444,324,159945,1,0,0:0:0:0:
448,328,160030,1,8,0:0:0:0:
272,136,160202,1,0,0:0:0:0:
168,220,160373,2,0,L|72:208,1,95,2|0,0:2|0:2,0:0:0:0:
332,344,160716,2,0,L|426:355,1,95,8|2,0:0|0:2,0:0:0:0:
172,116,161059,5,0,0:0:0:0:
152,336,161230,1,2,0:2:0:0:
152,336,161316,1,0,0:0:0:0:
152,336,161402,1,8,0:0:0:0:
332,228,161573,1,2,0:2:0:0:
332,228,161659,1,0,0:0:0:0:
332,228,161745,2,0,P|384:240|408:240,1,47.5,2|0,0:2|0:0,0:0:0:0:
240,120,161916,2,0,L|188:128,1,47.5,2|0,0:2|0:0,0:0:0:0:
352,44,162088,2,0,P|375:46|399:44,1,47.5,8|0,0:0|0:0,0:0:0:0:
332,140,162259,1,2,0:2:0:0:
128,324,162430,5,0,0:0:0:0:
116,288,162516,1,0,0:0:0:0:
108,252,162602,1,2,0:2:0:0:
100,216,162688,1,0,0:0:0:0:
92,180,162773,1,8,0:0:0:0:
224,20,162945,1,0,0:0:0:0:
260,224,163116,2,0,L|240:332,1,95,2|2,0:2|0:2,0:0:0:0:
452,136,163459,2,0,P|460:88|432:20,1,95,8|2,0:0|0:2,0:0:0:0:
200,248,163802,6,0,L|400:224,1,190,0|8,0:0|0:0,0:0:0:0:
96,136,164316,1,2,0:2:0:0:
96,136,164402,1,0,0:0:0:0:
96,136,164488,2,0,L|24:120,1,47.5
128,248,164659,2,0,L|174:258,1,47.5,2|0,0:2|0:0,0:0:0:0:
244,376,164830,2,0,L|197:365,1,47.5,8|0,0:0|0:0,0:0:0:0:
320,280,165002,1,2,0:2:0:0:
204,132,165173,5,0,0:0:0:0:
224,88,165259,1,0,0:0:0:0:
264,64,165345,1,2,0:2:0:0:
312,56,165430,1,0,0:0:0:0:
360,64,165516,2,0,P|412:64|464:40,1,95,8|2,0:0|0:2,0:0:0:0:
172,264,165859,2,0,P|127:247|80:248,1,95,0|2,0:0|0:2,0:0:0:0:
396,352,166202,2,0,B|448:352|448:352|500:320,1,95,8|2,0:0|0:2,0:0:0:0:
328,184,166545,5,0,0:0:0:0:
292,156,166630,1,0,0:0:0:0:
244,148,166716,1,2,0:2:0:0:
196,156,166802,1,0,0:0:0:0:
156,180,166888,1,8,0:0:0:0:
112,196,166973,1,0,0:0:0:0:
64,192,167059,1,2,0:2:0:0:
24,168,167145,1,0,0:0:0:0:
0,128,167230,6,0,L|4:68,1,47.5,0|0,0:0|0:0,0:0:0:0:
124,0,167402,2,0,L|120:47,1,47.5,2|0,0:2|0:0,0:0:0:0:
184,224,167573,6,0,L|188:164,1,47.5,8|0,0:0|0:0,0:0:0:0:
308,96,167745,2,0,L|304:143,1,47.5,2|0,0:2|0:0,0:0:0:0:
356,288,167916,5,2,1:2:0:0:
412,300,168002,1,0,1:0:0:0:
464,276,168088,1,2,1:2:0:0:
480,224,168173,1,0,1:0:0:0:
460,172,168259,1,14,1:2:0:0:
408,148,168345,1,0,1:0:0:0:
352,164,168430,1,2,1:2:0:0:
304,196,168516,1,0,1:0:0:0:
248,204,168602,1,6,1:2:0:0:
192,184,168688,1,0,1:0:0:0:
160,136,168773,1,2,1:2:0:0:
164,80,168859,1,0,1:0:0:0:
192,32,168945,2,0,L|208:12,8,23.75,14|0|0|0|2|0|0|0|4,1:2|1:0|1:0|1:0|1:2|1:0|1:0|1:0|1:2,0:0:0:0:
140,72,180259,5,4,0:0:0:0:
196,128,180430,1,0,0:0:0:0:
276,144,180602,1,0,0:0:0:0:
356,128,180773,2,0,L|420:116,1,56.9999982604981,2|0,0:0|0:0,0:0:0:0:
156,256,181288,2,0,L|92:268,1,56.9999982604981,2|0,0:0|0:0,0:0:0:0:
344,328,181802,6,0,P|376:324|412:312,1,56.9999982604981,2|0,0:0|0:0,0:0:0:0:
208,112,182316,1,2,0:0:0:0:
132,92,182488,2,0,P|92:92|20:116,1,113.999996520996,0|2,0:0|0:0,0:0:0:0:
272,32,183002,5,2,0:0:0:0:
252,200,183173,1,0,0:0:0:0:
308,140,183345,1,0,0:0:0:0:
352,208,183516,2,0,L|412:200,1,56.9999982604981,2|0,0:0|0:0,0:0:0:0:
128,352,184030,2,0,L|71:344,1,56.9999982604981,2|0,0:0|0:0,0:0:0:0:
308,140,184545,6,0,P|345:131|379:140,1,56.9999982604981,2|0,0:0|0:0,0:0:0:0:
256,224,184888,1,0,0:0:0:0:
208,160,185059,2,0,P|205:127|219:96,1,56.9999982604981,2|0,0:0|0:0,0:0:0:0:
268,44,185402,1,0,0:0:0:0:
192,20,185573,2,0,L|128:12,2,56.9999982604981,2|0|0,0:0|0:0|0:0,0:0:0:0:
268,44,186088,6,0,P|316:44|344:28,1,56.9999982604981,0|2,0:0|0:0,0:0:0:0:
424,88,186430,1,0,0:0:0:0:
424,88,186602,2,0,P|424:136|440:164,1,56.9999982604981,0|2,0:0|0:0,0:0:0:0:
476,208,186945,1,0,0:0:0:0:
408,248,187116,5,0,0:0:0:0:
408,248,187288,2,0,B|352:228|352:264|284:240,1,113.999996520996,2|0,0:0|0:0,0:0:0:0:
220,272,187802,2,0,L|208:344,1,56.9999982604981,2|0,0:0|0:0,0:0:0:0:
116,180,188145,2,0,L|125:236,1,56.9999982604981,0|2,0:0|0:0,0:0:0:0:
236,64,188488,5,0,0:0:0:0:
256,192,188573,12,0,191059,0:0:0:0:
188,120,191230,5,4,0:0:0:0:
176,128,191573,2,0,L|100:116,1,76,8|0,0:0|0:0,0:0:0:0:
216,224,191916,1,0,0:0:0:0:
244,232,192002,1,0,0:0:0:0:
276,232,192088,1,0,0:0:0:0:
304,223,192173,1,0,0:0:0:0:
328,205,192259,1,8,0:0:0:0:
400,128,192430,1,0,0:0:0:0:
432,264,192602,5,0,0:0:0:0:
440,284,192688,1,0,0:0:0:0:
448,304,192773,1,0,0:0:0:0:
456,324,192859,1,0,0:0:0:0:
464,344,192945,1,8,0:0:0:0:
336,328,193116,1,0,0:0:0:0:
232,304,193288,2,0,P|192:304|152:324,1,76
8,236,193630,2,0,P|42:250|80:250,1,76,8|0,0:0|0:0,0:0:0:0:
212,160,193973,5,0,0:0:0:0:
224,172,194316,2,0,L|212:248,1,76,8|0,0:0|0:0,0:0:0:0:
312,100,194659,2,0,L|320:160,4,38,0|0|0|0|8,0:0|0:0|0:0|0:0|0:0,0:0:0:0:
396,36,195173,1,0,0:0:0:0:
460,120,195345,5,0,0:0:0:0:
464,124,195430,1,0,0:0:0:0:
468,128,195516,1,0,0:0:0:0:
472,132,195602,1,0,0:0:0:0:
476,136,195688,1,8,0:0:0:0:
404,232,195859,1,0,0:0:0:0:
404,232,196030,2,0,L|320:224,1,76
128,240,196373,2,0,L|203:247,1,76,8|0,0:0|0:0,0:0:0:0:
240,80,196716,5,0,0:0:0:0:
228,72,197059,2,0,P|172:76|144:88,1,76,8|0,0:0|0:0,0:0:0:0:
300,152,197402,1,0,0:0:0:0:
344,20,197573,1,0,0:0:0:0:
312,168,197745,1,8,0:0:0:0:
148,156,197916,1,0,0:0:0:0:
304,260,198088,5,0,0:0:0:0:
336,260,198173,1,0,0:0:0:0:
364,248,198259,1,0,0:0:0:0:
388,228,198345,1,0,0:0:0:0:
400,200,198430,1,8,0:0:0:0:
228,208,198602,1,0,0:0:0:0:
228,208,198773,2,0,P|210:250|215:288,1,76
308,156,199116,2,0,L|152:172,1,152,8|0,0:0|0:0,0:0:0:0:
220,72,199630,5,0,0:0:0:0:
368,204,199802,2,0,L|472:216,1,76,8|0,0:0|0:0,0:0:0:0:
284,288,200145,1,0,0:0:0:0:
384,124,200316,1,0,0:0:0:0:
268,280,200488,1,8,0:0:0:0:
212,56,200659,1,0,0:0:0:0:
148,204,200830,5,0,0:0:0:0:
140,232,200916,1,0,0:0:0:0:
132,260,201002,1,0,0:0:0:0:
124,288,201088,1,0,0:0:0:0:
116,316,201173,2,0,L|28:328,1,76,8|0,0:0|0:0,0:0:0:0:
272,220,201516,2,0,L|360:232,1,76
124,112,201859,2,0,P|80:116|44:96,1,76,8|0,0:0|0:0,0:0:0:0:
340,24,202202,5,4,0:0:0:0:
268,152,202373,1,0,0:0:0:0:
268,152,202459,1,0,0:0:0:0:
268,152,202545,1,8,0:0:0:0:
440,140,202716,1,0,0:0:0:0:
228,244,202888,1,0,0:0:0:0:
176,52,203059,1,0,0:0:0:0:
176,52,203145,1,0,0:0:0:0:
176,52,203230,1,8,0:0:0:0:
216,268,203402,1,0,0:0:0:0:
404,356,203573,5,0,0:0:0:0:
444,356,203659,1,0,0:0:0:0:
480,340,203745,1,0,0:0:0:0:
508,312,203830,1,0,0:0:0:0:
508,272,203916,2,0,L|496:180,1,76,8|0,0:0|0:0,0:0:0:0:
284,100,204259,2,0,L|293:175,1,76
128,336,204602,2,0,L|116:244,1,76,8|0,0:0|0:0,0:0:0:0:
100,156,204945,5,0,0:0:0:0:
200,16,205116,1,0,0:0:0:0:
328,120,205288,2,0,P|280:120|228:96,1,76,8|0,0:0|0:0,0:0:0:0:
200,16,205630,1,0,0:0:0:0:
224,216,205802,1,0,0:0:0:0:
224,216,205888,1,0,0:0:0:0:
224,216,205973,1,8,0:0:0:0:
416,132,206145,1,0,0:0:0:0:
140,100,206316,5,0,0:0:0:0:
136,104,206402,1,0,0:0:0:0:
132,108,206488,1,0,0:0:0:0:
128,112,206573,1,0,0:0:0:0:
124,116,206659,1,8,0:0:0:0:
268,288,206830,1,0,0:0:0:0:
268,288,206916,1,0,0:0:0:0:
268,288,207002,1,0,0:0:0:0:
340,72,207173,1,0,0:0:0:0:
340,72,207259,1,0,0:0:0:0:
340,72,207345,1,8,0:0:0:0:
264,180,207516,1,0,0:0:0:0:
264,180,207602,1,0,0:0:0:0:
264,180,207688,1,0,0:0:0:0:
256,192,207773,12,0,210259,0:0:0:0:
160,284,210430,5,0,0:0:0:0:
204,296,210516,1,0,0:0:0:0:
252,292,210602,1,2,0:2:0:0:
292,268,210688,1,0,0:0:0:0:
336,248,210773,1,0,0:0:0:0:
384,244,210859,1,0,0:0:0:0:
432,256,210945,1,2,0:2:0:0:
472,284,211030,1,0,0:0:0:0:
488,240,211116,1,0,0:0:0:0:
512,196,211202,1,0,0:0:0:0:
496,152,211288,1,2,0:2:0:0:
456,124,211373,1,0,0:0:0:0:
408,112,211459,1,0,0:0:0:0:
364,92,211545,1,0,0:0:0:0:
332,56,211630,1,2,0:2:0:0:
320,12,211716,1,0,0:0:0:0:
284,44,211802,5,6,0:2:0:0:
232,72,211888,1,0,0:0:0:0:
176,76,211973,1,2,0:2:0:0:
120,60,212059,1,0,0:0:0:0:
72,32,212145,1,6,0:2:0:0:
60,88,212230,1,0,0:0:0:0:
28,128,212316,1,2,0:2:0:0:
16,184,212402,1,0,0:0:0:0:
44,236,212488,1,6,0:2:0:0:
96,256,212573,1,0,0:0:0:0:
148,236,212659,1,2,0:2:0:0:
176,184,212745,1,0,0:0:0:0:
164,128,212830,5,4,0:0:0:0:
336,348,213173,6,0,L|460:336,1,95,4|0,0:0|0:0,0:0:0:0:
176,212,213516,1,8,0:0:0:0:
176,212,213688,2,0,L|81:221,1,95,0|0,0:0|0:0,0:0:0:0:
288,84,214030,1,0,0:0:0:0:
256,344,214202,1,8,0:0:0:0:
344,148,214373,1,0,0:0:0:0:
344,148,214459,1,0,0:0:0:0:
344,148,214545,6,0,P|400:152|464:120,2,95,0|0|8,0:0|0:0|0:0,0:0:0:0:
184,48,215059,1,0,0:0:0:0:
184,48,215145,1,0,0:0:0:0:
184,48,215230,1,0,0:0:0:0:
128,280,215402,1,0,0:0:0:0:
404,264,215573,1,8,0:0:0:0:
240,144,215745,1,0,0:0:0:0:
240,144,215830,1,0,0:0:0:0:
240,144,215916,6,0,L|224:240,1,95
192,372,216259,1,8,0:0:0:0:
332,172,216430,1,0,0:0:0:0:
332,172,216516,1,0,0:0:0:0:
332,172,216602,1,0,0:0:0:0:
124,276,216773,1,0,0:0:0:0:
72,56,216945,1,8,0:0:0:0:
320,12,217116,1,0,0:0:0:0:
320,12,217202,1,0,0:0:0:0:
320,12,217288,5,0,0:0:0:0:
208,184,217459,1,0,0:0:0:0:
408,308,217630,2,0,L|512:292,1,95,8|0,0:0|0:0,0:0:0:0:
501,293,217888,1,0,0:0:0:0:
501,293,217973,1,0,0:0:0:0:
332,172,218145,1,0,0:0:0:0:
256,336,218316,2,0,B|208:320|204:352|152:332,1,95,8|0,0:0|0:0,0:0:0:0:
296,80,218659,6,0,L|328:280,1,190,0|8,0:0|0:0,0:0:0:0:
512,148,219173,1,0,0:0:0:0:
512,148,219259,1,0,0:0:0:0:
512,148,219345,2,0,P|464:136|424:100,1,95,0|0,0:0|0:0,0:0:0:0:
244,244,219688,1,8,0:0:0:0:
352,280,219859,2,0,L|456:268,1,95,0|0,0:0|0:0,0:0:0:0:
176,128,220202,5,0,0:0:0:0:
176,128,220373,2,0,L|81:138,1,95,8|0,0:0|0:0,0:0:0:0:
81,138,220630,1,0,0:0:0:0:
81,138,220716,1,0,0:0:0:0:
264,332,220888,1,0,0:0:0:0:
356,264,221059,2,0,P|376:220|368:156,1,95,8|0,0:0|0:0,0:0:0:0:
296,120,221316,1,0,0:0:0:0:
296,120,221402,6,0,L|500:172,1,190,0|8,0:0|0:0,0:0:0:0:
180,348,221916,1,0,0:0:0:0:
132,352,222002,1,0,0:0:0:0:
88,336,222088,1,0,0:0:0:0:
56,304,222173,1,0,0:0:0:0:
40,260,222259,1,0,0:0:0:0:
188,48,222430,2,0,L|172:160,1,95,8|0,0:0|0:0,0:0:0:0:
152,260,222773,5,0,0:0:0:0:
320,96,222945,1,0,0:0:0:0:
388,368,223116,1,8,0:0:0:0:
268,224,223288,1,0,0:0:0:0:
268,224,223373,1,0,0:0:0:0:
268,224,223459,1,0,0:0:0:0:
268,16,223630,1,0,0:0:0:0:
428,192,223802,1,8,0:0:0:0:
160,132,223973,1,0,0:0:0:0:
160,132,224059,1,0,0:0:0:0:
160,132,224145,6,0,B|108:148|108:148|60:144,1,95,4|0,0:0|0:0,0:0:0:0:
272,32,224488,1,8,0:0:0:0:
320,248,224659,2,0,L|340:356,1,95
244,184,225002,1,0,0:0:0:0:
392,32,225173,1,8,0:0:0:0:
392,308,225345,1,0,0:0:0:0:
392,308,225430,1,0,0:0:0:0:
392,308,225516,5,0,0:0:0:0:
328,140,225688,1,0,0:0:0:0:
408,88,225859,2,0,B|456:80|456:80|498:97,1,95,8|0,0:0|0:0,0:0:0:0:
376,228,226202,1,0,0:0:0:0:
248,88,226373,1,0,0:0:0:0:
248,88,226459,1,0,0:0:0:0:
248,88,226545,1,8,0:0:0:0:
212,328,226716,1,0,0:0:0:0:
212,328,226802,1,0,0:0:0:0:
212,328,226888,6,0,L|108:316,1,95
392,204,227230,1,8,0:0:0:0:
392,204,227402,2,0,L|486:214,1,95
220,168,227745,1,0,0:0:0:0:
396,20,227916,1,8,0:0:0:0:
168,84,228088,1,0,0:0:0:0:
168,84,228173,1,0,0:0:0:0:
168,84,228259,6,0,P|124:80|72:64,1,95,0|0,0:0|0:0,0:0:0:0:
280,240,228602,2,0,P|327:235|372:221,1,95,8|0,0:0|0:0,0:0:0:0:
372,221,228859,1,0,0:0:0:0:
372,221,228945,1,0,0:0:0:0:
152,144,229116,1,0,0:0:0:0:
112,372,229288,1,8,0:0:0:0:
232,176,229459,1,0,0:0:0:0:
232,176,229545,1,0,0:0:0:0:
232,176,229630,6,0,B|368:184|368:184|428:168,1,190,0|8,0:0|0:0,0:0:0:0:
216,80,230145,1,0,0:0:0:0:
184,272,230316,2,0,L|168:376,1,95
244,192,230659,1,8,0:0:0:0:
60,292,230830,1,0,0:0:0:0:
60,292,230916,1,0,0:0:0:0:
60,292,231002,5,0,0:0:0:0:
220,64,231173,1,0,0:0:0:0:
292,264,231345,1,8,0:0:0:0:
136,160,231516,1,0,0:0:0:0:
136,160,231602,1,0,0:0:0:0:
136,160,231688,1,0,0:0:0:0:
328,52,231859,1,0,0:0:0:0:
332,344,232030,1,8,0:0:0:0:
184,256,232202,1,0,0:0:0:0:
184,256,232288,1,0,0:0:0:0:
184,256,232373,6,0,L|132:248,3,47.5,0|0|2|0,0:0|0:0|0:2|0:0,0:0:0:0:
328,256,232716,2,0,L|374:248,3,47.5,8|0|0|0,0:0|0:0|0:0|0:0,0:0:0:0:
168,180,233059,2,0,L|116:172,3,47.5,0|0|2|0,0:0|0:0|0:2|0:0,0:0:0:0:
344,180,233402,2,0,L|396:172,3,47.5,8|0|0|0,0:0|0:0|0:0|0:0,0:0:0:0:
256,88,233745,5,2,1:2:0:0:
252,68,233830,1,0,1:0:0:0:
248,48,233916,1,2,1:2:0:0:
244,28,234002,1,0,1:0:0:0:
240,8,234088,5,8,1:2:0:0:
216,60,234173,1,0,1:0:0:0:
160,76,234259,1,2,1:2:0:0:
104,64,234345,1,0,1:0:0:0:
48,80,234430,1,2,1:2:0:0:
20,128,234516,1,0,1:0:0:0:
32,184,234602,1,2,1:2:0:0:
76,220,234688,1,0,1:0:0:0:
132,217,234773,1,10,1:2:0:0:
176,180,234859,1,0,1:0:0:0:
232,168,234945,1,2,1:2:0:0:
288,176,235030,1,0,1:0:0:0:
338,203,235116,5,4,0:0:0:0:
416,364,235288,1,0,0:0:0:0:
456,112,235459,1,8,0:0:0:0:
212,32,235630,1,0,0:0:0:0:
224,76,235716,1,0,0:0:0:0:
240,120,235802,1,0,0:0:0:0:
252,164,235888,1,0,0:0:0:0:
268,208,235973,1,0,0:0:0:0:
136,336,236145,2,0,L|36:324,1,95,8|0,0:0|0:0,0:0:0:0:
288,188,236488,6,0,P|336:168|464:228,1,190,0|8,0:0|0:0,0:0:0:0:
248,296,237002,1,0,0:0:0:0:
224,288,237088,1,0,0:0:0:0:
200,280,237173,1,0,0:0:0:0:
176,272,237259,1,0,0:0:0:0:
152,264,237345,1,0,0:0:0:0:
356,100,237516,2,0,B|408:100|408:100|456:76,1,95,8|0,0:0|0:0,0:0:0:0:
200,8,237859,5,0,0:0:0:0:
236,232,238030,1,0,0:0:0:0:
236,232,238116,1,0,0:0:0:0:
236,232,238202,1,8,0:0:0:0:
360,88,238373,1,0,0:0:0:0:
80,224,238545,1,0,0:0:0:0:
256,112,238716,1,0,0:0:0:0:
308,352,238888,1,8,0:0:0:0:
392,252,239059,1,0,0:0:0:0:
392,252,239145,1,0,0:0:0:0:
392,252,239230,5,0,0:0:0:0:
172,156,239402,1,0,0:0:0:0:
284,132,239573,2,0,L|392:116,1,95,8|0,0:0|0:0,0:0:0:0:
184,320,239916,2,0,L|90:333,1,95
216,66,240259,2,0,P|268:38|320:46,1,95,8|0,0:0|0:0,0:0:0:0:
504,160,240602,5,0,0:0:0:0:
400,316,240773,1,0,0:0:0:0:
400,316,240859,1,0,0:0:0:0:
400,316,240945,1,8,0:0:0:0:
200,172,241116,1,0,0:0:0:0:
164,168,241202,1,0,0:0:0:0:
128,172,241288,1,0,0:0:0:0:
92,184,241373,1,0,0:0:0:0:
60,204,241459,1,0,0:0:0:0:
328,112,241630,2,0,P|376:128|432:124,1,95,8|0,0:0|0:0,0:0:0:0:
228,8,241973,6,0,L|268:220,1,190,0|8,0:0|0:0,0:0:0:0:
432,352,242488,1,0,0:0:0:0:
440,316,242573,1,0,0:0:0:0:
448,280,242659,1,0,0:0:0:0:
456,244,242745,1,0,0:0:0:0:
464,208,242830,1,0,0:0:0:0:
356,24,243002,1,8,0:0:0:0:
312,272,243173,1,0,0:0:0:0:
112,120,243345,5,0,0:0:0:0:
220,152,243516,1,0,0:0:0:0:
220,152,243602,1,0,0:0:0:0:
220,152,243688,1,8,0:0:0:0:
360,16,243859,1,0,0:0:0:0:
148,220,244030,1,0,0:0:0:0:
76,16,244202,1,0,0:0:0:0:
112,312,244373,1,8,0:0:0:0:
232,128,244545,1,0,0:0:0:0:
232,128,244630,1,0,0:0:0:0:
232,128,244716,5,0,0:0:0:0:
304,220,244888,1,0,0:0:0:0:
152,48,245059,2,0,L|40:28,1,95,8|0,0:0|0:0,0:0:0:0:
168,132,245316,1,0,0:0:0:0:
168,132,245402,2,0,L|261:115,1,95
500,240,245745,2,0,P|448:236|404:220,1,95,8|0,0:0|0:0,0:0:0:0:
68,328,246088,6,0,P|152:348|252:292,1,190,4|8,0:0|0:0,0:0:0:0:
320,36,246602,1,0,0:0:0:0:
352,72,246688,1,0,0:0:0:0:
392,96,246773,1,0,0:0:0:0:
440,104,246859,1,0,0:0:0:0:
488,104,246945,1,0,0:0:0:0:
240,212,247116,2,0,L|124:220,1,95,8|0,0:0|0:0,0:0:0:0:
312,20,247459,5,0,0:0:0:0:
328,292,247630,1,0,0:0:0:0:
328,292,247716,1,0,0:0:0:0:
328,292,247802,1,8,0:0:0:0:
172,132,247973,1,0,0:0:0:0:
124,124,248059,1,0,0:0:0:0:
80,140,248145,1,0,0:0:0:0:
40,164,248230,1,0,0:0:0:0:
16,204,248316,1,0,0:0:0:0:
284,228,248488,2,0,P|312:188|312:124,1,95,8|0,0:0|0:0,0:0:0:0:
168,328,248830,6,0,L|368:304,1,190,0|8,0:0|0:0,0:0:0:0:
508,144,249345,1,0,0:0:0:0:
472,116,249430,1,0,0:0:0:0:
428,104,249516,1,0,0:0:0:0:
380,108,249602,1,0,0:0:0:0:
340,132,249688,2,0,P|292:136|244:104,1,95,0|8,0:0|0:0,0:0:0:0:
16,256,250030,1,0,0:0:0:0:
16,256,250116,1,0,0:0:0:0:
16,256,250202,6,0,P|57:233|103:237,1,95,0|0,0:0|0:0,0:0:0:0:
240,360,250545,1,8,0:0:0:0:
300,96,250716,1,0,0:0:0:0:
292,72,250802,1,0,0:0:0:0:
284,48,250888,1,0,0:0:0:0:
276,28,250973,1,0,0:0:0:0:
268,8,251059,1,0,0:0:0:0:
456,160,251230,1,8,0:0:0:0:
224,228,251402,1,0,0:0:0:0:
392,40,251573,5,0,0:0:0:0:
376,324,251745,1,0,0:0:0:0:
376,324,251830,1,0,0:0:0:0:
376,324,251916,1,8,0:0:0:0:
192,212,252088,1,0,0:0:0:0:
468,136,252259,2,0,L|496:32,1,95,0|0,0:0|0:0,0:0:0:0:
256,144,252602,1,8,0:0:0:0:
304,248,252773,1,0,0:0:0:0:
304,248,252859,1,0,0:0:0:0:
304,248,252945,6,0,L|328:308,3,47.5,0|0|2|0,0:0|0:0|0:2|0:0,0:0:0:0:
192,212,253288,2,0,L|209:256,3,47.5,8|0|2|0,0:0|0:0|0:2|0:0,0:0:0:0:
266,144,253630,2,0,L|284:100,3,47.5,0|0|2|0,0:0|0:0|0:2|0:0,0:0:0:0:
378,108,253973,2,0,L|396:64,3,47.5,8|0|2|0,0:0|0:0|0:2|0:0,0:0:0:0:
412,204,254316,5,0,0:0:0:0:
428,248,254402,1,0,0:0:0:0:
444,292,254488,1,2,0:2:0:0:
464,336,254573,1,0,0:0:0:0:
420,316,254659,1,8,0:0:0:0:
376,304,254745,1,0,0:0:0:0:
328,304,254830,1,2,0:2:0:0:
280,312,254916,1,0,0:0:0:0:
240,336,255002,6,0,L|204:368,1,47.5
64,352,255173,2,0,L|100:320,1,47.5,2|0,0:2|0:0,0:0:0:0:
100,176,255345,6,0,L|64:208,1,47.5,8|0,0:0|0:0,0:0:0:0:
228,172,255516,2,0,L|264:140,1,47.5,2|0,0:2|0:0,0:0:0:0:
360,40,255688,5,2,1:2:0:0:
420,24,255773,1,0,1:0:0:0:
472,44,255859,1,2,1:2:0:0:
496,96,255945,1,0,1:0:0:0:
484,152,256030,1,14,1:2:0:0:
436,184,256116,1,0,1:0:0:0:
380,176,256202,1,2,1:2:0:0:
336,140,256288,1,0,1:0:0:0:
280,140,256373,1,6,1:2:0:0:
236,180,256459,1,0,1:0:0:0:
236,236,256545,1,2,1:2:0:0:
264,284,256630,1,0,1:0:0:0:
320,300,256716,1,14,1:2:0:0:
372,280,256802,1,0,1:0:0:0:
396,228,256888,1,2,1:2:0:0:
380,176,256973,1,0,1:0:0:0:
388,120,257059,5,4,0:0:0:0:
488,348,257230,1,2,0:2:0:0:
232,164,257402,1,8,0:0:0:0:
228,372,257573,1,2,0:2:0:0:
228,372,257659,1,0,0:0:0:0:
228,372,257745,2,0,L|172:356,1,56.9999982604981,0|0,0:0|0:0,0:0:0:0:
8,264,257916,2,0,L|64:248,1,56.9999982604981,2|0,0:2|0:0,0:0:0:0:
216,96,258088,2,0,L|160:80,1,56.9999982604981,8|0,0:0|0:0,0:0:0:0:
264,208,258259,1,2,0:2:0:0:
424,12,258430,5,0,0:0:0:0:
456,44,258516,1,0,0:0:0:0:
476,84,258602,1,2,0:2:0:0:
484,128,258688,1,0,0:0:0:0:
472,172,258773,1,8,0:0:0:0:
340,332,258945,1,0,0:0:0:0:
208,80,259116,1,2,0:2:0:0:
172,368,259288,1,2,0:2:0:0:
172,368,259373,1,0,0:0:0:0:
172,368,259459,1,8,0:0:0:0:
344,108,259630,1,2,0:2:0:0:
112,212,259802,6,0,L|-20:188,1,113.999996520996,0|2,0:0|0:2,0:0:0:0:
296,24,260145,1,8,0:0:0:0:
352,276,260316,1,2,0:2:0:0:
352,276,260402,1,0,0:0:0:0:
352,276,260488,2,0,L|336:352,1,56.9999982604981,2|0,0:2|0:0,0:0:0:0:
420,120,260659,2,0,P|416:80|388:56,1,56.9999982604981,2|0,0:2|0:0,0:0:0:0:
228,208,260830,2,0,P|258:216|293:210,1,56.9999982604981,8|0,0:0|0:0,0:0:0:0:
120,132,261002,1,2,0:2:0:0:
292,348,261173,5,0,0:0:0:0:
332,324,261259,1,0,0:0:0:0:
376,320,261345,1,2,0:2:0:0:
420,328,261430,1,0,0:0:0:0:
460,352,261516,2,0,P|496:304|503:251,1,113.999996520996,8|0,0:0|0:0,0:0:0:0:
356,84,261859,1,2,0:2:0:0:
248,332,262030,1,2,0:2:0:0:
276,36,262202,1,8,0:0:0:0:
128,264,262373,1,2,0:2:0:0:
128,264,262459,1,0,0:0:0:0:
128,264,262545,5,0,0:0:0:0:
352,4,262716,1,0,0:0:0:0:
396,256,262888,1,8,0:0:0:0:
128,108,263059,1,2,0:2:0:0:
128,108,263145,1,0,0:0:0:0:
128,108,263230,2,0,P|76:112|44:132,1,56.9999982604981,0|0,0:0|0:0,0:0:0:0:
73,291,263402,2,0,P|94:272|120:260,1,56.9999982604981,2|0,0:2|0:0,0:0:0:0:
312,328,263573,2,0,P|291:308|265:296,1,56.9999982604981,8|0,0:0|0:0,0:0:0:0:
232,164,263745,1,0,0:0:0:0:
400,292,263916,5,0,0:0:0:0:
432,296,264002,1,0,0:0:0:0:
464,288,264088,1,2,0:2:0:0:
492,268,264173,1,0,0:0:0:0:
504,236,264259,2,0,L|484:112,1,113.999996520996,8|0,0:0|0:0,0:0:0:0:
216,8,264602,2,0,L|234:120,1,113.999996520996,2|2,0:2|0:2,0:0:0:0:
60,372,264945,2,0,L|40:248,1,113.999996520996,8|2,0:0|0:2,0:0:0:0:
208,28,265288,5,0,0:0:0:0:
272,296,265459,1,2,0:2:0:0:
460,96,265630,1,8,0:0:0:0:
168,164,265802,1,2,0:2:0:0:
168,164,265888,1,0,0:0:0:0:
168,164,265973,2,0,L|152:232,1,56.9999982604981,0|0,0:0|0:0,0:0:0:0:
288,256,266145,2,0,L|304:323,1,56.9999982604981,2|0,0:2|0:0,0:0:0:0:
441,286,266316,2,0,L|477:345,1,56.9999982604981,8|0,0:0|0:0,0:0:0:0:
504,172,266488,1,2,0:2:0:0:
152,132,266659,5,0,0:0:0:0:
208,136,266745,1,0,0:0:0:0:
260,112,266830,1,2,0:2:0:0:
296,68,266916,1,0,0:0:0:0:
308,12,267002,1,8,0:0:0:0:
360,252,267173,1,0,0:0:0:0:
192,28,267345,1,2,0:2:0:0:
468,20,267516,1,2,0:2:0:0:
468,20,267602,1,0,0:0:0:0:
468,20,267688,1,8,0:0:0:0:
208,268,267859,1,2,0:2:0:0:
400,164,268030,6,0,L|524:176,1,113.999996520996,4|0,0:0|0:0,0:0:0:0:
144,128,268373,2,0,L|30:117,1,113.999996520996,8|2,0:0|0:2,0:0:0:0:
200,348,268716,2,0,P|248:340|272:320,1,56.9999982604981,0|0,0:0|0:0,0:0:0:0:
384,252,268888,2,0,L|380:308,1,56.9999982604981,2|0,0:2|0:0,0:0:0:0:
512,172,269059,2,0,P|464:164|440:144,1,56.9999982604981,10|0,0:2|0:0,0:0:0:0:
396,72,269230,1,2,0:2:0:0:
128,252,269402,5,0,0:0:0:0:
172,260,269488,1,0,0:0:0:0:
216,252,269573,1,2,0:2:0:0:
256,232,269659,1,0,0:0:0:0:
280,192,269745,2,0,L|260:68,1,113.999996520996,8|0,0:0|0:0,0:0:0:0:
492,264,270088,2,0,P|488:328|456:372,1,113.999996520996,2|2,0:2|0:2,0:0:0:0:
124,136,270430,2,0,L|104:16,1,113.999996520996,8|2,0:0|0:2,0:0:0:0:
64,332,270773,5,0,0:0:0:0:
232,96,270945,1,2,0:2:0:0:
232,96,271030,1,0,0:0:0:0:
232,96,271116,1,8,0:0:0:0:
312,260,271288,1,2,0:2:0:0:
312,260,271373,1,0,0:0:0:0:
312,260,271459,2,0,L|384:248,1,56.9999982604981
236,364,271630,2,0,L|179:373,1,56.9999982604981,2|0,0:2|0:0,0:0:0:0:
324,244,271802,2,0,L|396:232,1,56.9999982604981,8|0,0:0|0:0,0:0:0:0:
192,192,271973,1,2,0:2:0:0:
472,24,272145,5,0,0:0:0:0:
436,52,272230,1,0,0:0:0:0:
392,68,272316,1,2,0:2:0:0:
348,72,272402,1,0,0:0:0:0:
304,68,272488,1,8,0:0:0:0:
8,152,272659,1,0,0:0:0:0:
8,152,272745,1,0,0:0:0:0:
8,152,272830,1,2,0:2:0:0:
180,8,273002,1,2,0:2:0:0:
252,320,273173,1,8,0:0:0:0:
392,248,273345,1,2,0:2:0:0:
392,248,273430,1,0,0:0:0:0:
392,248,273516,6,0,L|420:368,1,113.999996520996
508,144,273859,1,8,0:0:0:0:
348,8,274030,1,2,0:2:0:0:
348,8,274116,1,0,0:0:0:0:
348,8,274202,2,0,P|340:40|320:68,1,56.9999982604981
192,160,274373,2,0,L|264:164,1,56.9999982604981,2|0,0:2|0:0,0:0:0:0:
96,72,274545,2,0,L|39:68,1,56.9999982604981,8|0,0:0|0:0,0:0:0:0:
132,236,274716,1,2,0:2:0:0:
428,48,274888,5,0,0:0:0:0:
452,100,274973,1,0,0:0:0:0:
448,156,275059,1,2,0:2:0:0:
424,208,275145,1,0,0:0:0:0:
408,260,275230,2,0,P|408:288|448:364,1,113.999996520996,8|0,0:0|0:0,0:0:0:0:
268,84,275573,2,0,P|261:140|229:186,1,113.999996520996,2|2,0:2|0:2,0:0:0:0:
40,268,275916,1,8,0:0:0:0:
280,376,276088,1,2,0:2:0:0:
280,376,276173,1,0,0:0:0:0:
280,376,276259,6,0,L|292:320,1,56.9999982604981
404,240,276430,2,0,L|392:296,1,56.9999982604981,2|0,0:2|0:0,0:0:0:0:
268,212,276602,6,0,L|280:156,1,56.9999982604981,8|0,0:0|0:0,0:0:0:0:
400,68,276773,2,0,L|388:124,1,56.9999982604981,2|0,0:2|0:0,0:0:0:0:
164,144,276945,6,0,L|176:88,1,56.9999982604981
296,0,277116,2,0,L|284:56,1,56.9999982604981,2|0,0:2|0:0,0:0:0:0:
256,268,277288,6,0,L|268:212,1,56.9999982604981,8|0,0:0|0:0,0:0:0:0:
388,124,277459,2,0,L|376:180,1,56.9999982604981,2|0,0:2|0:0,0:0:0:0:
172,316,277630,5,2,1:2:0:0:
116,328,277716,1,0,1:0:0:0:
60,316,277802,1,2,1:2:0:0:
20,272,277888,1,0,1:0:0:0:
8,216,277973,1,14,1:2:0:0:
24,160,278059,1,0,1:0:0:0:
68,120,278145,1,2,1:2:0:0:
124,112,278230,1,0,1:0:0:0:
180,132,278316,1,6,1:2:0:0:
236,140,278402,1,0,1:0:0:0:
292,128,278488,1,2,1:2:0:0:
340,96,278573,1,0,1:0:0:0:
376,52,278659,1,14,1:2:0:0:
404,100,278745,1,0,1:0:0:0:
440,144,278830,1,2,1:2:0:0:
480,184,278916,1,0,1:0:0:0:
512,220,279002,6,0,L|488:328,1,95,4|0,0:0|0:0,0:0:0:0:
316,376,279345,2,0,L|336:283,1,95,8|0,0:0|0:0,0:0:0:0:
168,64,279688,1,0,0:0:0:0:
156,108,279773,1,0,0:0:0:0:
156,156,279859,1,0,0:0:0:0:
180,196,279945,1,0,0:0:0:0:
220,220,280030,2,0,P|272:224|316:196,1,95,8|0,0:0|0:0,0:0:0:0:
140,272,280373,5,0,0:0:0:0:
132,296,280459,1,0,0:0:0:0:
124,320,280545,1,0,0:0:0:0:
116,344,280630,1,0,0:0:0:0:
108,364,280716,2,0,L|8:376,1,95,8|0,0:0|0:0,0:0:0:0:
248,252,281059,2,0,L|342:240,1,95,0|0,0:0|0:0,0:0:0:0:
508,104,281402,2,0,P|472:84|408:96,1,95,8|0,0:0|0:0,0:0:0:0:
208,176,281745,5,0,0:0:0:0:
288,352,281916,1,0,0:0:0:0:
288,352,282002,1,0,0:0:0:0:
288,352,282088,1,8,0:0:0:0:
316,100,282259,1,0,0:0:0:0:
88,44,282430,1,0,0:0:0:0:
72,88,282516,1,0,0:0:0:0:
76,136,282602,1,0,0:0:0:0:
96,180,282688,1,0,0:0:0:0:
100,228,282773,2,0,L|72:332,1,95,8|0,0:0|0:0,0:0:0:0:
392,272,283116,5,0,0:0:0:0:
348,288,283202,1,0,0:0:0:0:
300,284,283288,1,0,0:0:0:0:
256,264,283373,1,0,0:0:0:0:
228,224,283459,2,0,P|228:162|262:120,1,95,8|0,0:0|0:0,0:0:0:0:
388,64,283802,2,0,L|496:76,1,95
124,64,284145,2,0,L|16:76,1,95,8|0,0:0|0:0,0:0:0:0:
316,176,284488,5,0,0:0:0:0:
180,300,284659,1,0,0:0:0:0:
180,300,284745,1,0,0:0:0:0:
180,300,284830,1,8,0:0:0:0:
132,88,285002,1,0,0:0:0:0:
316,292,285173,1,0,0:0:0:0:
364,296,285259,1,0,0:0:0:0:
412,284,285345,1,0,0:0:0:0:
452,256,285430,1,0,0:0:0:0:
468,212,285516,2,0,L|452:108,1,95,8|0,0:0|0:0,0:0:0:0:
240,12,285859,5,0,0:0:0:0:
236,36,285945,1,0,0:0:0:0:
232,60,286030,1,0,0:0:0:0:
228,84,286116,1,0,0:0:0:0:
224,108,286202,1,8,0:0:0:0:
312,276,286373,1,0,0:0:0:0:
104,116,286545,1,0,0:0:0:0:
364,208,286716,1,0,0:0:0:0:
364,208,286802,1,0,0:0:0:0:
364,208,286888,2,0,L|480:192,1,95,8|0,0:0|0:0,0:0:0:0:
208,304,287230,6,0,B|108:340|108:284|16:312,1,190,0|8,0:0|0:0,0:0:0:0:
252,160,287745,1,0,0:0:0:0:
292,376,287916,1,0,0:0:0:0:
316,372,288002,1,0,0:0:0:0:
340,368,288088,1,0,0:0:0:0:
364,364,288173,1,0,0:0:0:0:
388,360,288259,2,0,L|496:340,1,95,8|0,0:0|0:0,0:0:0:0:
296,76,288602,5,0,0:0:0:0:
248,64,288688,1,0,0:0:0:0:
204,76,288773,1,0,0:0:0:0:
172,112,288859,1,0,0:0:0:0:
160,156,288945,1,8,0:0:0:0:
360,164,289116,1,0,0:0:0:0:
360,164,289202,1,0,0:0:0:0:
360,164,289288,2,0,P|393:129|404:67,1,95
240,256,289630,2,0,L|260:384,1,95,8|0,0:0|0:0,0:0:0:0:
236,128,289973,6,0,P|152:140|64:84,1,190,4|8,0:0|0:0,0:0:0:0:
360,16,290488,1,0,0:0:0:0:
344,208,290659,1,0,0:0:0:0:
372,248,290745,1,0,0:0:0:0:
412,276,290830,1,0,0:0:0:0:
460,284,290916,1,0,0:0:0:0:
508,276,291002,1,8,0:0:0:0:
324,120,291173,1,0,0:0:0:0:
240,288,291345,5,0,0:0:0:0:
212,328,291430,1,0,0:0:0:0:
172,356,291516,1,0,0:0:0:0:
124,364,291602,1,0,0:0:0:0:
76,356,291688,1,8,0:0:0:0:
256,192,291859,1,0,0:0:0:0:
332,340,292030,2,0,L|456:360,1,95,0|0,0:0|0:0,0:0:0:0:
120,256,292373,2,0,L|26:240,1,95,8|0,0:0|0:0,0:0:0:0:
352,204,292716,6,0,P|400:212|444:192,1,95
208,92,293059,2,0,L|232:216,1,95,8|0,0:0|0:0,0:0:0:0:
272,324,293402,1,0,0:0:0:0:
268,328,293488,1,0,0:0:0:0:
264,332,293573,1,0,0:0:0:0:
260,336,293659,1,0,0:0:0:0:
256,340,293745,1,8,0:0:0:0:
376,136,293916,1,0,0:0:0:0:
168,216,294088,5,0,0:0:0:0:
136,196,294173,1,0,0:0:0:0:
116,160,294259,1,0,0:0:0:0:
108,124,294345,1,0,0:0:0:0:
116,88,294430,2,0,L|-4:56,1,95,8|0,0:0|0:0,0:0:0:0:
260,232,294773,2,0,L|380:200,1,95
496,40,295116,2,0,B|444:32|444:32|396:48,1,95,8|0,0:0|0:0,0:0:0:0:
248,252,295459,5,0,0:0:0:0:
248,252,295802,2,0,L|224:152,1,95,8|0,0:0|0:0,0:0:0:0:
212,356,296145,1,0,0:0:0:0:
248,360,296230,1,0,0:0:0:0:
284,352,296316,1,0,0:0:0:0:
320,336,296402,1,0,0:0:0:0:
344,304,296488,1,8,0:0:0:0:
400,168,296659,1,0,0:0:0:0:
448,356,296830,5,0,0:0:0:0:
448,356,296916,1,0,0:0:0:0:
448,356,297002,1,0,0:0:0:0:
448,356,297088,1,0,0:0:0:0:
448,356,297173,1,8,0:0:0:0:
412,152,297345,1,0,0:0:0:0:
252,264,297516,1,0,0:0:0:0:
464,240,297688,1,0,0:0:0:0:
464,240,297773,1,0,0:0:0:0:
464,240,297859,1,8,0:0:0:0:
256,124,298030,1,0,0:0:0:0:
360,36,298202,6,0,L|408:32,3,47.5,0|0|2|0,0:0|0:0|0:2|0:0,0:0:0:0:
280,96,298545,2,0,L|232:100,3,47.5,8|0|2|0,0:0|0:0|0:2|0:0,0:0:0:0:
412,120,298888,2,0,L|460:116,3,47.5,0|0|2|0,0:0|0:0|0:2|0:0,0:0:0:0:
332,180,299230,2,0,L|284:184,3,47.5,8|0|2|0,0:0|0:0|0:2|0:0,0:0:0:0:
208,248,299573,5,2,1:2:0:0:
200,272,299659,1,0,1:0:0:0:
192,296,299745,1,2,1:2:0:0:
184,320,299830,1,0,1:0:0:0:
176,344,299916,5,14,1:2:0:0:
140,312,300002,1,0,1:0:0:0:
100,284,300088,1,2,1:2:0:0:
52,280,300173,1,0,1:0:0:0:
8,296,300259,6,0,L|24:368,1,47.5,6|0,1:2|1:0,0:0:0:0:
64,196,300430,2,0,L|53:149,1,47.5,2|0,1:2|1:0,0:0:0:0:
112,48,300602,5,14,1:2:0:0:
152,20,300688,1,0,1:0:0:0:
200,16,300773,1,2,1:2:0:0:
248,24,300859,1,0,1:0:0:0:
284,56,300945,6,0,P|328:64|376:40,1,95,4|0,0:0|0:0,0:0:0:0:
512,212,301288,1,8,0:0:0:0:
312,232,301459,1,0,0:0:0:0:
312,232,301545,1,0,0:0:0:0:
312,232,301630,1,0,0:0:0:0:
408,172,301802,1,0,0:0:0:0:
216,288,301973,2,0,P|168:292|120:268,1,95,8|0,0:0|0:0,0:0:0:0:
344,368,302316,6,0,L|460:356,1,95
304,212,302659,1,8,0:0:0:0:
484,124,302830,1,0,0:0:0:0:
492,92,302916,1,0,0:0:0:0:
504,60,303002,1,0,0:0:0:0:
432,276,303173,1,0,0:0:0:0:
216,156,303345,2,0,P|160:160|120:144,1,95,8|0,0:0|0:0,0:0:0:0:
340,40,303688,5,0,0:0:0:0:
392,196,303859,1,0,0:0:0:0:
392,196,303945,1,0,0:0:0:0:
392,196,304030,1,8,0:0:0:0:
200,256,304202,1,0,0:0:0:0:
312,360,304373,2,0,L|332:264,1,95
160,80,304716,1,8,0:0:0:0:
108,180,304888,1,0,0:0:0:0:
108,180,304973,1,0,0:0:0:0:
108,180,305059,5,0,0:0:0:0:
288,68,305230,1,0,0:0:0:0:
320,180,305402,2,0,L|344:284,1,95,8|0,0:0|0:0,0:0:0:0:
408,96,305745,2,0,P|411:41|393:1,1,95
251,246,306088,2,0,P|306:274|353:268,1,95,8|0,0:0|0:0,0:0:0:0:
168,136,306430,6,0,L|32:116,1,95,0|0,0:0|0:0,0:0:0:0:
244,48,306773,1,8,0:0:0:0:
220,272,306945,1,0,0:0:0:0:
220,272,307030,1,0,0:0:0:0:
220,272,307116,1,0,0:0:0:0:
152,40,307288,1,0,0:0:0:0:
344,204,307459,2,0,L|456:192,1,95,8|0,0:0|0:0,0:0:0:0:
244,164,307802,5,0,0:0:0:0:
348,72,307973,1,0,0:0:0:0:
348,72,308059,1,0,0:0:0:0:
348,72,308145,1,8,0:0:0:0:
344,300,308316,1,0,0:0:0:0:
224,144,308488,1,0,0:0:0:0:
460,128,308659,1,0,0:0:0:0:
232,40,308830,1,8,0:0:0:0:
132,92,309002,1,0,0:0:0:0:
132,92,309088,1,0,0:0:0:0:
132,92,309173,6,0,B|60:80|60:80|28:88,1,95
184,240,309516,2,0,B|205:245|205:245|277:233,1,95,8|0,0:0|0:0,0:0:0:0:
277,233,309773,1,0,0:0:0:0:
277,233,309859,1,0,0:0:0:0:
132,68,310030,1,0,0:0:0:0:
80,260,310202,2,0,L|56:372,1,95,8|0,0:0|0:0,0:0:0:0:
184,140,310545,5,0,0:0:0:0:
240,312,310716,1,0,0:0:0:0:
240,312,310802,1,0,0:0:0:0:
240,312,310888,1,8,0:0:0:0:
296,88,311059,1,0,0:0:0:0:
340,68,311145,1,0,0:0:0:0:
388,60,311230,1,0,0:0:0:0:
436,64,311316,1,0,0:0:0:0:
480,84,311402,2,0,L|504:180,1,95,0|8,0:0|0:0,0:0:0:0:
400,336,311745,1,0,0:0:0:0:
400,336,311830,1,0,0:0:0:0:
400,336,311916,6,0,P|376:292|380:248,1,95,4|0,0:0|0:0,0:0:0:0:
236,104,312259,1,8,0:0:0:0:
148,176,312430,2,0,L|40:164,1,95
232,312,312773,1,0,0:0:0:0:
248,84,312945,2,0,L|342:94,1,95,8|0,0:0|0:0,0:0:0:0:
504,192,313288,5,0,0:0:0:0:
376,288,313459,1,0,0:0:0:0:
376,288,313545,1,0,0:0:0:0:
376,288,313630,1,8,0:0:0:0:
256,64,313802,1,0,0:0:0:0:
160,248,313973,2,0,L|48:236,1,95,0|0,0:0|0:0,0:0:0:0:
336,184,314316,2,0,P|380:184|440:160,1,95,8|0,0:0|0:0,0:0:0:0:
427,167,314573,1,0,0:0:0:0:
427,167,314659,5,0,0:0:0:0:
272,308,314830,1,0,0:0:0:0:
200,220,315002,2,0,L|88:208,1,95,8|0,0:0|0:0,0:0:0:0:
304,84,315345,1,0,0:0:0:0:
356,232,315516,1,0,0:0:0:0:
356,232,315602,1,0,0:0:0:0:
356,232,315688,1,8,0:0:0:0:
200,120,315859,1,0,0:0:0:0:
384,136,316030,6,0,P|399:78|384:32,1,95,0|0,0:0|0:0,0:0:0:0:
240,288,316373,1,8,0:0:0:0:
364,268,316545,1,0,0:0:0:0:
364,268,316630,1,0,0:0:0:0:
364,268,316716,2,0,L|484:256,1,95
192,196,317059,1,8,0:0:0:0:
136,348,317230,1,0,0:0:0:0:
136,348,317316,1,0,0:0:0:0:
136,348,317402,5,0,0:0:0:0:
284,208,317573,1,0,0:0:0:0:
88,180,317745,2,0,L|-8:196,1,95,8|0,0:0|0:0,0:0:0:0:
264,104,318088,2,0,L|357:88,1,95
504,220,318430,1,8,0:0:0:0:
368,296,318602,1,0,0:0:0:0:
368,296,318688,1,0,0:0:0:0:
368,296,318773,6,0,L|360:348,3,47.5,0|0|2|0,0:0|0:0|0:2|0:0,0:0:0:0:
272,276,319116,2,0,L|279:229,3,47.5,8|0|2|0,0:0|0:0|0:2|0:0,0:0:0:0:
180,296,319459,2,0,L|172:348,3,47.5,0|0|2|0,0:0|0:0|0:2|0:0,0:0:0:0:
84,276,319802,2,0,L|91:229,3,47.5,8|0|2|0,0:0|0:0|0:2|0:0,0:0:0:0:
108,124,320145,5,0,0:0:0:0:
144,96,320230,1,0,0:0:0:0:
188,80,320316,1,2,0:2:0:0:
236,80,320402,1,0,0:0:0:0:
284,88,320488,1,8,0:0:0:0:
324,112,320573,1,0,0:0:0:0:
372,120,320659,1,2,0:2:0:0:
420,116,320745,1,0,0:0:0:0:
456,84,320830,1,0,0:0:0:0:
502,73,320916,1,0,0:0:0:0:
507,26,321002,1,2,0:2:0:0:
463,6,321088,1,0,0:0:0:0:
431,42,321173,1,8,0:0:0:0:
428,88,321259,1,0,0:0:0:0:
448,132,321345,1,2,0:2:0:0:
484,164,321430,1,0,0:0:0:0:
504,208,321516,5,2,1:2:0:0:
500,264,321602,1,0,1:0:0:0:
468,312,321688,1,2,1:2:0:0:
416,332,321773,1,0,1:0:0:0:
364,328,321859,1,10,1:2:0:0:
316,300,321945,1,0,1:0:0:0:
288,252,322030,1,2,1:2:0:0:
288,196,322116,1,0,1:0:0:0:
316,144,322202,1,2,1:2:0:0:
316,88,322288,1,0,1:0:0:0:
284,40,322373,1,2,1:2:0:0:
232,16,322459,1,0,1:0:0:0:
176,16,322545,1,10,1:2:0:0:
128,48,322630,1,0,1:0:0:0:
100,96,322716,1,2,1:2:0:0:
100,152,322802,1,0,1:0:0:0:
128,200,322888,5,4,0:0:0:0:
396,224,323230,2,0,P|415:181|413:134,1,95,0|0,0:0|0:0,0:0:0:0:
360,56,323573,1,0,0:0:0:0:
360,56,323745,1,0,0:0:0:0:
288,248,323916,2,0,L|276:344,1,95
200,192,324259,5,0,0:0:0:0:
192,176,324345,1,0,0:0:0:0:
184,160,324430,1,0,0:0:0:0:
176,144,324516,1,0,0:0:0:0:
168,128,324602,2,0,L|72:104,1,95,0|0,0:0|0:0,0:0:0:0:
204,296,324945,2,0,P|252:304|312:282,1,95
420,136,325288,1,0,0:0:0:0:
428,152,325630,5,0,0:0:0:0:
256,192,325716,12,0,331116,0:0:0:0:
