osu file format v14

[General]
AudioFilename: mp333.mp3
AudioLeadIn: 0
PreviewTime: 137199
Countdown: 0
SampleSet: Soft
StackLeniency: 0.7
Mode: 0
LetterboxInBreaks: 0
WidescreenStoryboard: 1

[Editor]
Bookmarks: 177512,183137
DistanceSpacing: 0.8
BeatDivisor: 4
GridSize: 4
TimelineZoom: 1.4

[Metadata]
Title:Ashita e no Euphony
TitleUnicode:明日へのEuphony
Artist:Oumae Kumiko(CV.Kurosawa Tomoyo)
ArtistUnicode:黄前久美子(CV.黒沢ともよ)
Creator:Setz
Version:Insane
Source:響け!ユーフォニアム
Tags:Hibike! Ephonium character song sound! ZAQ A Mystery A_Mystery Xinely
BeatmapID:736103
BeatmapSetID:332485

[Difficulty]
HPDrainRate:7
CircleSize:4
OverallDifficulty:8
ApproachRate:9
SliderMultiplier:1.6
SliderTickRate:2

[Events]
//Background and Video events
0,0,"euphonium_y00.jpg",0,0
//Break Periods
2,177712,182724
//Storyboard Layer 0 (Background)
//Storyboard Layer 1 (Fail)
//Storyboard Layer 2 (Pass)
//Storyboard Layer 3 (Foreground)
Sprite,Foreground,Centre,"SB/ring.png",320,240 M,0,78512,,164,291 C,0,78512,,255,128,0 S,0,78512,78887,0.205517,0.9823446 F,0,78699,78887,1,0
Sprite,Foreground,Centre,"SB/ring.png",320,240 M,0,75512,,240,331 C,0,75512,,255,255,128 S,0,75512,75887,0.205517,0.9823438 F,0,75684,75887,1,0
Sprite,Foreground,Centre,"SB/ring.png",320,240 M,0,81512,,366,104 C,0,81512,,128,64,64 S,0,81512,81887,0.205517,1.10593 F,0,81699,81887,1,0 F,0,81887,,0
Sprite,Foreground,Centre,"SB/ring.png",320,240 M,0,87512,,423,162 C,0,87512,,128,128,192 S,0,87512,87887,0.205517,1.211861 F,0,87699,87887,1,0
Sprite,Foreground,Centre,"SB/ring.png",320,240 M,0,89012,,424,370 C,0,89012,,128,64,64 S,0,89012,89387,0.205517,1.123586 F,0,89199,89387,1,0
Sprite,Foreground,Centre,"SB/ring.png",320,240 M,0,90512,,221,122 C,0,90512,,255,255,128 S,0,90512,90887,0.205517,0.9911721 F,0,90699,90887,1,0
Sprite,Foreground,Centre,"SB/ring.png",320,240 M,0,93512,,100,371 C,0,93512,,255,128,0 S,0,93512,93887,0.205517,1.079448 F,0,93699,93887,1,0
Sprite,Foreground,Centre,"SB/ring.png",320,240 M,0,138512,,117,278 C,0,138512,,255,128,64 S,0,138512,138887,0.2673106,0.9470348 F,0,138699,138887,1,0
Sprite,Foreground,Centre,"SB/ring.png",320,240 M,0,144512,,332,164 C,0,144512,,255,128,128 S,0,144512,144887,0.2673106,0.9470348 F,0,144699,144887,1,0
Sprite,Foreground,Centre,"SB/ring.png",320,240 M,0,147512,,455,138 C,0,147512,,128,128,192 S,0,147512,147887,0.205517,1.211861 F,0,147699,147887,1,0
Sprite,Foreground,Centre,"SB/ring.png",320,240 M,0,150512,,315,343 C,0,150512,,255,255,128 S,0,150512,150887,0.205517,0.9823438 F,0,150684,150887,1,0
Sprite,Foreground,Centre,"SB/ring.png",320,240 M,0,156512,,418,162 C,0,156512,,128,64,64 S,0,156512,156887,0.205517,1.10593 F,0,156699,156887,1,0 F,0,156887,,0
Sprite,Foreground,Centre,"SB/ring.png",320,240 M,0,158012,,374,392 C,0,158012,,255,255,128 S,0,158012,158387,0.205517,0.9823438 F,0,158184,158387,1,0
Sprite,Foreground,Centre,"SB/ring.png",320,240 M,0,159512,,452,205 C,0,159512,,255,128,128 S,0,159512,159887,0.2673106,0.9470348 F,0,159699,159887,1,0
Sprite,Foreground,Centre,"SB/ring.png",320,240 M,0,161012,,164,380 C,0,161012,,255,128,64 S,0,161012,161387,0.2673106,0.9470348 F,0,161199,161387,1,0
Sprite,Foreground,Centre,"SB/ring.png",320,240 M,0,197012,,307,170 C,0,197012,,255,255,128 S,0,197012,197387,0.205517,0.9823438 F,0,197184,197387,1,0
Sprite,Foreground,Centre,"SB/ring.png",320,240 M,0,198324,,108,223 C,0,198324,,255,128,128 S,0,198324,198699,0.2673106,0.9470348 F,0,198511,198699,1,0
Sprite,Foreground,Centre,"SB/ring.png",320,240 M,0,200012,,390,130 C,0,200012,,255,128,64 S,0,200012,200387,0.2673106,0.9470348 F,0,200199,200387,1,0
Sprite,Foreground,Centre,"SB/ring.png",320,240 M,0,203012,,301,186 C,0,203012,,128,64,64 S,0,203012,203387,0.205517,1.10593 F,0,203199,203387,1,0 F,0,203387,,0
Sprite,Foreground,Centre,"SB/ring.png",320,240 M,0,206012,,220,140 C,0,206012,,255,128,128 S,0,206012,206387,0.2673106,0.9470348 F,0,206199,206387,1,0
Sprite,Foreground,Centre,"SB/ring.png",320,240 M,0,209012,,320,99 C,0,209012,,128,128,192 S,0,209012,209387,0.205517,1.211861 F,0,209199,209387,1,0
Sprite,Foreground,Centre,"SB/ring.png",320,240 M,0,212012,,303,369 C,0,212012,,255,255,128 S,0,212012,212387,0.205517,0.9823438 F,0,212184,212387,1,0
Sprite,Foreground,Centre,"SB/ring.png",320,240 M,0,218012,,504,246 C,0,218012,,128,64,64 S,0,218012,218387,0.205517,1.10593 F,0,218199,218387,1,0 F,0,218387,,0
Sprite,Foreground,Centre,"SB/ring.png",320,240 M,0,219512,,305,163 C,0,219512,,255,255,128 S,0,219512,219887,0.205517,0.9823438 F,0,219684,219887,1,0
Sprite,Foreground,Centre,"SB/ring.png",320,240 M,0,220637,,422,414 C,0,220637,,255,255,128 S,0,220637,221012,0.205517,0.9823438 F,0,220809,221012,1,0
Sprite,Foreground,Centre,"SB/ring.png",320,240 M,0,215012,,272,141 C,0,215012,,255,128,64 S,0,215012,215387,0.2673106,0.9470348 F,0,215199,215387,1,0
Sprite,Foreground,Centre,"SB/ring.png",320,240 M,0,216512,,477,418 C,0,216512,,128,128,192 S,0,216512,216887,0.205517,1.211861 F,0,216699,216887,1,0
Sprite,Foreground,Centre,"SB/ring.png",320,240 M,0,69512,,218,241 C,0,69512,,255,128,128 S,0,69512,69887,0.205517,1.158896 F,0,69699,69887,1,0
Sprite,Foreground,Centre,"SB/ring.png",320,240 M,0,92012,,438,376 C,0,92012,,255,128,128 S,0,92012,92387,0.205517,0.9911721 F,0,92199,92387,1,0
//Storyboard Sound Samples

[TimingPoints]
512,375,4,2,4,70,1,0
4637,-133.333333333333,4,2,4,70,0,0
18137,-111.111111111111,4,2,4,80,0,0
30512,-117.647058823529,4,2,4,80,0,0
54512,-133.333333333333,4,2,4,80,0,0
60512,-111.111111111111,4,2,4,80,0,0
69512,-100,4,2,4,70,0,1
81418,-100,4,2,4,70,0,0
81512,-100,4,2,4,70,0,1
93418,-100,4,2,4,5,0,1
93512,-117.647058823529,4,2,4,45,0,0
99512,-111.111111111111,4,2,4,70,0,0
100824,-200,4,2,4,70,0,0
101574,-111.111111111111,4,2,4,70,0,0
103824,-133.333333333333,4,2,4,70,0,0
104387,-111.111111111111,4,2,4,50,0,0
105512,-111.111111111111,4,2,4,70,0,0
106824,-133.333333333333,4,2,4,70,0,0
107387,-111.111111111111,4,2,4,70,0,0
108512,-200,4,2,4,70,0,0
110012,-111.111111111111,4,2,4,70,0,0
110762,-111.111111111111,4,2,4,45,0,0
111137,-111.111111111111,4,2,4,70,0,0
123512,-133.333333333333,4,2,4,70,0,0
129512,-111.111111111111,4,2,4,70,0,0
138512,-100,4,2,4,70,0,1
150418,-100,4,2,4,70,0,0
150512,-100,4,2,4,70,0,1
162512,-100,4,2,4,70,0,0
164480,-100,4,2,4,30,0,0
164762,-100,4,2,4,40,0,0
165137,-100,4,2,4,50,0,0
165512,-105.263157894737,4,2,4,70,0,0
167105,-105.263157894737,4,2,4,20,0,0
167199,-105.263157894737,4,2,4,70,0,0
170105,-105.263157894737,4,2,4,20,0,0
170199,-105.263157894737,4,2,4,70,0,0
183324,-111.111111111111,4,2,4,70,0,0
191012,-133.333333333333,4,2,4,70,0,0
191762,-111.111111111111,4,2,4,40,0,0
192137,-111.111111111111,4,2,4,50,0,0
192512,-111.111111111111,4,2,4,70,0,0
194012,-111.111111111111,4,2,4,20,0,0
195512,-111.111111111111,4,2,4,70,0,0
197012,-100,4,2,4,70,0,1
199918,-100,4,2,4,70,0,0
200012,-100,4,2,4,70,0,1
202449,-100,4,2,4,55,0,1
203012,-100,4,2,4,70,0,1
208918,-100,4,2,4,70,0,0
209012,-100,4,2,4,70,0,1
221012,-125,4,2,4,50,0,0
224574,-125,4,2,4,35,0,0
225887,-125,4,2,4,50,0,0
229637,-125,4,2,4,45,0,0
230012,-105.263157894737,4,2,4,50,0,0
232074,-100,4,2,4,50,0,0
233012,-100,4,2,4,5,0,0

[Colours]
Combo1 : 106,106,181
Combo2 : 169,84,84
Combo3 : 255,255,128
Combo4 : 255,72,72
Combo5 : 221,111,0

[HitObjects]
223,231,4637,6,0,L|228:160,1,60.0000022888184
163,288,5012,6,0,P|213:314|283:287,1,120.000004577637,2|0,0:0|0:0,0:0:0:0:
369,254,5574,2,0,L|443:247,1,60.0000022888184,0|2,0:0|0:0,0:0:0:0:
465,123,5949,2,0,L|405:117,1,60.0000022888184
315,177,6324,1,0,0:0:0:0:
252,55,6512,6,0,P|195:19|141:24,1,120.000004577637,2|0,0:0|0:0,0:0:0:0:
175,116,7074,1,0,0:0:0:0:
64,176,7262,1,2,0:0:0:0:
64,176,7637,2,0,L|-8:168,1,60.0000022888184
140,251,8012,6,0,P|174:282|256:274,1,120.000004577637,2|0,0:0|0:0,0:0:0:0:
322,219,8574,2,0,L|325:158,1,60.0000022888184,0|2,0:0|0:0,0:0:0:0:
431,101,8949,2,0,L|428:160,1,60.0000022888184
322,219,9324,1,0,0:0:0:0:
390,329,9512,6,0,P|324:350|270:335,1,120.000004577637,2|0,0:0|0:0,0:0:0:0:
183,274,10074,1,0,0:0:0:0:
322,219,10262,1,2,0:0:0:0:
322,219,10637,2,0,L|384:213,1,60.0000022888184
274,281,11012,6,0,P|245:226|268:160,1,120.000004577637,2|0,0:0|0:0,0:0:0:0:
373,115,11574,1,0,0:0:0:0:
261,39,11762,2,0,L|138:25,1,120.000004577637,2|0,0:0|0:0,0:0:0:0:
188,149,12324,1,0,0:0:0:0:
60,198,12512,5,2,0:0:0:0:
60,198,12887,2,0,L|47:324,2,120.000004577637,0|2|0,0:0|0:0|0:0,0:0:0:0:
271,61,14012,6,0,P|342:36|437:90,1,180.000006866455,2|0,0:0|0:0,0:0:0:0:
341,152,14762,1,2,0:0:0:0:
341,152,15324,1,0,0:0:0:0:
468,205,15512,6,0,P|482:263|466:328,1,120.000004577637,2|0,0:0|0:0,0:0:0:0:
351,360,16074,2,0,P|263:343|184:381,1,180.000006866455
122,213,17012,5,8,0:0:0:0:
122,213,17105,1,8,0:0:0:0:
122,213,17199,1,8,0:3:0:0:
277,249,17387,1,4,0:3:0:0:
189,90,17574,1,8,0:0:0:0:
189,90,17667,1,8,0:0:0:0:
189,90,17762,1,8,0:3:0:0:
314,188,17949,1,4,0:3:0:0:
316,30,18137,1,10,0:0:0:0:
210,175,18324,1,2,0:0:0:0:
394,83,18512,6,0,P|440:113|460:200,1,143.999995605469,4|10,0:0|0:0,0:0:0:0:
369,341,19074,2,0,P|308:375|234:338,1,143.999995605469,2|2,0:0|0:0,0:0:0:0:
291,222,19637,2,0,L|301:293,1,71.9999978027344,8|0,0:0|0:0,0:0:0:0:
123,200,20012,6,0,L|104:53,1,143.999995605469,2|10,0:0|0:0,0:0:0:0:
276,2,20574,2,0,P|310:2|361:15,1,71.9999978027344,2|0,0:0|0:0,0:0:0:0:
300,116,20949,1,2,0:0:0:0:
446,66,21137,1,8,0:0:0:0:
380,193,21324,1,0,0:0:0:0:
233,69,21512,6,0,L|84:56,1,143.999995605469,2|10,0:0|0:0,0:0:0:0:
57,197,22074,2,0,P|49:226|47:270,1,71.9999978027344,2|0,0:0|0:0,0:0:0:0:
205,171,22449,2,0,P|213:142|215:98,1,71.9999978027344,2|8,0:0|0:0,0:0:0:0:
119,288,22824,6,0,P|174:327|255:314,1,143.999995605469,2|0,0:0|0:0,0:0:0:0:
337,214,23387,1,8,0:0:0:0:
200,229,23574,1,0,0:0:0:0:
307,360,23762,2,0,P|342:370|392:366,1,71.9999978027344
274,270,24137,1,10,0:0:0:0:
427,218,24324,1,2,0:0:0:0:
288,373,24512,6,0,P|215:357|175:303,1,143.999995605469,4|10,0:0|0:0,0:0:0:0:
269,173,25074,2,0,P|272:138|268:97,1,71.9999978027344,2|0,0:0|0:0,0:0:0:0:
349,244,25449,1,2,0:0:0:0:
175,206,25637,2,0,P|141:200|101:201,1,71.9999978027344,8|0,0:0|0:0,0:0:0:0:
258,328,26012,6,0,P|319:361|401:323,1,143.999995605469,2|10,0:0|0:0,0:0:0:0:
452,178,26574,1,2,0:0:0:0:
480,330,26762,1,0,0:0:0:0:
349,244,26949,1,2,0:0:0:0:
512,256,27137,1,8,0:0:0:0:
380,132,27324,1,0,0:0:0:0:
319,314,27512,6,0,P|245:318|178:277,1,143.999995605469,2|10,0:0|0:0,0:0:0:0:
136,165,28074,2,0,L|132:84,1,71.9999978027344,2|0,0:0|0:0,0:0:0:0:
8,59,28449,2,0,L|11:130,1,71.9999978027344,2|8,0:0|0:0,0:0:0:0:
238,209,28824,6,0,L|230:46,1,143.999995605469,2|2,0:0|0:0,0:0:0:0:
120,22,29387,1,10,0:0:0:0:
314,133,29574,1,2,0:0:0:0:
123,280,29762,2,0,P|84:283|52:266,1,71.9999978027344,2|0,0:0|0:0,0:0:0:0:
278,132,30137,2,0,P|317:129|348:145,1,71.9999978027344,10|0,0:0|0:0,0:0:0:0:
123,280,30512,6,0,P|130:203|153:128,1,136.000002593994,4|8,0:0|0:0,0:0:0:0:
240,58,31074,2,0,P|267:50|309:55,1,68.0000012969971,2|0,0:0|0:0,0:0:0:0:
280,199,31449,2,0,L|278:132,1,68.0000012969971,2|8,0:0|0:0,0:0:0:0:
426,0,31824,6,0,L|430:140,1,136.000002593994,2|0,0:0|0:0,0:0:0:0:
351,239,32387,1,8,0:0:0:0:
512,204,32574,1,2,0:0:0:0:
512,204,32668,1,0,0:0:0:0:
512,204,32762,1,2,0:0:0:0:
389,87,32949,1,0,0:0:0:0:
437,239,33137,1,10,0:0:0:0:
379,67,33324,1,0,0:0:0:0:
247,205,33512,6,0,P|228:265|235:344,1,136.000002593994,2|8,0:0|0:0,0:0:0:0:
351,239,34074,1,2,0:0:0:0:
243,133,34262,1,0,0:0:0:0:
374,58,34449,2,0,P|417:47|458:53,1,68.0000012969971,2|8,0:0|0:0,0:0:0:0:
294,222,34824,6,0,P|226:234|166:201,1,136.000002593994,2|0,0:0|0:0,0:0:0:0:
113,87,35387,1,8,0:0:0:0:
56,245,35574,1,2,0:0:0:0:
56,245,35668,1,0,0:0:0:0:
56,245,35762,2,0,P|51:281|50:340,1,68.0000012969971,2|0,0:0|0:0,0:0:0:0:
30,128,36137,2,0,P|25:92|24:33,1,68.0000012969971,10|0,0:0|0:0,0:0:0:0:
162,208,36512,6,0,P|229:229|300:219,1,136.000002593994,2|8,0:0|0:0,0:0:0:0:
435,170,37074,1,2,0:0:0:0:
362,291,37262,1,0,0:0:0:0:
296,138,37449,2,0,L|294:59,1,68.0000012969971,2|8,0:0|0:0,0:0:0:0:
234,228,37824,6,0,P|171:254|88:221,1,136.000002593994,2|2,0:0|0:0,0:0:0:0:
165,138,38387,1,8,0:0:0:0:
21,215,38574,1,2,0:0:0:0:
21,215,38668,1,0,0:0:0:0:
21,215,38762,1,2,0:0:0:0:
86,62,38949,1,0,0:0:0:0:
107,237,39137,1,10,0:0:0:0:
262,149,39324,1,0,0:0:0:0:
310,330,39512,6,0,P|367:362|445:350,1,136.000002593994,2|8,0:0|0:0,0:0:0:0:
505,224,40074,1,2,0:0:0:0:
505,224,40168,1,0,0:0:0:0:
505,224,40262,2,0,P|511:180|509:134,1,68.0000012969971,0|2,0:0|0:0,0:0:0:0:
436,78,40637,1,8,0:0:0:0:
360,155,40824,1,2,0:0:0:0:
294,67,41012,5,2,0:0:0:0:
427,220,41199,1,2,0:0:0:0:
367,48,41387,1,10,0:0:0:0:
291,207,41574,1,2,0:0:0:0:
291,207,41668,1,0,0:0:0:0:
291,207,41762,1,8,0:0:0:0:
467,154,41949,1,2,0:0:0:0:
322,21,42137,1,10,0:0:0:0:
363,249,42324,1,2,0:0:0:0:
359,277,42418,1,2,0:0:0:0:
355,304,42512,6,0,P|288:321|219:291,1,136.000002593994,4|8,0:0|0:0,0:0:0:0:
117,223,43074,2,0,P|88:213|35:224,1,68.0000012969971,2|0,0:0|0:0,0:0:0:0:
134,373,43449,2,0,P|163:383|216:372,1,68.0000012969971,2|8,0:0|0:0,0:0:0:0:
293,234,43824,6,0,P|315:163|286:86,1,136.000002593994,2|2,0:0|0:0,0:0:0:0:
184,163,44387,1,8,0:0:0:0:
289,27,44574,1,2,0:0:0:0:
289,27,44668,1,0,0:0:0:0:
289,27,44762,1,2,0:0:0:0:
340,178,44949,1,0,0:0:0:0:
154,192,45137,1,10,0:0:0:0:
323,96,45324,1,0,0:0:0:0:
370,291,45512,6,0,P|447:331|515:323,1,136.000002593994,2|8,0:0|0:0,0:0:0:0:
420,162,46074,2,0,P|389:144|340:142,1,68.0000012969971,2|0,0:0|0:0,0:0:0:0:
242,212,46449,2,0,P|242:247|239:294,1,68.0000012969971,2|8,0:0|0:0,0:0:0:0:
199,120,46824,6,0,P|134:84|66:93,1,136.000002593994,2|2,0:0|0:0,0:0:0:0:
115,197,47387,1,8,0:0:0:0:
154,54,47574,1,2,0:0:0:0:
154,54,47668,1,2,0:0:0:0:
154,54,47762,1,2,0:0:0:0:
259,173,47949,1,2,0:0:0:0:
306,10,48137,1,10,0:0:0:0:
165,138,48324,1,2,0:0:0:0:
332,296,48512,6,0,L|479:304,1,136.000002593994,2|8,0:0|0:0,0:0:0:0:
371,142,49074,2,0,L|358:217,1,68.0000012969971,2|0,0:0|0:0,0:0:0:0:
508,109,49449,2,0,L|495:34,1,68.0000012969971,2|8,0:0|0:0,0:0:0:0:
418,241,49824,6,0,P|353:257|292:230,1,136.000002593994,2|2,0:0|0:0,0:0:0:0:
224,96,50387,1,8,0:0:0:0:
192,260,50574,1,2,0:0:0:0:
192,260,50668,1,0,0:0:0:0:
192,260,50762,1,2,0:0:0:0:
304,130,50949,1,0,0:0:0:0:
287,287,51137,1,8,0:0:0:0:
150,154,51324,1,0,0:0:0:0:
163,347,51512,6,0,P|225:372|314:354,1,136.000002593994,4|8,0:0|0:0,0:0:0:0:
406,314,52074,1,2,0:0:0:0:
281,178,52262,2,0,P|270:111|294:34,1,136.000002593994,4|8,0:0|0:0,0:0:0:0:
353,229,52824,1,0,0:0:0:0:
353,229,52918,1,0,0:0:0:0:
353,229,53012,6,0,P|315:252|281:255,1,68.0000012969971,4|0,0:0|0:0,0:0:0:0:
150,177,53387,1,8,0:0:0:0:
323,116,53574,1,0,0:0:0:0:
323,116,53668,1,0,0:0:0:0:
323,116,53762,1,2,0:0:0:0:
233,299,53949,1,8,0:3:0:0:
426,234,54137,1,4,0:3:0:0:
245,180,54324,1,0,0:0:0:0:
369,341,54512,6,0,P|422:379|486:366,1,120.000004577637,6|0,0:0|0:0,0:0:0:0:
512,253,55074,1,0,0:0:0:0:
421,141,55262,2,0,P|368:103|304:116,1,120.000004577637,8|0,0:0|0:0,0:0:0:0:
232,208,55824,1,0,0:0:0:0:
232,208,55918,1,0,0:0:0:0:
232,208,56012,6,0,P|220:267|226:338,1,120.000004577637,2|2,0:0|0:0,0:0:0:0:
344,247,56574,1,0,0:0:0:0:
257,121,56762,1,10,0:0:0:0:
427,113,56949,1,0,0:0:0:0:
304,186,57137,1,2,0:0:0:0:
376,41,57324,1,0,0:0:0:0:
376,41,57418,1,0,0:0:0:0:
376,41,57512,6,0,P|451:29|494:56,1,120.000004577637,4|0,0:0|0:0,0:0:0:0:
389,140,58074,1,0,0:0:0:0:
480,231,58262,2,0,P|487:292|479:356,1,120.000004577637,8|0,0:0|0:0,0:0:0:0:
350,279,58824,1,0,0:0:0:0:
350,279,58918,1,0,0:0:0:0:
350,279,59012,6,0,P|284:256|221:281,1,120.000004577637,2|2,0:0|0:0,0:0:0:0:
340,378,59574,1,0,0:0:0:0:
288,204,59762,1,2,0:0:0:0:
197,342,59949,1,0,0:0:0:0:
311,169,60137,1,2,0:0:0:0:
418,351,60324,1,0,0:0:0:0:
418,351,60418,1,0,0:0:0:0:
418,351,60512,6,0,P|458:359|499:345,1,71.9999978027344,4|0,0:0|0:0,0:0:0:0:
381,201,60887,1,8,0:0:0:0:
274,333,61074,1,0,0:0:0:0:
202,157,61262,1,2,0:0:0:0:
208,125,61355,1,2,0:0:0:0:
223,97,61449,1,2,0:0:0:0:
246,74,61543,1,2,0:0:0:0:
275,59,61637,1,10,0:0:0:0:
307,52,61730,1,2,0:0:0:0:
339,56,61824,1,2,0:0:0:0:
369,68,61918,1,2,0:0:0:0:
398,80,62012,6,0,P|436:86|482:85,1,71.9999978027344,4|0,0:0|0:0,0:0:0:0:
311,177,62387,1,8,0:0:0:0:
406,6,62574,1,0,0:0:0:0:
484,209,62762,1,2,0:0:0:0:
492,240,62855,1,2,0:0:0:0:
492,272,62949,1,2,0:0:0:0:
479,301,63043,1,2,0:0:0:0:
462,325,63137,1,10,0:0:0:0:
435,342,63230,1,2,0:0:0:0:
403,348,63324,1,2,0:0:0:0:
371,342,63418,1,2,0:0:0:0:
340,331,63512,5,4,0:0:0:0:
311,177,63699,1,0,0:0:0:0:
230,293,63887,1,8,0:0:0:0:
393,250,64074,1,0,0:0:0:0:
217,200,64262,5,0,0:0:0:0:
322,93,64449,1,0,0:0:0:0:
309,271,64637,1,8,0:0:0:0:
212,111,64824,1,0,0:0:0:0:
335,294,65012,5,4,0:0:0:0:
443,143,65199,1,2,0:0:0:0:
443,143,65293,1,2,0:0:0:0:
443,143,65387,2,0,P|478:131|517:138,1,71.9999978027344,10|0,0:0|0:0,0:0:0:0:
359,273,65762,1,2,0:0:0:0:
275,119,65949,1,2,0:0:0:0:
275,119,66043,1,2,0:0:0:0:
275,119,66137,2,0,L|275:40,1,71.9999978027344,10|0,0:0|0:0,0:0:0:0:
204,198,66512,5,8,0:0:0:0:
412,39,66699,1,8,0:0:0:0:
359,273,67074,5,8,0:0:0:0:
213,46,67262,1,8,0:0:0:0:
421,172,67637,5,8,0:0:0:0:
159,116,67824,1,8,0:0:0:0:
159,116,68199,5,2,0:0:0:0:
50,182,68387,1,2,0:0:0:0:
221,199,68574,1,2,0:0:0:0:
54,303,68762,1,2,0:0:0:0:
245,371,68949,1,0,0:0:0:0:
245,371,69043,1,0,0:0:0:0:
245,371,69137,2,0,P|278:381|345:378,1,71.9999978027344,8|0,0:0|0:0,0:0:0:0:
154,185,69512,6,0,P|65:168|11:214,1,160,4|8,0:0|0:0,0:0:0:0:
102,338,70074,2,0,L|94:258,1,80
208,99,70449,2,0,P|245:86|306:90,1,80,0|8,0:0|0:0,0:0:0:0:
142,203,70824,1,0,0:0:0:0:
163,25,71012,5,0,0:0:0:0:
262,164,71199,1,0,0:0:0:0:
97,111,71387,1,10,0:0:0:0:
221,257,71574,2,0,L|227:342,1,80,0|2,0:0|0:0,0:0:0:0:
111,266,71949,1,0,0:0:0:0:
296,321,72137,1,10,0:0:0:0:
98,247,72324,1,0,0:0:0:0:
259,82,72512,6,0,P|333:59|397:103,1,160,2|8,0:0|0:0,0:0:0:0:
493,254,73074,2,0,P|502:213|504:170,1,80
340,25,73449,2,0,P|331:66|329:109,1,80,0|8,0:0|0:0,0:0:0:0:
394,233,73824,1,0,0:0:0:0:
242,172,74012,5,0,0:0:0:0:
409,104,74199,1,0,0:0:0:0:
429,294,74387,1,10,0:0:0:0:
315,120,74574,1,0,0:0:0:0:
266,306,74762,2,0,P|259:344|273:390,1,80,2|0,0:0|0:0,0:0:0:0:
317,213,75137,1,10,0:0:0:0:
403,364,75324,1,0,0:0:0:0:
176,275,75512,6,0,P|96:260|18:251,1,160,4|8,0:0|0:0,0:0:0:0:
131,373,76074,1,0,0:0:0:0:
242,201,76262,2,0,L|236:114,1,80
117,40,76637,1,8,0:0:0:0:
295,14,76824,1,0,0:0:0:0:
330,7,76918,1,0,0:0:0:0:
365,0,77012,6,0,P|407:-1|449:21,1,80,2|0,0:0|0:0,0:0:0:0:
351,205,77387,2,0,P|309:206|267:184,1,80,10|0,0:0|0:0,0:0:0:0:
135,48,77762,2,0,L|143:135,1,80,2|0,0:0|0:0,0:0:0:0:
275,190,78137,1,8,0:0:0:0:
100,235,78324,1,0,0:0:0:0:
100,235,78418,1,0,0:0:0:0:
100,235,78512,5,4,0:0:0:0:
220,128,78699,1,2,0:0:0:0:
191,283,78887,1,10,0:0:0:0:
92,141,79074,1,2,0:0:0:0:
216,317,79262,1,2,0:0:0:0:
315,114,79449,1,2,0:0:0:0:
358,269,79637,1,10,0:0:0:0:
181,202,79824,1,0,0:0:0:0:
385,63,80012,6,0,P|429:62|471:73,1,80,2|8,0:0|0:0,0:0:0:0:
464,71,80293,1,8,0:0:0:0:
464,71,80387,1,8,0:0:0:0:
266,181,80574,2,0,L|260:142,2,40,2|2|2,0:0|0:0|0:0,0:0:0:0:
282,213,80855,1,8,0:3:0:0:
313,230,80949,1,4,0:3:0:0:
346,243,81043,1,4,0:3:0:0:
381,250,81137,2,0,P|425:251|467:240,1,80,8|0,0:0|0:0,0:0:0:0:
302,48,81512,6,0,P|227:32|153:74,1,160,4|8,0:0|0:0,0:0:0:0:
63,190,82074,2,0,L|67:271,1,80
245,190,82449,2,0,L|241:110,1,80,0|8,0:0|0:0,0:0:0:0:
147,275,82824,1,0,0:0:0:0:
326,199,83012,5,0,0:0:0:0:
237,333,83199,1,0,0:0:0:0:
211,155,83387,1,10,0:0:0:0:
222,346,83574,2,0,P|182:360|142:353,1,80,0|2,0:0|0:0,0:0:0:0:
46,291,83949,1,0,0:0:0:0:
209,246,84137,1,10,0:0:0:0:
101,130,84324,1,0,0:0:0:0:
145,354,84512,6,0,P|223:350|284:272,1,160,2|8,0:0|0:0,0:0:0:0:
389,143,85074,2,0,L|401:231,1,80
203,125,85449,2,0,L|213:45,1,80,0|8,0:0|0:0,0:0:0:0:
367,7,85824,1,0,0:0:0:0:
293,173,86012,5,0,0:0:0:0:
280,10,86199,1,0,0:0:0:0:
125,118,86387,1,10,0:0:0:0:
244,264,86574,2,0,P|280:276|338:268,1,80,0|2,0:0|0:0,0:0:0:0:
433,230,86949,1,0,0:0:0:0:
293,173,87137,1,10,0:0:0:0:
353,351,87324,1,0,0:0:0:0:
359,106,87512,6,0,P|291:79|213:125,1,160,4|8,0:0|0:0,0:0:0:0:
364,245,88074,1,0,0:0:0:0:
434,81,88262,2,0,P|438:41|429:-3,1,80
287,81,88637,1,8,0:0:0:0:
364,245,88824,1,0,0:0:0:0:
364,281,88918,1,0,0:0:0:0:
363,317,89012,6,0,P|321:333|277:326,1,80,4|0,0:0|0:0,0:0:0:0:
215,168,89387,2,0,P|257:152|301:159,1,80,8|0,0:0|0:0,0:0:0:0:
159,275,89762,2,0,P|79:289|-10:297,1,160,2|10,0:0|0:0,0:0:0:0:
117,127,90324,1,0,0:0:0:0:
134,95,90418,1,0,0:0:0:0:
157,66,90512,6,0,P|242:37|305:67,1,160,4|8,0:0|0:0,0:0:0:0:
218,231,91074,1,0,0:0:0:0:
375,112,91262,2,0,P|390:72|374:27,1,80,2|0,0:0|0:0,0:0:0:0:
449,181,91637,1,8,0:0:0:0:
374,320,91824,1,0,0:0:0:0:
374,320,91918,1,0,0:0:0:0:
374,320,92012,6,0,P|297:343|229:299,1,160,4|8,0:0|0:0,0:0:0:0:
300,102,92574,2,0,P|336:170|311:244,1,160,2|0,0:0|0:0,0:0:0:0:
164,334,93137,2,0,P|101:358|42:335,1,120,10|0,0:0|0:0,0:0:0:0:
36,315,93512,6,0,P|34:276|37:241,1,68.0000012969971,4|2,0:0|0:0,0:0:0:0:
132,156,93887,1,10,0:0:0:0:
132,156,93980,1,8,0:0:0:0:
132,156,94074,2,0,P|171:137|205:138,1,68.0000012969971,10|8,0:0|0:0,0:0:0:0:
310,244,94449,2,0,P|278:260|245:263,1,68.0000012969971,10|8,0:0|0:0,0:0:0:0:
336,155,94824,1,2,0:0:0:0:
336,155,95199,5,10,0:0:0:0:
217,49,95387,1,10,0:0:0:0:
204,229,95574,2,0,L|217:311,1,68.0000012969971,2|8,0:0|0:0,0:0:0:0:
244,146,95949,1,2,0:0:0:0:
244,146,96324,1,8,0:0:0:0:
424,92,96512,5,4,0:0:0:0:
348,196,96699,1,2,0:0:0:0:
273,58,96887,1,2,0:0:0:0:
213,236,97074,1,10,0:0:0:0:
213,236,97168,1,8,0:0:0:0:
213,236,97262,1,8,0:0:0:0:
315,126,97449,2,0,P|351:118|401:141,1,68.0000012969971,2|8,0:0|0:0,0:0:0:0:
295,265,97824,1,2,0:0:0:0:
231,147,98012,5,8,0:0:0:0:
231,147,98105,1,8,0:0:0:0:
231,147,98199,1,8,0:0:0:0:
180,311,98387,2,0,P|247:310|294:264,1,136.000002593994,8|8,0:0|0:0,0:0:0:0:
302,272,99324,1,8,0:0:0:0:
302,272,99418,1,8,0:0:0:0:
302,272,99512,6,0,B|336:206|336:206|310:120,1,143.999995605469,4|8,0:0|0:0,0:0:0:0:
384,73,100074,2,0,P|319:97|244:68,1,143.999995605469,2|0,0:0|0:0,0:0:0:0:
132,100,100637,1,8,0:0:0:0:
200,201,100824,6,0,L|184:325,1,120,2|0,0:0|0:0,0:0:0:0:
88,230,101574,5,8,0:0:0:0:
88,230,101668,1,8,0:0:0:0:
88,230,101762,1,8,0:0:0:0:
269,298,101949,1,4,0:3:0:0:
210,127,102137,2,0,L|217:43,1,71.9999978027344,4|0,0:0|0:0,0:0:0:0:
284,190,102512,6,0,P|361:215|428:177,1,143.999995605469,0|8,0:0|0:0,0:0:0:0:
350,117,103074,2,0,L|358:272,1,143.999995605469,2|0,0:0|0:0,0:0:0:0:
253,326,103637,1,8,0:0:0:0:
150,259,103824,38,0,P|85:250|22:284,1,120.000004577637,2|0,0:0|0:0,0:0:0:0:
176,351,104387,37,2,0:0:0:0:
256,199,104574,1,8,0:3:0:0:
256,199,104668,1,8,0:3:0:0:
256,199,104762,1,10,0:3:0:0:
276,339,104949,1,4,0:3:0:0:
134,176,105137,1,4,0:0:0:0:
323,160,105324,1,0,0:0:0:0:
181,254,105512,6,0,B|109:270|109:270|52:218,1,143.999995605469,2|8,0:0|0:0,0:0:0:0:
86,99,106074,2,0,B|158:83|158:83|215:135,1,143.999995605469,2|0,0:0|0:0,0:0:0:0:
275,234,106637,1,10,0:0:0:0:
403,149,106824,6,0,P|414:91|413:11,1,120.000004577637,2|0,0:0|0:0,0:0:0:0:
296,95,107387,5,10,0:0:0:0:
359,244,107574,1,0,0:0:0:0:
359,244,107668,1,0,0:0:0:0:
359,244,107762,2,0,P|392:251|435:242,1,71.9999978027344,2|0,0:0|0:0,0:0:0:0:
299,169,108137,1,4,0:0:0:0:
246,298,108324,1,0,0:0:0:0:
173,147,108512,54,0,L|169:19,1,120,6|2,0:0|0:0,0:0:0:0:
169,27,109824,1,2,0:0:0:0:
383,93,110199,37,2,0:0:0:0:
388,97,110387,1,2,0:0:0:0:
393,101,110574,1,2,0:0:0:0:
258,202,110762,1,4,0:3:0:0:
255,234,110855,1,4,0:3:0:0:
250,266,110949,1,4,0:3:0:0:
246,298,111043,1,4,0:3:0:0:
241,330,111137,1,6,0:0:0:0:
344,194,111324,1,2,0:0:0:0:
344,194,111418,1,2,0:0:0:0:
344,194,111512,6,0,P|295:125|219:125,1,143.999995605469,4|8,0:0|0:0,0:0:0:0:
110,179,112074,2,0,L|95:255,1,71.9999978027344,2|0,0:0|0:0,0:0:0:0:
241,330,112449,2,0,L|254:259,1,71.9999978027344,2|8,0:0|0:0,0:0:0:0:
333,90,112824,6,0,P|409:85|474:133,1,143.999995605469,2|0,0:0|0:0,0:0:0:0:
379,196,113387,1,10,0:0:0:0:
491,316,113574,1,0,0:0:0:0:
491,316,113668,1,0,0:0:0:0:
491,316,113762,1,2,0:0:0:0:
302,291,113949,1,0,0:0:0:0:
479,211,114137,1,10,0:0:0:0:
382,381,114324,1,0,0:0:0:0:
294,186,114512,6,0,P|298:114|312:30,1,143.999995605469,2|8,0:0|0:0,0:0:0:0:
405,95,115074,2,0,P|402:131|393:180,1,71.9999978027344,2|0,0:0|0:0,0:0:0:0:
199,83,115449,2,0,P|201:47|207:11,1,71.9999978027344,2|8,0:0|0:0,0:0:0:0:
306,231,115824,6,0,P|360:273|438:270,1,143.999995605469,2|0,0:0|0:0,0:0:0:0:
396,166,116387,1,8,0:0:0:0:
220,237,116574,1,2,0:0:0:0:
220,237,116668,1,2,0:0:0:0:
220,237,116762,1,2,0:0:0:0:
362,318,116949,1,2,0:0:0:0:
284,144,117137,1,10,0:0:0:0:
268,335,117324,1,2,0:0:0:0:
465,231,117512,6,0,P|482:169|444:71,1,143.999995605469,2|8,0:0|0:0,0:0:0:0:
333,43,118074,2,0,P|294:30|248:43,1,71.9999978027344,2|0,0:0|0:0,0:0:0:0:
282,191,118449,2,0,L|288:119,1,71.9999978027344,2|8,0:0|0:0,0:0:0:0:
218,267,118824,6,0,P|282:292|362:247,1,143.999995605469,2|0,0:0|0:0,0:0:0:0:
400,108,119387,1,10,0:0:0:0:
473,238,119574,1,2,0:0:0:0:
473,238,119668,1,0,0:0:0:0:
473,238,119762,1,2,0:0:0:0:
497,56,119949,1,0,0:0:0:0:
389,195,120137,1,10,0:0:0:0:
263,63,120324,1,0,0:0:0:0:
314,253,120512,6,0,P|389:291|457:260,1,143.999995605469,4|8,0:0|0:0,0:0:0:0:
470,124,121074,1,2,0:0:0:0:
382,291,121262,2,0,P|340:327|246:290,1,143.999995605469,4|10,0:0|0:0,0:0:0:0:
337,131,121824,1,0,0:0:0:0:
337,131,121918,1,0,0:0:0:0:
337,131,122012,6,0,P|364:113|419:115,1,71.9999978027344,4|0,0:0|0:0,0:0:0:0:
314,253,122387,1,8,0:0:0:0:
212,100,122574,1,2,0:0:0:0:
212,100,122668,1,2,0:0:0:0:
212,100,122762,1,10,0:3:0:0:
402,109,122949,1,8,0:3:0:0:
206,199,123137,1,4,0:3:0:0:
292,48,123324,1,4,0:3:0:0:
314,253,123512,6,0,P|366:291|424:287,1,120.000004577637,4|0,0:0|0:0,0:0:0:0:
499,193,124074,1,0,0:0:0:0:
397,83,124262,2,0,P|345:45|287:49,1,120.000004577637,8|0,0:0|0:0,0:0:0:0:
163,118,124824,1,0,0:0:0:0:
163,118,124918,1,0,0:0:0:0:
163,118,125012,6,0,L|47:85,1,120.000004577637,2|2,0:0|0:0,0:0:0:0:
196,18,125574,1,0,0:0:0:0:
240,157,125762,1,10,0:0:0:0:
334,45,125949,1,0,0:0:0:0:
334,45,126043,1,0,0:0:0:0:
334,45,126137,1,2,0:0:0:0:
184,98,126324,1,0,0:0:0:0:
331,191,126512,6,0,P|396:205|465:223,1,120.000004577637,4|0,0:0|0:0,0:0:0:0:
461,348,127074,1,0,0:0:0:0:
329,253,127262,2,0,P|333:186|367:127,1,120.000004577637,8|0,0:0|0:0,0:0:0:0:
463,69,127824,1,0,0:0:0:0:
463,69,127918,1,0,0:0:0:0:
463,69,128012,6,0,P|420:30|341:30,1,120.000004577637,2|2,0:0|0:0,0:0:0:0:
415,170,128574,1,0,0:0:0:0:
267,200,128762,1,10,0:0:0:0:
318,87,128949,1,0,0:0:0:0:
318,87,129043,1,0,0:0:0:0:
318,87,129137,1,10,0:0:0:0:
392,254,129324,1,0,0:0:0:0:
392,254,129418,1,0,0:0:0:0:
392,254,129512,6,0,P|391:292|379:350,1,71.9999978027344,4|0,0:0|0:0,0:0:0:0:
326,157,129887,1,8,0:0:0:0:
477,238,130074,1,0,0:0:0:0:
317,354,130262,1,2,0:0:0:0:
285,361,130355,1,2,0:0:0:0:
252,356,130449,1,2,0:0:0:0:
221,344,130543,1,2,0:0:0:0:
196,323,130637,1,10,0:0:0:0:
178,296,130730,1,2,0:0:0:0:
166,265,130824,1,2,0:0:0:0:
159,233,130918,1,2,0:0:0:0:
142,205,131012,6,0,P|98:197|56:201,1,71.9999978027344,4|0,0:0|0:0,0:0:0:0:
264,271,131387,1,8,0:0:0:0:
223,94,131574,1,0,0:0:0:0:
352,242,131762,1,2,0:0:0:0:
381,253,131855,1,2,0:0:0:0:
413,248,131949,1,2,0:0:0:0:
438,228,132043,1,2,0:0:0:0:
454,200,132137,1,10,0:0:0:0:
463,169,132230,1,2,0:0:0:0:
466,137,132324,1,2,0:0:0:0:
466,104,132418,1,2,0:0:0:0:
464,71,132512,5,4,0:0:0:0:
339,13,132699,1,0,0:0:0:0:
315,152,132887,1,8,0:0:0:0:
214,32,133074,1,0,0:0:0:0:
390,95,133262,5,0,0:0:0:0:
233,129,133449,1,0,0:0:0:0:
365,237,133637,1,8,0:0:0:0:
284,42,133824,1,2,0:0:0:0:
284,42,133918,1,2,0:0:0:0:
284,42,134012,6,0,P|240:33|194:33,1,71.9999978027344,6|0,0:0|0:0,0:0:0:0:
294,226,134387,2,0,P|338:235|384:235,1,71.9999978027344,8|0,0:0|0:0,0:0:0:0:
233,129,134762,1,2,0:0:0:0:
152,257,134949,1,2,0:0:0:0:
152,257,135043,1,2,0:0:0:0:
152,257,135137,2,0,P|144:298|146:340,1,71.9999978027344,10|0,0:0|0:0,0:0:0:0:
82,169,135512,5,8,0:0:0:0:
256,357,135699,1,8,0:0:0:0:
78,344,136074,5,8,0:0:0:0:
233,129,136262,1,8,0:0:0:0:
338,13,136637,5,8,0:0:0:0:
233,255,136824,1,8,0:0:0:0:
233,255,137199,5,2,0:0:0:0:
377,218,137387,1,10,0:0:0:0:
156,182,137574,1,2,0:0:0:0:
299,323,137762,2,0,L|302:356,4,17.9999994506836,2|0|0|0|0,0:0|0:0|0:0|0:0|0:0,0:0:0:0:
240,128,138137,2,0,L|231:44,1,71.9999978027344,8|0,0:0|0:0,0:0:0:0:
53,222,138512,6,0,L|68:391,1,160,4|8,0:0|0:0,0:0:0:0:
219,270,139074,2,0,L|205:191,1,80
383,95,139449,2,0,L|396:173,1,80,0|8,0:0|0:0,0:0:0:0:
324,316,139824,1,0,0:0:0:0:
487,218,140012,5,0,0:0:0:0:
308,174,140199,1,0,0:0:0:0:
428,337,140387,1,10,0:0:0:0:
385,175,140574,2,0,L|398:96,1,80,0|2,0:0|0:0,0:0:0:0:
505,25,140949,1,0,0:0:0:0:
322,52,141137,1,10,0:0:0:0:
402,205,141324,1,0,0:0:0:0:
248,42,141512,6,0,P|324:1|396:28,1,160,2|8,0:0|0:0,0:0:0:0:
337,179,142074,2,0,L|327:99,1,80
499,185,142449,2,0,L|489:265,1,80,0|8,0:0|0:0,0:0:0:0:
340,305,142824,1,0,0:0:0:0:
359,141,143012,5,0,0:0:0:0:
468,284,143199,1,0,0:0:0:0:
284,360,143387,1,10,0:0:0:0:
428,198,143574,1,0,0:0:0:0:
235,199,143762,2,0,P|196:202|155:227,1,80,2|0,0:0|0:0,0:0:0:0:
338,223,144137,1,10,0:0:0:0:
197,334,144324,1,0,0:0:0:0:
286,108,144512,6,0,P|350:66|437:117,1,160,4|8,0:0|0:0,0:0:0:0:
338,223,145074,1,0,0:0:0:0:
194,92,145262,2,0,P|162:79|107:87,1,80
235,199,145637,1,8,0:0:0:0:
325,37,145824,1,0,0:0:0:0:
325,37,145918,1,0,0:0:0:0:
325,37,146012,6,0,P|369:34|411:47,1,80,2|0,0:0|0:0,0:0:0:0:
390,207,146387,2,0,P|367:174|356:136,1,80,10|0,0:0|0:0,0:0:0:0:
506,66,146762,2,0,P|489:102|461:130,1,80,2|0,0:0|0:0,0:0:0:0:
284,108,147137,1,10,0:0:0:0:
345,268,147324,1,0,0:0:0:0:
391,82,147512,5,4,0:0:0:0:
258,184,147699,1,2,0:0:0:0:
300,34,147887,1,10,0:0:0:0:
398,175,148074,1,2,0:0:0:0:
284,11,148262,1,2,0:0:0:0:
229,201,148449,1,2,0:0:0:0:
133,48,148637,1,10,0:0:0:0:
310,115,148824,1,0,0:0:0:0:
104,243,149012,6,0,P|60:244|18:233,1,80,2|8,0:0|0:0,0:0:0:0:
25,235,149293,1,8,0:0:0:0:
25,235,149387,1,8,0:0:0:0:
133,48,149574,2,0,L|138:0,2,40,2|2|2,0:0|0:0|0:0,0:0:0:0:
161,70,149855,1,8,0:3:0:0:
194,82,149949,1,4,0:3:0:0:
230,83,150043,1,4,0:3:0:0:
265,74,150137,2,0,P|302:58|350:60,1,80,8|0,0:0|0:0,0:0:0:0:
251,287,150512,6,0,P|184:330|106:310,1,160,4|8,0:0|0:0,0:0:0:0:
156,153,151074,2,0,L|168:233,1,80
297,366,151449,2,0,P|334:373|384:370,1,80,0|8,0:0|0:0,0:0:0:0:
300,199,151824,1,0,0:0:0:0:
189,344,152012,5,0,0:0:0:0:
130,176,152199,1,0,0:0:0:0:
276,292,152387,1,10,0:0:0:0:
339,112,152574,2,0,P|378:93|433:97,1,80,0|2,0:0|0:0,0:0:0:0:
509,175,152949,1,0,0:0:0:0:
458,23,153137,1,8,0:0:0:0:
381,216,153324,1,0,0:0:0:0:
279,33,153512,6,0,P|206:13|135:57,1,160,2|8,0:0|0:0,0:0:0:0:
234,193,154074,2,0,L|218:114,1,80
49,21,154449,2,0,L|33:99,1,80,0|8,0:0|0:0,0:0:0:0:
159,256,154824,6,0,P|229:291|311:257,1,160,2|0,0:0|0:0,0:0:0:0:
409,174,155387,1,10,0:0:0:0:
258,37,155574,2,0,L|240:115,1,80,0|2,0:0|0:0,0:0:0:0:
333,200,155949,1,0,0:0:0:0:
157,117,156137,1,8,0:0:0:0:
245,311,156324,1,0,0:0:0:0:
354,106,156512,6,0,P|423:87|499:157,1,160,4|8,0:0|0:0,0:0:0:0:
383,261,157074,1,0,0:0:0:0:
263,130,157262,2,0,P|223:126|170:147,1,80
94,230,157637,1,8,0:0:0:0:
243,360,157824,1,0,0:0:0:0:
278,352,157918,1,0,0:0:0:0:
310,336,158012,6,0,P|315:296|311:233,1,80,4|0,0:0|0:0,0:0:0:0:
163,117,158387,2,0,P|158:157|162:220,1,80,8|0,0:0|0:0,0:0:0:0:
333,356,158762,2,0,P|413:374|492:341,1,160,2|8,0:0|0:0,0:0:0:0:
388,149,159324,1,0,0:0:0:0:
388,149,159418,1,0,0:0:0:0:
388,149,159512,6,0,P|313:122|237:140,1,160,4|8,0:0|0:0,0:0:0:0:
163,276,160074,1,0,0:0:0:0:
65,99,160262,2,0,P|55:59|66:13,1,80,2|0,0:0|0:0,0:0:0:0:
9,189,160637,1,8,0:0:0:0:
100,324,160824,1,0,0:0:0:0:
100,324,160918,1,0,0:0:0:0:
100,324,161012,6,0,P|153:353|236:308,1,160,4|8,0:0|0:0,0:0:0:0:
323,143,161574,2,0,P|259:100|188:129,1,160,2|2,0:0|0:0,0:0:0:0:
348,258,162137,1,8,0:0:0:0:
231,48,162512,5,8,0:0:0:0:
289,303,162699,1,8,0:0:0:0:
398,91,163074,5,8,0:0:0:0:
140,170,163262,1,8,0:0:0:0:
381,207,163637,5,8,0:0:0:0:
144,82,163824,1,8,0:0:0:0:
317,54,164199,5,8,0:0:0:0:
197,294,164387,2,0,L|192:344,3,40,8|8|8|8,0:0|0:0|0:0|0:0,0:0:0:0:
262,199,164762,2,8,L|257:149,3,40
327,294,165137,1,8,0:0:0:0:
361,304,165230,1,8,0:0:0:0:
397,305,165324,1,8,0:0:0:0:
431,294,165418,1,8,0:0:0:0:
461,275,165512,6,0,P|473:200|461:115,1,151.999995941162,4|8,0:0|0:0,0:0:0:0:
325,60,166074,1,2,0:0:0:0:
325,60,166168,1,2,0:0:0:0:
325,60,166262,1,2,0:0:0:0:
387,197,166449,1,2,0:0:0:0:
466,38,166637,1,10,0:0:0:0:
282,154,166824,6,0,P|203:164|157:158,1,113.999996955872,2|0,0:0|0:0,0:0:0:0:
133,132,167199,1,2,0:0:0:0:
149,270,167387,1,10,0:0:0:0:
224,83,167574,1,2,0:0:0:0:
224,83,167668,1,0,0:0:0:0:
224,83,167762,2,0,P|262:76|315:74,1,75.9999979705811
398,167,168137,1,8,0:0:0:0:
276,323,168324,1,0,0:0:0:0:
276,323,168418,1,0,0:0:0:0:
276,323,168512,6,0,P|334:286|425:300,1,151.999995941162,2|10,0:0|0:0,0:0:0:0:
511,187,169074,2,0,P|509:149|493:98,1,75.9999979705811,2|0,0:0|0:0,0:0:0:0:
350,257,169449,2,0,P|340:293|338:331,1,75.9999979705811,2|8,0:0|0:0,0:0:0:0:
432,141,169824,6,0,P|383:102|322:104,1,113.999996955872,2|0,0:0|0:0,0:0:0:0:
296,127,170199,1,2,0:0:0:0:
192,29,170387,1,10,0:0:0:0:
195,202,170574,1,2,0:0:0:0:
305,48,170762,1,2,0:0:0:0:
359,185,170949,1,2,0:0:0:0:
168,224,171137,1,8,0:0:0:0:
255,23,171324,1,2,0:0:0:0:
291,266,171512,6,0,P|369:292|445:246,1,151.999995941162,4|8,0:0|0:0,0:0:0:0:
369,110,172074,1,2,0:0:0:0:
369,110,172168,1,2,0:0:0:0:
369,110,172262,1,2,0:0:0:0:
507,200,172449,1,2,0:0:0:0:
326,256,172637,1,10,0:0:0:0:
456,82,172824,6,0,P|394:22|326:29,1,151.999995941162,2|2,0:0|0:0,0:0:0:0:
253,157,173387,1,8,0:0:0:0:
402,260,173574,1,2,0:0:0:0:
402,260,173668,1,0,0:0:0:0:
402,260,173762,1,0,0:0:0:0:
369,110,173949,1,2,0:0:0:0:
309,282,174137,1,10,0:0:0:0:
241,79,174324,1,2,0:0:0:0:
433,186,174512,6,0,P|466:111|438:38,1,151.999995941162,2|4,0:0|0:0,0:0:0:0:
307,170,175074,2,0,P|281:173|231:147,1,75.9999979705811,2|0,0:0|0:0,0:0:0:0:
204,38,175449,1,2,0:0:0:0:
210,236,175637,1,4,0:0:0:0:
294,65,175824,6,0,P|373:69|432:115,1,151.999995941162,2|8,0:0|0:0,0:0:0:0:
429,111,176293,1,8,0:0:0:0:
429,111,176387,1,8,0:0:0:0:
318,252,176574,1,10,0:0:0:0:
318,252,176668,1,10,0:0:0:0:
318,252,176762,2,0,P|312:292|319:339,1,75.9999979705811,10|0,0:0|0:0,0:0:0:0:
261,158,177137,2,0,P|267:118|260:71,1,75.9999979705811,10|0,0:0|0:0,0:0:0:0:
130,202,177512,5,2,0:0:0:0:
148,180,183324,5,2,0:0:0:0:
148,180,183418,1,2,0:0:0:0:
148,180,183512,2,0,P|185:172|230:177,1,71.9999978027344,6|2,0:3|0:0,0:0:0:0:
320,250,183887,1,2,0:0:0:0:
271,106,184074,1,10,0:0:0:0:
271,106,184168,1,8,0:0:0:0:
271,106,184262,1,6,0:3:0:0:
187,250,184449,1,2,0:0:0:0:
345,168,184637,1,2,0:0:0:0:
345,168,185012,5,6,0:3:0:0:
260,306,185199,1,2,0:0:0:0:
173,150,185387,2,0,P|140:139|101:138,1,71.9999978027344,10|2,0:0|0:0,0:0:0:0:
187,250,185762,1,10,0:0:0:0:
264,99,185949,1,2,0:0:0:0:
76,142,186137,1,2,0:0:0:0:
245,191,186324,1,8,0:0:0:0:
245,191,186418,1,8,0:0:0:0:
245,191,186512,5,6,0:3:0:0:
287,16,186699,1,2,0:0:0:0:
384,173,186887,1,10,0:0:0:0:
175,108,187074,2,0,P|171:179|192:263,1,143.999995605469,6|10,0:3|0:0,0:0:0:0:
330,347,187637,1,10,0:0:0:0:
459,171,187824,2,0,P|395:126|328:129,1,143.999995605469,6|10,0:3|0:0,0:0:0:0:
172,182,188387,1,8,0:0:0:0:
347,56,188574,2,0,P|367:124|371:196,1,143.999995605469,6|2,0:3|0:0,0:0:0:0:
256,270,189137,1,8,0:0:0:0:
180,190,189324,1,8,0:0:0:0:
180,190,189418,1,8,0:0:0:0:
180,190,189512,5,4,0:0:0:0:
252,109,189699,1,2,0:0:0:0:
153,64,189887,1,2,0:0:0:0:
260,196,190074,1,2,0:0:0:0:
305,27,190262,1,2,0:0:0:0:
129,132,190449,1,2,0:0:0:0:
335,164,190637,1,2,0:0:0:0:
208,347,190824,1,2,0:0:0:0:
207,113,191012,6,0,P|114:51|50:151,1,240.000009155274,2|10,0:0|0:0,0:0:0:0:
48,166,191855,1,8,0:0:0:0:
46,198,191948,1,8,0:0:0:0:
48,230,192042,1,8,0:0:0:0:
53,262,192136,1,8,0:0:0:0:
84,272,192230,1,8,0:0:0:0:
116,273,192323,1,8,0:0:0:0:
147,263,192417,1,8,0:0:0:0:
172,242,192512,5,8,0:0:0:0:
91,5,192699,1,8,0:0:0:0:
291,127,193074,5,8,0:0:0:0:
46,198,193261,1,8,0:0:0:0:
210,364,193637,5,8,0:0:0:0:
291,127,193824,1,8,0:0:0:0:
256,192,194012,12,0,195512,0:0:0:0:
291,55,195699,6,0,P|295:91|291:127,1,71.9999978027344
193,203,196074,1,0,0:0:0:0:
193,203,196168,1,0,0:0:0:0:
193,203,196262,2,0,P|189:238|193:274,1,71.9999978027344,0|8,0:0|0:0,0:0:0:0:
213,299,196543,1,8,0:0:0:0:
239,318,196637,2,0,P|274:327|328:317,1,71.9999978027344,8|0,0:0|0:0,0:0:0:0:
243,114,197012,6,0,B|155:95|155:95|116:169,1,160,6|8,0:0|0:0,0:0:0:0:
22,273,197574,2,0,P|98:254|189:313,1,160,2|2,0:0|0:0,0:0:0:0:
88,369,198137,1,8,0:0:0:0:
44,167,198324,6,0,B|58:88|58:88|109:24,1,160,4|0,0:0|0:0,0:0:0:0:
243,114,198887,1,8,0:0:0:0:
117,229,199074,1,8,0:3:0:0:
117,229,199168,1,8,0:3:0:0:
117,229,199262,1,8,0:3:0:0:
314,284,199449,1,10,0:3:0:0:
315,247,199543,1,2,0:0:0:0:
320,211,199637,1,10,0:3:0:0:
321,175,199730,1,2,0:0:0:0:
323,138,199824,1,10,0:3:0:0:
326,102,199918,1,2,0:0:0:0:
326,65,200012,6,0,P|247:17|182:38,1,160,4|8,0:0|0:0,0:0:0:0:
231,193,200574,2,0,L|243:109,1,80
84,20,200949,2,0,L|72:99,1,80,0|8,0:0|0:0,0:0:0:0:
212,263,201324,6,0,P|289:276|375:285,1,160,2|0,0:0|0:0,0:0:0:0:
458,156,201887,1,10,0:0:0:0:
403,369,202074,1,0,0:0:0:0:
318,191,202262,1,2,0:0:0:0:
503,298,202449,1,8,0:0:0:0:
503,298,202543,1,8,0:0:0:0:
503,298,202637,1,10,0:0:0:0:
286,364,202824,1,8,0:0:0:0:
237,130,203012,6,0,P|309:89|383:113,1,160,4|8,0:0|0:0,0:0:0:0:
420,263,203574,1,0,0:0:0:0:
243,209,203762,2,0,L|236:118,1,80
365,58,204137,1,8,0:0:0:0:
190,23,204324,1,0,0:0:0:0:
155,33,204418,1,0,0:0:0:0:
128,54,204512,6,0,P|125:98|138:140,1,80,2|0,0:0|0:0,0:0:0:0:
298,119,204887,2,0,P|265:96|227:85,1,80,10|0,0:0|0:0,0:0:0:0:
157,235,205262,2,0,P|193:218|221:190,1,80,2|0,0:0|0:0,0:0:0:0:
290,24,205637,1,10,0:0:0:0:
336,203,205824,1,0,0:0:0:0:
156,84,206012,5,4,0:0:0:0:
85,260,206199,1,2,0:0:0:0:
85,260,206293,1,2,0:0:0:0:
85,260,206387,1,10,0:0:0:0:
22,134,206574,1,2,0:0:0:0:
191,215,206762,1,2,0:0:0:0:
222,54,206949,1,2,0:0:0:0:
270,288,207137,1,10,0:0:0:0:
156,84,207324,6,0,P|72:83|19:145,1,160,2|8,0:0|0:0,0:0:0:0:
172,247,207887,1,8,0:0:0:0:
256,43,208074,2,0,L|250:-17,2,40,2|2|2,0:0|0:0|0:0,0:0:0:0:
280,69,208355,1,8,0:0:0:0:
314,79,208449,1,8,0:0:0:0:
457,22,208637,1,8,0:0:0:0:
405,222,208824,1,0,0:0:0:0:
256,43,209012,6,0,P|178:41|101:81,1,160,4|8,0:0|0:0,0:0:0:0:
35,233,209574,2,0,P|24:193|22:149,1,80
171,8,209949,2,0,P|182:48|184:92,1,80,0|8,0:0|0:0,0:0:0:0:
109,196,210324,1,0,0:0:0:0:
24,66,210512,5,0,0:0:0:0:
202,158,210699,2,0,P|242:162|285:162,1,80,0|10,0:0|0:0,0:0:0:0:
92,211,211074,2,0,P|52:215|9:215,1,80,0|2,0:0|0:0,0:0:0:0:
125,93,211449,1,0,0:0:0:0:
176,252,211637,1,10,0:0:0:0:
275,71,211824,1,0,0:0:0:0:
239,313,212012,6,0,P|164:339|96:288,1,160,4|8,0:0|0:0,0:0:0:0:
28,136,212574,2,0,L|10:221,1,80
176,252,212949,2,0,L|192:173,1,80,2|10,0:0|0:0,0:0:0:0:
120,56,213324,1,2,0:0:0:0:
281,145,213512,5,0,0:0:0:0:
110,184,213699,1,0,0:0:0:0:
241,317,213887,1,10,0:0:0:0:
375,186,214074,2,0,P|383:149|370:92,1,80,0|2,0:0|0:0,0:0:0:0:
325,0,214449,1,0,0:0:0:0:
281,145,214637,1,10,0:0:0:0:
453,70,214824,1,0,0:0:0:0:
208,85,215012,6,0,P|187:155|239:228,1,160,4|8,0:0|0:0,0:0:0:0:
344,275,215574,1,0,0:0:0:0:
190,361,215762,2,0,P|149:365|110:359,1,80
231,223,216137,1,8,0:0:0:0:
347,383,216324,1,0,0:0:0:0:
382,379,216418,1,0,0:0:0:0:
413,362,216512,6,0,P|426:321|415:271,1,80,4|0,0:0|0:0,0:0:0:0:
306,138,216887,2,0,L|225:129,1,80,8|0,0:0|0:0,0:0:0:0:
351,313,217262,2,0,L|524:328,1,160,2|8,0:0|0:0,0:0:0:0:
440,190,217824,1,0,0:0:0:0:
440,190,217918,1,0,0:0:0:0:
440,190,218012,6,0,P|361:130|296:143,1,160,4|8,0:0|0:0,0:0:0:0:
216,260,218574,1,0,0:0:0:0:
129,90,218762,2,0,P|131:45|141:7,1,80,2|2,0:0|0:0,0:0:0:0:
46,168,219137,1,8,0:0:0:0:
241,107,219324,1,0,0:0:0:0:
241,107,219418,1,0,0:0:0:0:
241,107,219512,6,0,P|306:98|404:93,1,160,6|0,0:0|0:0,0:0:0:0:
241,280,220074,2,0,P|176:289|78:294,1,160,2|2,0:0|0:0,0:0:0:0:
358,358,220637,1,4,0:0:0:0:
358,358,221012,6,0,P|416:359|483:318,1,128,6|2,0:3|0:0,0:0:0:0:
395,247,221574,1,2,0:0:0:0:
460,152,221762,1,4,0:3:0:0:
344,50,221949,2,0,L|217:32,1,128,10|2,0:0|0:0,0:0:0:0:
96,73,222512,5,4,0:3:0:0:
182,143,222699,1,2,0:0:0:0:
272,41,222887,1,8,0:0:0:0:
242,200,223074,1,2,0:0:0:0:
158,69,223262,2,0,P|97:63|32:96,1,128,8|0,0:0|0:0,0:0:0:0:
124,201,223824,1,2,0:0:0:0:
124,201,223918,1,2,0:0:0:0:
124,201,224012,6,0,P|185:207|250:174,1,128,6|2,0:3|0:0,0:0:0:0:
292,61,224574,2,0,L|284:8,2,32,10|8|4,0:0|0:0|0:3,0:0:0:0:
380,155,224949,1,10,0:0:0:0:
386,179,225043,1,8,0:0:0:0:
391,204,225137,1,8,0:0:0:0:
396,228,225230,1,8,0:0:0:0:
401,253,225324,1,10,0:0:0:0:
405,278,225418,1,8,0:0:0:0:
410,303,225512,5,4,0:3:0:0:
415,327,225605,1,8,0:0:0:0:
419,352,225699,1,10,0:0:0:0:
301,305,225887,1,8,0:0:0:0:
475,251,226074,1,2,0:0:0:0:
309,178,226262,2,0,P|246:165|173:194,1,128,10|8,0:0|0:0,0:0:0:0:
163,201,226730,1,8,0:0:0:0:
141,220,226824,1,10,0:0:0:0:
123,242,226918,1,10,0:0:0:0:
110,267,227012,6,0,L|97:132,1,128,6|2,0:3|0:0,0:0:0:0:
165,45,227574,1,10,0:0:0:0:
165,45,227668,1,8,0:0:0:0:
165,45,227762,2,0,P|202:33|239:32,1,64,4|2,0:3|0:0,0:0:0:0:
286,142,228137,1,0,0:0:0:0:
331,17,228324,1,0,0:0:0:0:
376,184,228512,6,0,L|388:252,1,64,6|0,0:3|0:0,0:0:0:0:
205,158,228887,2,0,L|217:90,1,64,10|0,0:0|0:0,0:0:0:0:
289,273,229262,2,0,L|301:341,1,64,10|0,0:0|0:0,0:0:0:0:
468,259,229637,1,10,0:0:0:0:
469,224,229730,1,8,0:0:0:0:
469,188,229824,1,8,0:0:0:0:
468,152,229918,1,8,0:0:0:0:
466,113,230012,6,0,L|390:100,1,75.9999979705811,4|0,0:0|0:0,0:0:0:0:
241,73,230387,1,10,0:0:0:0:
318,237,230574,2,0,L|311:314,1,75.9999979705811,4|0,0:0|0:0,0:0:0:0:
390,131,230949,2,0,L|383:54,1,75.9999979705811,4|0,0:0|0:0,0:0:0:0:
446,254,231324,1,8,0:0:0:0:
446,254,231699,1,4,0:0:0:0:
188,152,232074,5,8,0:0:0:0:
318,237,232262,2,0,B|292:246|297:281|331:287|344:260|344:260|350:215|330:106|330:106|375:108|411:134,1,320,4|0,0:0|0:0,0:0:0:0:
