osu file format v14

[General]
AudioFilename: mp333.mp3
AudioLeadIn: 0
PreviewTime: 137199
Countdown: 0
SampleSet: Soft
StackLeniency: 0.7
Mode: 0
LetterboxInBreaks: 0
WidescreenStoryboard: 1

[Editor]
Bookmarks: 30512,54512,81512,99512,123512,150512,177512,183137,209012
DistanceSpacing: 1.3
BeatDivisor: 4
GridSize: 4
TimelineZoom: 1.4

[Metadata]
Title:Ashita e no Euphony
TitleUnicode:明日へのEuphony
Artist:Oumae Kumiko(CV.Kurosawa Tomoyo)
ArtistUnicode:黄前久美子(CV.黒沢ともよ)
Creator:Setz
Version:Collab Hard
Source:響け!ユーフォニアム
Tags:Hibike! Ephonium character song sound! ZAQ A Mystery A_Mystery Xinely
BeatmapID:750670
BeatmapSetID:332485

[Difficulty]
HPDrainRate:5
CircleSize:4
OverallDifficulty:6
ApproachRate:7
SliderMultiplier:1.4
SliderTickRate:2

[Events]
//Background and Video events
0,0,"euphonium_y00.jpg",0,0
//Break Periods
2,177712,182424
//Storyboard Layer 0 (Background)
//Storyboard Layer 1 (Fail)
//Storyboard Layer 2 (Pass)
//Storyboard Layer 3 (Foreground)
Sprite,Foreground,Centre,"SB/ring.png",320,240 M,0,69512,,184,263 C,0,69512,,255,255,0 F,0,69512,69887,1,0 S,0,69512,69887,0.2732904,1.057806
Sprite,Foreground,Centre,"SB/ring.png",320,240 M,0,75512,,271,331 C,0,75512,,128,64,64 F,0,75512,75887,1,0 S,0,75512,75887,0.2732904,1.057806
Sprite,Foreground,Centre,"SB/ring.png",320,240 M,0,78512,,490,307 C,0,78512,,255,128,128 F,0,78512,78887,1,0 S,0,78512,78887,0.2732904,1.057806
Sprite,Foreground,Centre,"SB/ring.png",320,240 M,0,81512,,419,311 C,0,81512,,128,128,192 F,0,81512,81887,1,0 S,0,81512,81887,0.2732904,1.057806
Sprite,Foreground,Centre,"SB/ring.png",320,240 M,0,87512,,533,269 C,0,87512,,255,128,0 F,0,87512,87887,1,0 S,0,87512,87887,0.2732904,1.057806
Sprite,Foreground,Centre,"SB/ring.png",320,240 M,0,89012,,345,374 C,0,89012,,128,128,192 F,0,89012,89387,1,0 S,0,89012,89387,0.2732904,1.057806
Sprite,Foreground,Centre,"SB/ring.png",320,240 M,0,90512,,356,232 C,0,90512,,128,64,64 F,0,90512,90887,1,0 S,0,90512,90887,0.2732904,1.057806
Sprite,Foreground,Centre,"SB/ring.png",320,240 M,0,92012,,349,201 C,0,92012,,255,255,0 F,0,92012,92387,1,0 S,0,92012,92387,0.2732904,1.057806
Sprite,Foreground,Centre,"SB/ring.png",320,240 M,0,93512,,441,222 C,0,93512,,255,128,128 F,0,93512,93887,1,0 S,0,93512,93887,0.2732904,1.057806
Sprite,Foreground,Centre,"SB/ring.png",320,240 M,0,138512,,396,209 C,0,138512,,255,128,0 F,0,138512,138887,1,0 S,0,138512,138887,0.2732904,1.057806
Sprite,Foreground,Centre,"SB/ring.png",320,240 M,0,144512,,524,316 C,0,144512,,255,128,128 F,0,144512,144887,1,0 S,0,144512,144887,0.2732904,1.057806
Sprite,Foreground,Centre,"SB/ring.png",320,240 M,0,147512,,168,141 C,0,147512,,128,128,255 F,0,147512,147887,1,0 S,0,147512,147887,0.2732904,1.057806
Sprite,Foreground,Centre,"SB/ring.png",320,240 M,0,150512,,253,170 C,0,150512,,255,255,0 F,0,150512,150887,1,0 S,0,150512,150887,0.2732904,1.057806
Sprite,Foreground,Centre,"SB/ring.png",320,240 M,0,156512,,175,331 C,0,156512,,128,64,64 F,0,156512,156887,1,0 S,0,156512,156887,0.2732904,1.057806
Sprite,Foreground,Centre,"SB/ring.png",320,240 M,0,158012,,401,191 C,0,158012,,255,255,0 F,0,158012,158387,1,0 S,0,158012,158387,0.2732904,1.057806
Sprite,Foreground,Centre,"SB/ring.png",320,240 M,0,159512,,456,249 C,0,159512,,255,128,128 F,0,159512,159887,1,0 S,0,159512,159887,0.2732904,1.057806
Sprite,Foreground,Centre,"SB/ring.png",320,240 M,0,161012,,242,168 C,0,161012,,255,128,0 F,0,161012,161387,1,0 S,0,161012,161387,0.2732904,1.057806
Sprite,Foreground,Centre,"SB/ring.png",320,240 M,0,197012,,415,99 C,0,197012,,128,64,64 F,0,197012,197387,1,0 S,0,197012,197387,0.2732904,1.057806
Sprite,Foreground,Centre,"SB/ring.png",320,240 M,0,200012,,323,402 C,0,200012,,255,128,128 F,0,200012,200387,1,0 S,0,200012,200387,0.2732904,1.057806
Sprite,Foreground,Centre,"SB/ring.png",320,240 M,0,203012,,315,205 C,0,203012,,128,128,192 F,0,203012,203387,1,0 S,0,203012,203387,0.2732904,1.057806
Sprite,Foreground,Centre,"SB/ring.png",320,240 M,0,206012,,239,367 C,0,206012,,255,255,0 F,0,206012,206387,1,0 S,0,206012,206387,0.2732904,1.057806
Sprite,Foreground,Centre,"SB/ring.png",320,240 M,0,209012,,554,289 C,0,209012,,255,128,0 F,0,209012,209387,1,0 S,0,209012,209387,0.2732904,1.057806
Sprite,Foreground,Centre,"SB/ring.png",320,240 M,0,212012,,235,310 C,0,212012,,128,64,64 F,0,212012,212387,1,0 S,0,212012,212387,0.2732904,1.057806
Sprite,Foreground,Centre,"SB/ring.png",320,240 M,0,215012,,300,277 C,0,215012,,255,128,128 F,0,215012,215387,1,0 S,0,215012,215387,0.2732904,1.057806
Sprite,Foreground,Centre,"SB/ring.png",320,240 M,0,216512,,405,192 C,0,216512,,255,128,0 F,0,216512,216887,1,0 S,0,216512,216887,0.2732904,1.057806
Sprite,Foreground,Centre,"SB/ring.png",320,240 M,0,218012,,375,317 C,0,218012,,128,128,192 F,0,218012,218387,1,0 S,0,218012,218387,0.2732904,1.057806
Sprite,Foreground,Centre,"SB/ring.png",320,240 M,0,219512,,270,269 C,0,219512,,128,64,64 F,0,219512,219887,1,0 S,0,219512,219887,0.2732904,1.057806
Sprite,Foreground,Centre,"SB/ring.png",320,240 M,0,220637,,116,379 C,0,220637,,128,64,64 F,0,220637,221012,1,0 S,0,220637,221012,0.2732904,1.057806
Sprite,Foreground,Centre,"bangsetz.png",320,240 F,0,4449,4637,0,1 M,0,4637,,23,292 S,0,4637,,0.7109677 F,0,4637,30137,1 F,0,30137,30512,1,0 F,0,30512,,0
Sprite,Foreground,Centre,"bakatery.png",320,240 F,0,30324,30512,0,1 M,0,30512,,64,408 S,0,30512,,0.5674481 F,0,30512,54137,1,0.9528756 F,0,54137,54512,0.9528756,0
Sprite,Foreground,Centre,"bangsetz.png",320,240 F,0,54137,54512,0,1 M,0,54512,,598,404 S,0,54512,,0.7086893 F,0,54512,81137,1,0.9894815 F,0,81137,81512,0.9894815,0
Sprite,Foreground,Centre,"bakatery.png",320,240 F,0,81137,81512,0,1 M,0,81512,,604,266 S,0,81512,,0.5674481 F,0,81512,99137,1,0.9869444 F,0,99137,99512,0.9869444,0
Sprite,Foreground,Centre,"bangsetz.png",320,240 F,0,99137,99512,0,1 M,0,99512,,23,395 S,0,99512,,0.7351723 F,0,99512,123137,1,0.9475 F,0,123137,123512,0.9475,0 F,0,123512,150137,0 F,0,150137,150512,0,1 F,0,150512,177137,1 F,0,177137,177512,1,0
Sprite,Foreground,Centre,"bakatery.png",320,240 F,0,123137,123512,0,1 M,0,123512,,606,416 S,0,123512,,0.5674481 F,0,123512,150137,1,0.9894815 F,0,150137,150512,0.9894815,0
Sprite,Foreground,Centre,"bakatery.png",320,240 F,0,183137,183512,0,1 M,0,183512,,14,291 S,0,183512,,0.6115862 F,0,183512,208637,1,0.9868627 F,0,208637,209012,0.9868627,0
Sprite,Foreground,Centre,"bangsetz.png",320,240 F,0,208637,209012,0,1 M,0,209012,,598,420 S,0,209012,,0.7440003 F,0,209012,232637,1,0.981625 F,0,232637,233012,0.981625,0
Sprite,Foreground,Centre,"SB/ring.png",320,240 M,0,198324,,451,320 C,0,198324,,255,255,0 F,0,198324,198699,1,0 S,0,198324,198699,0.2732904,1.057806
//Storyboard Sound Samples

[TimingPoints]
512,375,4,2,4,70,1,0
4637,-117.647058823529,4,2,4,70,0,0
18512,-100,4,2,4,80,0,0
30512,-105.263157894737,4,2,4,80,0,0
54512,-117.647058823529,4,2,4,80,0,0
60512,-105.263157894737,4,2,4,80,0,0
69512,-100,4,2,4,70,0,1
81418,-100,4,2,4,70,0,0
81512,-100,4,2,4,70,0,1
93512,-105.263157894737,4,2,4,45,0,0
99512,-111.111111111111,4,2,4,70,0,0
110762,-111.111111111111,4,2,4,45,0,0
111137,-111.111111111111,4,2,4,70,0,0
111512,-105.263157894737,4,2,4,70,0,0
123512,-117.647058823529,4,2,4,70,0,0
129512,-105.263157894737,4,2,4,70,0,0
138512,-100,4,2,4,70,0,1
150418,-100,4,2,4,70,0,0
150512,-100,4,2,4,70,0,1
162512,-100,4,2,4,70,0,0
164480,-100,4,2,4,30,0,0
164762,-100,4,2,4,40,0,0
165137,-100,4,2,4,50,0,0
165512,-105.263157894737,4,2,4,70,0,0
170105,-105.263157894737,4,2,4,20,0,0
170199,-105.263157894737,4,2,4,70,0,0
191012,-133.333333333333,4,2,4,70,0,0
191762,-105.263157894737,4,2,4,40,0,0
192137,-105.263157894737,4,2,4,50,0,0
192512,-105.263157894737,4,2,4,70,0,0
194012,-105.263157894737,4,2,4,20,0,0
195512,-105.263157894737,4,2,4,70,0,0
197012,-100,4,2,4,70,0,1
199918,-100,4,2,4,70,0,0
200012,-100,4,2,4,70,0,1
208918,-100,4,2,4,70,0,0
209012,-100,4,2,4,70,0,1
221012,-117.647058823529,4,2,4,50,0,0
229637,-117.647058823529,4,2,4,45,0,0
230012,-105.263157894737,4,2,4,50,0,0
233012,-105.263157894737,4,2,4,5,0,0

[Colours]
Combo1 : 106,106,181
Combo2 : 169,84,84
Combo3 : 255,255,128
Combo4 : 255,72,72
Combo5 : 221,111,0

[HitObjects]
120,328,4637,6,0,L|120:265,1,59.5000011348725
134,180,5012,6,0,P|183:150|259:170,1,119.000002269745,2|0,0:0|0:0,0:0:0:0:
316,206,5574,2,0,L|449:222,2,119.000002269745,0|0|0,0:0|0:0|0:0,0:0:0:0:
233,242,6512,6,0,L|217:363,2,119.000002269745,2|0|2,0:0|0:0|0:0,0:0:0:0:
96,126,7637,2,0,P|64:125|18:132,1,59.5000011348725,0|0,0:0|0:0,0:0:0:0:
172,94,8012,6,0,P|235:89|290:108,1,119.000002269745,2|0,0:0|0:0,0:0:0:0:
368,143,8574,2,0,L|487:134,2,119.000002269745,0|0|0,0:0|0:0|0:0,0:0:0:0:
303,205,9512,6,0,B|342:224|342:224|423:219,2,119.000002269745,2|0|2,0:0|0:0|0:0,0:0:0:0:
158,99,10637,2,0,L|160:32,1,59.5000011348725,0|0,0:0|0:0,0:0:0:0:
118,172,11012,6,0,P|77:248|130:336,1,178.500003404617,2|0,0:0|0:0,0:0:0:0:
173,250,11762,1,2,0:0:0:0:
316,143,12137,2,0,P|345:137|379:136,1,59.5000011348725,0|0,0:0|0:0,0:0:0:0:
460,161,12512,5,2,0:0:0:0:
426,336,12887,2,0,P|372:366|303:336,2,119.000002269745,0|2|0,0:0|0:0|0:0,0:0:0:0:
341,178,14012,6,0,P|259:138|183:189,1,178.500003404617,2|0,0:0|0:0,0:0:0:0:
265,228,14762,1,2,0:0:0:0:
456,41,15324,1,0,0:0:0:0:
456,41,15512,6,0,P|467:101|450:159,1,119.000002269745,2|0,0:0|0:0,0:0:0:0:
403,231,16074,2,0,P|335:283|236:262,1,178.500003404617,0|0,0:0|0:0,0:0:0:0:
118,146,17012,6,0,L|112:96,2,29.7500005674362,8|8|8,0:0|0:0|0:3,0:0:0:0:
61,215,17387,1,4,0:3:0:0:
112,287,17574,2,0,L|106:337,2,29.7500005674362,8|8|8,0:0|0:0|0:3,0:0:0:0:
188,240,17949,1,4,0:3:0:0:
267,281,18137,1,10,0:0:0:0:
310,203,18324,1,2,0:0:0:0:
244,143,18512,6,0,P|303:114|379:146,1,140,4|10,0:0|0:0,0:0:0:0:
440,194,19074,2,0,L|451:273,1,70,2|0,0:0|0:0,0:0:0:0:
401,340,19449,2,0,P|367:348|332:347,1,70,2|8,0:0|0:0,0:0:0:0:
267,281,19824,1,0,0:0:0:0:
345,186,20012,6,0,P|343:117|331:41,1,140,2|10,0:0|0:0,0:0:0:0:
247,14,20574,2,0,P|213:9|167:11,1,70,2|0,0:0|0:0,0:0:0:0:
126,120,20949,2,0,P|160:125|206:123,1,70,2|8,0:0|0:0,0:0:0:0:
282,95,21324,1,0,0:0:0:0:
242,195,21512,6,0,P|244:264|256:340,1,140,2|10,0:0|0:0,0:0:0:0:
338,369,22074,2,0,P|375:375|408:369,1,70,2|0,0:0|0:0,0:0:0:0:
471,305,22449,1,2,0:0:0:0:
410,236,22637,1,8,0:0:0:0:
484,183,22824,6,0,P|427:146|358:161,1,140,2|0,0:0|0:0,0:0:0:0:
279,203,23387,1,8,0:0:0:0:
188,146,23574,1,0,0:0:0:0:
211,240,23762,2,0,P|257:279|340:253,1,140,0|10,0:0|0:0,0:0:0:0:
406,213,24324,1,2,0:0:0:0:
278,202,24512,6,0,P|273:280|274:343,1,140,4|10,0:0|0:0,0:0:0:0:
357,377,25074,2,0,P|388:382|437:380,1,70,2|0,0:0|0:0,0:0:0:0:
477,274,25449,2,0,P|446:269|397:271,1,70,2|8,0:0|0:0,0:0:0:0:
320,295,25824,1,0,0:0:0:0:
363,193,26012,6,0,P|363:123|358:53,1,140,2|10,0:0|0:0,0:0:0:0:
254,16,26574,2,0,P|252:51|255:86,1,70,2|0,0:0|0:0,0:0:0:0:
283,173,26949,2,0,P|284:209|280:253,1,70,2|8,0:0|0:0,0:0:0:0:
216,306,27324,1,0,0:0:0:0:
315,367,27512,6,0,P|380:365|434:302,1,140,2|10,0:0|0:0,0:0:0:0:
439,223,28074,2,0,L|427:128,1,70,2|0,0:0|0:0,0:0:0:0:
332,62,28449,2,0,L|340:131,1,70,2|8,0:0|0:0,0:0:0:0:
368,241,28824,6,0,P|420:294|497:268,1,140,2|2,0:0|0:0,0:0:0:0:
509,198,29387,1,10,0:0:0:0:
438,141,29574,1,2,0:0:0:0:
349,161,29762,2,0,P|315:163|277:157,1,70,2|0,0:0|0:0,0:0:0:0:
199,111,30137,1,10,0:0:0:0:
253,271,30512,6,0,P|291:226|267:144,1,132.999996448517,4|8,0:0|0:0,0:0:0:0:
199,111,31074,2,0,L|111:123,1,66.4999982242585,2|0,0:0|0:0,0:0:0:0:
83,190,31449,2,0,L|171:202,1,66.4999982242585,2|8,0:0|0:0,0:0:0:0:
256,215,31824,6,0,B|267:281|267:281|251:317|267:362,1,132.999996448517,2|0,0:0|0:0,0:0:0:0:
346,323,32387,1,8,0:0:0:0:
428,297,32574,2,0,L|490:300,2,33.2499991121292,2|0|2,0:0|0:0|0:0,0:0:0:0:
363,239,32949,1,0,0:0:0:0:
299,180,33137,2,0,P|298:129|316:95,1,66.4999982242585,10|0,0:0|0:0,0:0:0:0:
363,239,33512,6,0,P|296:269|233:240,1,132.999996448517,2|8,0:0|0:0,0:0:0:0:
189,182,34074,2,0,P|136:182|109:193,1,66.4999982242585,2|0,0:0|0:0,0:0:0:0:
103,270,34449,2,0,P|156:270|183:259,1,66.4999982242585,2|8,0:0|0:0,0:0:0:0:
274,175,34824,6,0,L|261:38,1,132.999996448517,2|0,0:0|0:0,0:0:0:0:
337,84,35387,2,0,P|394:88|422:74,1,66.4999982242585,8|2,0:0|0:0,0:0:0:0:
478,45,35762,1,2,0:0:0:0:
467,130,35949,1,0,0:0:0:0:
406,191,36137,2,0,P|349:195|321:181,1,66.4999982242585,10|0,0:0|0:0,0:0:0:0:
227,151,36512,6,0,P|180:190|188:278,1,132.999996448517,2|8,0:0|0:0,0:0:0:0:
242,312,37074,2,0,L|328:308,1,66.4999982242585,2|0,0:0|0:0,0:0:0:0:
352,234,37449,2,0,L|438:238,1,66.4999982242585,2|8,0:0|0:0,0:0:0:0:
448,337,37824,6,0,L|315:330,1,132.999996448517,2|2,0:0|0:0,0:0:0:0:
228,323,38387,1,8,0:0:0:0:
142,315,38574,2,0,L|113:356,2,33.2499991121292,2|0|2,0:0|0:0|0:0,0:0:0:0:
191,243,38949,1,0,0:0:0:0:
277,253,39137,2,0,L|350:266,1,66.4999982242585,10|0,0:0|0:0,0:0:0:0:
465,230,39512,6,0,P|477:179|425:103,1,132.999996448517,2|8,0:0|0:0,0:0:0:0:
352,106,40074,1,2,0:0:0:0:
296,172,40262,2,0,P|283:219|295:259,1,66.4999982242585,0|2,0:0|0:0,0:0:0:0:
371,248,40637,2,0,P|383:200|371:160,1,66.4999982242585,8|2,0:0|0:0,0:0:0:0:
270,94,41012,5,2,0:0:0:0:
210,156,41199,1,2,0:0:0:0:
237,238,41387,1,10,0:0:0:0:
151,224,41574,2,0,L|114:233,2,33.2499991121292,2|0|8,0:0|0:0|0:0,0:0:0:0:
191,300,41949,2,0,L|110:322,1,66.4999982242585,2|10,0:0|0:0,0:0:0:0:
48,220,42324,1,2,0:0:0:0:
48,220,42418,1,2,0:0:0:0:
48,220,42512,6,0,P|28:167|79:91,1,132.999996448517,4|8,0:0|0:0,0:0:0:0:
116,167,43074,2,0,P|152:169|187:160,1,66.4999982242585,2|0,0:0|0:0,0:0:0:0:
214,82,43449,2,0,P|178:80|143:89,1,66.4999982242585,2|8,0:0|0:0,0:0:0:0:
257,145,43824,6,0,P|289:97|251:16,1,132.999996448517,2|2,0:0|0:0,0:0:0:0:
183,10,44387,1,8,0:0:0:0:
115,64,44574,2,0,L|113:113,2,33.2499991121292,2|0|2,0:0|0:0|0:0,0:0:0:0:
31,39,44949,1,0,0:0:0:0:
39,125,45137,2,0,L|47:217,1,66.4999982242585,10|0,0:0|0:0,0:0:0:0:
90,294,45512,6,0,P|134:309|212:264,1,132.999996448517,2|8,0:0|0:0,0:0:0:0:
269,211,46074,2,0,L|272:144,1,66.4999982242585,2|0,0:0|0:0,0:0:0:0:
358,130,46449,2,0,L|354:63,1,66.4999982242585,2|8,0:0|0:0,0:0:0:0:
473,30,46824,6,0,L|458:182,1,132.999996448517,2|2,0:0|0:0,0:0:0:0:
447,248,47387,1,8,0:0:0:0:
364,274,47574,1,2,0:0:0:0:
294,222,47762,2,0,L|290:147,1,66.4999982242585,2|2,0:0|0:0,0:0:0:0:
286,69,48137,1,10,0:0:0:0:
367,39,48324,1,2,0:0:0:0:
291,155,48512,6,0,P|237:143|202:54,1,132.999996448517,2|8,0:0|0:0,0:0:0:0:
206,165,49074,2,0,P|199:215|175:250,1,66.4999982242585,2|0,0:0|0:0,0:0:0:0:
106,241,49449,2,0,P|113:191|137:156,1,66.4999982242585,2|8,0:0|0:0,0:0:0:0:
173,306,49824,6,0,P|220:327|303:284,1,132.999996448517,2|2,0:0|0:0,0:0:0:0:
314,214,50387,1,8,0:0:0:0:
377,272,50574,2,0,L|379:324,2,33.2499991121292,2|0|2,0:0|0:0|0:0,0:0:0:0:
396,187,50949,1,0,0:0:0:0:
324,137,51137,2,0,P|278:144|251:173,1,66.4999982242585,8|0,0:0|0:0,0:0:0:0:
205,259,51512,6,0,P|142:270|80:208,1,132.999996448517,4|8,0:0|0:0,0:0:0:0:
121,143,52074,1,2,0:0:0:0:
236,184,52262,2,0,P|277:221|267:311,1,132.999996448517,4|8,0:0|0:0,0:0:0:0:
192,332,52824,1,0,0:0:0:0:
163,179,53012,6,0,P|190:127|213:115,1,66.4999982242585,4|0,0:0|0:0,0:0:0:0:
287,114,53387,2,0,P|309:90|318:58,1,66.4999982242585,8|0,0:0|0:0,0:0:0:0:
320,49,53668,1,0,0:0:0:0:
318,40,53762,1,2,0:0:0:0:
225,43,53949,1,8,0:3:0:0:
202,133,54137,1,4,0:3:0:0:
347,252,54512,6,0,P|321:283|228:274,1,119.000002269745,6|0,0:0|0:0,0:0:0:0:
171,240,55074,1,0,0:0:0:0:
228,171,55262,2,0,P|171:150|102:184,1,119.000002269745,8|0,0:0|0:0,0:0:0:0:
241,325,56012,6,0,P|298:346|367:312,1,119.000002269745,2|2,0:0|0:0,0:0:0:0:
417,268,56574,1,0,0:0:0:0:
356,201,56762,2,0,L|364:139,1,59.5000011348725,10|0,0:0|0:0,0:0:0:0:
451,81,57137,2,0,L|458:140,1,59.5000011348725,2|0,0:0|0:0,0:0:0:0:
356,201,57512,6,0,P|305:212|240:162,1,119.000002269745,4|0,0:0|0:0,0:0:0:0:
220,95,58074,1,0,0:0:0:0:
316,127,58262,2,0,L|291:250,1,119.000002269745,8|0,0:0|0:0,0:0:0:0:
75,273,59012,6,0,L|98:156,1,119.000002269745,2|2,0:0|0:0,0:0:0:0:
142,79,59574,1,0,0:0:0:0:
223,42,59762,2,0,P|252:43|281:50,1,59.5000011348725,10|0,0:0|0:0,0:0:0:0:
347,110,60137,2,0,L|421:113,1,59.5000011348725,2|0,0:0|0:0,0:0:0:0:
284,163,60512,6,0,P|222:179|161:152,1,132.999996448517,4|8,0:0|0:0,0:0:0:0:
91,100,61074,2,0,L|78:174,1,66.4999982242585,0|2,0:0|0:0,0:0:0:0:
46,245,61449,2,0,L|2:253,2,33.2499991121292,2|2|10,0:0|0:0|0:0,0:0:0:0:
130,295,61824,1,2,0:0:0:0:
130,295,61918,1,2,0:0:0:0:
130,295,62012,6,0,P|196:295|258:332,1,132.999996448517,4|8,0:0|0:0,0:0:0:0:
334,298,62574,2,0,L|341:219,1,66.4999982242585,0|2,0:0|0:0,0:0:0:0:
400,169,62949,2,0,L|442:176,2,33.2499991121292,2|2|10,0:0|0:0|0:0,0:0:0:0:
354,107,63324,1,2,0:0:0:0:
354,107,63418,1,2,0:0:0:0:
354,107,63512,6,0,P|316:92|272:88,1,66.4999982242585,4|0,0:0|0:0,0:0:0:0:
206,106,63887,2,0,L|192:172,1,66.4999982242585,8|0,0:0|0:0,0:0:0:0:
232,247,64262,2,0,L|218:313,1,66.4999982242585,0|0,0:0|0:0,0:0:0:0:
320,249,64637,2,0,L|334:183,1,66.4999982242585,8|0,0:0|0:0,0:0:0:0:
369,321,65012,6,0,P|423:335|496:298,2,132.999996448517,4|10|2,0:0|0:0|0:0,0:0:0:0:
327,256,65949,1,2,0:0:0:0:
327,256,66043,1,2,0:0:0:0:
327,256,66137,2,0,L|313:190,1,66.4999982242585,10|0,0:0|0:0,0:0:0:0:
358,116,66512,5,8,0:0:0:0:
247,64,66699,1,8,0:0:0:0:
152,208,67074,5,8,0:0:0:0:
162,330,67261,1,8,0:0:0:0:
327,256,67637,5,8,0:0:0:0:
448,234,67824,1,8,0:0:0:0:
371,78,68199,5,2,0:0:0:0:
289,106,68387,2,0,L|222:97,1,66.4999982242585,2|2,0:0|0:0,0:0:0:0:
337,166,68762,1,2,0:0:0:0:
191,258,69137,2,0,L|198:344,1,66.4999982242585,8|0,0:0|0:0,0:0:0:0:
120,207,69512,6,0,P|186:169|255:198,1,140,4|8,0:0|0:0,0:0:0:0:
317,238,70074,2,0,P|346:245|397:246,1,70,0|0,0:0|0:0,0:0:0:0:
450,154,70449,2,0,P|421:147|370:146,1,70,0|8,0:0|0:0,0:0:0:0:
317,238,70824,6,0,L|296:380,1,140,0|0,0:0|0:0,0:0:0:0:
211,309,71387,1,10,0:0:0:0:
174,225,71574,2,0,L|186:141,2,70,0|2|0,0:0|0:0|0:0,0:0:0:0:
105,285,72137,1,10,0:0:0:0:
95,194,72324,1,0,0:0:0:0:
179,302,72512,6,0,P|216:311|313:269,1,140,2|8,0:0|0:0,0:0:0:0:
376,215,73074,2,0,L|370:128,1,70,0|0,0:0|0:0,0:0:0:0:
272,85,73449,2,0,L|276:154,1,70,0|8,0:0|0:0,0:0:0:0:
343,42,73824,6,0,P|292:5|206:35,1,140,0|0,0:0|0:0,0:0:0:0:
137,59,74387,1,10,0:0:0:0:
191,131,74574,1,0,0:0:0:0:
130,199,74762,2,0,L|137:291,1,70,2|0,0:0|0:0,0:0:0:0:
177,349,75137,1,10,0:0:0:0:
88,327,75324,1,0,0:0:0:0:
207,275,75512,6,0,P|268:252|344:276,1,140,4|8,0:0|0:0,0:0:0:0:
413,322,76074,1,0,0:0:0:0:
476,256,76262,2,0,L|483:179,1,70,0|0,0:0|0:0,0:0:0:0:
432,109,76637,1,8,0:0:0:0:
358,160,76824,1,0,0:0:0:0:
358,160,76918,1,0,0:0:0:0:
358,160,77012,6,0,P|287:182|220:151,2,140,2|10|2,0:0|0:0|0:0,0:0:0:0:
432,109,77949,1,0,0:0:0:0:
486,182,78137,1,8,0:0:0:0:
427,251,78324,1,0,0:0:0:0:
427,251,78418,1,0,0:0:0:0:
427,251,78512,6,0,L|431:328,1,70,4|2,0:0|0:0,0:0:0:0:
350,365,78887,1,10,0:0:0:0:
280,306,79074,1,2,0:0:0:0:
338,235,79262,2,0,L|334:165,1,70,2|2,0:0|0:0,0:0:0:0:
285,87,79637,1,10,0:0:0:0:
195,69,79824,1,0,0:0:0:0:
226,154,80012,5,2,0:0:0:0:
285,87,80199,2,0,L|283:41,2,35,8|8|8,0:0|0:0|0:0,0:0:0:0:
341,173,80574,1,2,0:0:0:0:
341,173,80668,1,2,0:0:0:0:
341,173,80762,2,0,P|376:176|422:164,1,70,2|4,0:0|0:3,0:0:0:0:
484,116,81137,1,8,0:0:0:0:
476,206,81324,1,0,0:0:0:0:
355,255,81512,6,0,P|335:257|256:172,1,140,4|8,0:0|0:0,0:0:0:0:
300,101,82074,2,0,B|304:65|304:65|295:26,1,70,0|0,0:0|0:0,0:0:0:0:
208,8,82449,2,0,B|204:44|204:44|213:83,1,70,0|8,0:0|0:0,0:0:0:0:
210,196,82824,6,0,P|154:219|78:169,1,140,0|0,0:0|0:0,0:0:0:0:
61,96,83387,1,10,0:0:0:0:
147,68,83574,2,0,L|157:-25,2,70,0|2|0,0:0|0:0|0:0,0:0:0:0:
235,44,84137,1,10,0:0:0:0:
305,101,84324,1,0,0:0:0:0:
401,41,84512,6,0,L|378:190,1,140,2|8,0:0|0:0,0:0:0:0:
431,254,85074,2,0,P|440:291|444:344,1,70,0|0,0:0|0:0,0:0:0:0:
351,343,85449,2,0,P|342:304|341:273,1,70,0|8,0:0|0:0,0:0:0:0:
314,164,85824,6,0,P|241:134|180:178,1,140,0|0,0:0|0:0,0:0:0:0:
154,244,86387,1,10,0:0:0:0:
203,320,86574,2,0,L|281:328,2,70,0|2|0,0:0|0:0|0:0,0:0:0:0:
256,246,87137,1,10,0:0:0:0:
345,233,87324,1,0,0:0:0:0:
469,213,87512,6,0,P|490:146|446:79,1,140,4|8,0:0|0:0,0:0:0:0:
397,155,88074,1,0,0:0:0:0:
345,233,88262,2,0,P|344:273|360:309,1,70,0|0,0:0|0:0,0:0:0:0:
445,296,88637,1,8,0:0:0:0:
404,377,88824,1,0,0:0:0:0:
281,318,89012,6,0,L|132:334,1,140,4|8,0:0|0:0,0:0:0:0:
87,259,89574,1,0,0:0:0:0:
138,183,89762,2,0,P|172:171|221:175,1,70,2|0,0:0|0:0,0:0:0:0:
255,247,90137,2,0,P|221:259|172:255,1,70,10|0,0:0|0:0,0:0:0:0:
292,176,90512,6,0,P|323:203|305:309,1,140,4|8,0:0|0:0,0:0:0:0:
233,326,91074,1,0,0:0:0:0:
168,261,91262,2,0,L|80:268,1,70,2|0,0:0|0:0,0:0:0:0:
73,178,91637,2,0,L|161:185,1,70,8|0,0:0|0:0,0:0:0:0:
285,145,92012,6,0,P|313:95|270:7,1,140,4|8,0:0|0:0,0:0:0:0:
220,81,92574,1,2,0:0:0:0:
401,89,92949,1,0,0:0:0:0:
464,154,93137,2,0,L|480:78,1,70,10|0,0:0|0:0,0:0:0:0:
377,166,93512,6,0,P|379:197|384:232,2,66.4999982242585,4|2|10,0:0|0:0|0:0,0:0:0:0:
312,122,94074,1,10,0:0:0:0:
312,122,94168,1,0,0:0:0:0:
312,122,94262,1,8,0:0:0:0:
285,204,94449,2,0,P|288:238|288:288,1,66.4999982242585,10|8,0:0|0:0,0:0:0:0:
231,336,94824,6,0,P|160:343|117:295,1,132.999996448517,2|10,0:0|0:0,0:0:0:0:
116,215,95387,1,10,0:0:0:0:
200,233,95574,2,0,P|233:229|292:220,1,66.4999982242585,2|8,0:0|0:0,0:0:0:0:
321,157,95949,2,0,P|353:160|386:166,1,66.4999982242585,2|0,0:0|0:0,0:0:0:0:
421,274,96324,1,8,0:0:0:0:
495,183,96512,6,0,P|498:140|480:98,2,66.4999982242585,4|2|2,0:0|0:0|0:0,0:0:0:0:
421,162,97074,1,10,0:0:0:0:
421,162,97168,1,8,0:0:0:0:
421,162,97262,1,8,0:0:0:0:
336,181,97449,2,0,P|331:148|339:115,1,66.4999982242585,2|8,0:0|0:0,0:0:0:0:
389,45,97824,1,2,0:0:0:0:
302,44,98012,6,0,L|261:23,2,33.2499991121292,8|8|8,0:0|0:0|0:0,0:0:0:0:
273,125,98387,2,0,B|208:108|208:108|125:122,1,132.999996448517,8|8,0:0|0:0,0:0:0:0:
270,345,99324,1,8,0:0:0:0:
270,345,99418,1,8,0:0:0:0:
270,345,99512,6,0,B|335:362|335:362|412:348,1,125.999996154785,4|8,0:0|0:0,0:0:0:0:
328,283,100074,2,0,L|189:244,1,125.999996154785,2|0,0:0|0:0,0:0:0:0:
128,276,100637,1,8,0:0:0:0:
157,181,100824,6,0,B|198:168|198:168|281:192,2,125.999996154785,2|0|8,0:0|0:0|0:0,0:0:0:0:
81,212,101762,1,8,0:0:0:0:
198,98,102137,2,0,L|191:27,1,62.9999980773926,4|0,0:0|0:0,0:0:0:0:
241,168,102512,6,0,P|301:197|367:163,1,125.999996154785,0|8,0:0|0:0,0:0:0:0:
302,117,103074,2,0,L|292:260,1,125.999996154785,2|0,0:0|0:0,0:0:0:0:
225,289,103637,1,8,0:0:0:0:
322,350,103824,6,0,L|450:353,1,125.999996154785,2|0,0:0|0:0,0:0:0:0:
480,276,104387,2,0,L|486:209,1,62.9999980773926,2|8,0:0|0:3,0:0:0:0:
413,144,104762,2,0,L|407:211,1,62.9999980773926,10|4,0:3|0:3,0:0:0:0:
331,142,105137,2,0,L|337:75,1,62.9999980773926,4|0,0:0|0:0,0:0:0:0:
278,209,105512,6,0,B|210:218|210:218|157:177,1,125.999996154785,2|8,0:0|0:0,0:0:0:0:
119,114,106074,2,0,B|187:105|187:105|240:146,1,125.999996154785,2|0,0:0|0:0,0:0:0:0:
278,209,106637,1,10,0:0:0:0:
339,104,106824,6,0,L|465:88,2,125.999996154785,2|0|0,0:0|0:0|0:0,0:0:0:0:
270,58,107762,1,2,0:0:0:0:
232,227,108137,2,0,L|242:298,1,62.9999980773926,4|0,0:0|0:0,0:0:0:0:
127,208,108512,6,0,L|107:7,2,188.999994232178,6|2|0,0:0|0:0|0:0,0:0:0:0:
160,288,109824,1,2,0:0:0:0:
160,288,110012,6,0,P|210:312|286:297,1,125.999996154785,0|2,0:0|0:0,0:0:0:0:
350,263,110574,1,2,0:0:0:0:
391,192,110762,2,0,L|441:195,2,31.4999990386963,4|4|4,0:3|0:3|0:3,0:0:0:0:
341,126,111137,1,6,0:0:0:0:
276,75,111324,1,2,0:0:0:0:
276,75,111418,1,2,0:0:0:0:
276,75,111512,6,0,P|211:48|136:61,1,132.999996448517,4|8,0:0|0:0,0:0:0:0:
76,100,112074,2,0,L|71:182,1,66.4999982242585,2|0,0:0|0:0,0:0:0:0:
131,229,112449,2,0,L|136:311,1,66.4999982242585,2|8,0:0|0:0,0:0:0:0:
190,180,112824,6,0,P|255:153|330:166,1,132.999996448517,2|0,0:0|0:0,0:0:0:0:
394,196,113387,1,10,0:0:0:0:
450,130,113574,2,0,L|446:83,2,33.2499991121292,0|0|2,0:0|0:0|0:0,0:0:0:0:
489,207,113949,1,0,0:0:0:0:
432,272,114137,2,0,P|395:279|351:268,1,66.4999982242585,10|0,0:0|0:0,0:0:0:0:
266,238,114512,6,0,L|264:90,1,132.999996448517,2|8,0:0|0:0,0:0:0:0:
318,37,115074,2,0,P|261:67|190:50,1,132.999996448517,2|2,0:0|0:0,0:0:0:0:
118,15,115637,1,8,0:0:0:0:
148,118,115824,6,0,P|163:185|148:255,1,132.999996448517,2|0,0:0|0:0,0:0:0:0:
84,302,116387,1,8,0:0:0:0:
162,357,116574,1,2,0:0:0:0:
162,357,116668,1,2,0:0:0:0:
162,357,116762,2,0,P|195:361|238:355,1,66.4999982242585,2|2,0:0|0:0,0:0:0:0:
291,299,117137,1,10,0:0:0:0:
331,375,117324,1,2,0:0:0:0:
364,267,117512,6,0,P|311:221|244:235,1,132.999996448517,2|8,0:0|0:0,0:0:0:0:
171,258,118074,2,0,L|91:253,1,66.4999982242585,2|0,0:0|0:0,0:0:0:0:
61,162,118449,2,0,L|141:167,1,66.4999982242585,2|8,0:0|0:0,0:0:0:0:
172,258,118824,6,0,P|223:295|296:298,1,132.999996448517,2|0,0:0|0:0,0:0:0:0:
371,264,119387,1,10,0:0:0:0:
304,208,119574,1,2,0:0:0:0:
381,169,119762,2,0,L|381:85,1,66.4999982242585,2|0,0:0|0:0,0:0:0:0:
293,27,120137,2,0,L|293:93,1,66.4999982242585,10|0,0:0|0:0,0:0:0:0:
267,205,120512,6,0,P|220:219|145:180,1,132.999996448517,4|8,0:0|0:0,0:0:0:0:
108,107,121074,1,2,0:0:0:0:
218,132,121262,6,0,L|192:275,1,132.999996448517,4|10,0:0|0:0,0:0:0:0:
116,299,121824,1,0,0:0:0:0:
221,343,122012,6,0,P|288:352|348:318,1,132.999996448517,4|8,0:0|0:0,0:0:0:0:
393,251,122574,2,0,L|442:258,2,33.2499991121292,2|2|10,0:0|0:0|0:3,0:0:0:0:
327,194,122949,1,8,0:3:0:0:
400,148,123137,1,4,0:3:0:0:
332,94,123324,1,4,0:3:0:0:
210,149,123512,6,0,P|149:130|120:67,1,119.000002269745,4|0,0:0|0:0,0:0:0:0:
208,62,124074,1,0,0:0:0:0:
291,94,124262,2,0,B|309:150|309:150|284:225,1,119.000002269745,8|0,0:0|0:0,0:0:0:0:
467,186,125012,6,0,P|410:146|342:163,1,119.000002269745,2|2,0:0|0:0,0:0:0:0:
394,234,125574,1,0,0:0:0:0:
336,302,125762,2,0,L|326:368,1,59.5000011348725,10|0,0:0|0:0,0:0:0:0:
245,324,126137,2,0,L|235:263,1,59.5000011348725,2|0,0:0|0:0,0:0:0:0:
310,174,126512,6,0,L|329:55,1,119.000002269745,4|0,0:0|0:0,0:0:0:0:
251,12,127074,1,0,0:0:0:0:
195,82,127262,2,0,P|141:90|79:43,1,119.000002269745,8|0,0:0|0:0,0:0:0:0:
40,255,128012,6,0,P|94:247|156:294,1,119.000002269745,2|2,0:0|0:0,0:0:0:0:
77,335,128574,1,0,0:0:0:0:
159,369,128762,1,10,0:0:0:0:
225,309,128949,2,0,L|219:256,2,29.7500005674362,0|0|10,0:0|0:0|0:0,0:0:0:0:
332,373,129324,1,0,0:0:0:0:
332,373,129418,1,0,0:0:0:0:
332,373,129512,6,0,P|400:356|429:281,1,132.999996448517,4|8,0:0|0:0,0:0:0:0:
397,223,130074,1,0,0:0:0:0:
321,180,130262,2,0,B|313:145|313:145|323:94,1,66.4999982242585,2|2,0:0|0:0,0:0:0:0:
396,76,130637,2,0,B|404:111|404:111|394:162,1,66.4999982242585,10|2,0:0|0:0,0:0:0:0:
240,144,131012,6,0,P|183:96|190:21,1,132.999996448517,4|8,0:0|0:0,0:0:0:0:
264,63,131574,1,0,0:0:0:0:
325,124,131762,2,0,P|324:166|303:207,1,66.4999982242585,2|2,0:0|0:0,0:0:0:0:
242,235,132137,2,0,P|243:277|264:318,1,66.4999982242585,10|2,0:0|0:0,0:0:0:0:
346,362,132512,6,0,P|408:353|449:277,1,132.999996448517,4|8,0:0|0:0,0:0:0:0:
427,214,133074,1,0,0:0:0:0:
377,142,133262,2,0,L|392:45,1,66.4999982242585,0|0,0:0|0:0,0:0:0:0:
465,39,133637,2,0,L|475:104,1,66.4999982242585,8|2,0:0|0:0,0:0:0:0:
427,214,134012,6,0,P|359:229|297:179,1,132.999996448517,6|8,0:0|0:0,0:0:0:0:
290,112,134574,1,0,0:0:0:0:
231,175,134762,2,0,L|224:247,1,66.4999982242585,2|2,0:0|0:0,0:0:0:0:
137,241,135137,2,0,L|130:174,1,66.4999982242585,10|0,0:0|0:0,0:0:0:0:
184,54,135512,5,8,0:0:0:0:
184,54,135699,1,8,0:0:0:0:
349,104,136074,1,8,0:0:0:0:
349,104,136261,1,8,0:0:0:0:
188,169,136637,1,8,0:0:0:0:
188,169,136824,1,8,0:0:0:0:
350,228,137199,5,2,0:0:0:0:
315,307,137387,2,0,P|259:319|234:311,1,66.4999982242585,10|2,0:0|0:0,0:0:0:0:
168,292,137762,2,0,L|147:301,4,16.6249995560646,2|0|0|0|0,0:0|0:0|0:0|0:0|0:0,0:0:0:0:
235,237,138137,1,8,0:0:0:0:
332,153,138324,1,0,0:0:0:0:
332,153,138418,1,0,0:0:0:0:
332,153,138512,6,0,P|417:190|422:252,1,140,4|8,0:0|0:0,0:0:0:0:
363,294,139074,2,0,P|361:335|378:382,1,70,0|0,0:0|0:0,0:0:0:0:
458,351,139449,2,0,P|460:310|443:263,1,70,0|8,0:0|0:0,0:0:0:0:
388,182,139824,6,0,L|240:170,1,140,0|0,0:0|0:0,0:0:0:0:
185,237,140387,1,10,0:0:0:0:
247,302,140574,2,0,L|329:297,2,70,0|2|0,0:0|0:0|0:0,0:0:0:0:
157,319,141137,1,10,0:0:0:0:
91,382,141324,1,0,0:0:0:0:
41,275,141512,6,0,P|45:218|111:177,1,140,2|8,0:0|0:0,0:0:0:0:
185,237,142074,2,0,P|221:243|280:221,1,70,0|0,0:0|0:0,0:0:0:0:
284,150,142449,2,0,P|248:144|189:166,1,70,0|8,0:0|0:0,0:0:0:0:
334,213,142824,6,0,P|362:174|310:75,1,140,0|0,0:0|0:0,0:0:0:0:
249,71,143387,1,10,0:0:0:0:
204,149,143574,2,0,L|116:157,2,70,0|2|0,0:0|0:0|0:0,0:0:0:0:
262,219,144137,2,0,L|349:225,1,70,10|0,0:0|0:0,0:0:0:0:
460,260,144512,6,0,P|477:312|422:392,1,140,4|8,0:0|0:0,0:0:0:0:
384,309,145074,1,0,0:0:0:0:
329,235,145262,2,0,P|336:185|340:162,1,70,0|0,0:0|0:0,0:0:0:0:
417,119,145637,1,8,0:0:0:0:
407,28,145824,1,0,0:0:0:0:
300,115,146012,6,0,P|248:119|220:109,1,70,2|0,0:0|0:0,0:0:0:0:
192,31,146387,2,0,P|244:27|272:37,1,70,10|0,0:0|0:0,0:0:0:0:
300,115,146762,2,0,L|296:187,1,70,2|0,0:0|0:0,0:0:0:0:
222,238,147137,1,10,0:0:0:0:
207,148,147324,1,0,0:0:0:0:
104,85,147512,6,0,L|98:165,1,70,4|2,0:0|0:0,0:0:0:0:
89,245,147887,1,10,0:0:0:0:
156,321,148074,1,2,0:0:0:0:
156,321,148168,1,0,0:0:0:0:
156,321,148262,2,0,P|216:329|246:313,1,70,2|2,0:0|0:0,0:0:0:0:
265,245,148637,2,0,P|205:237|175:253,1,70,10|0,0:0|0:0,0:0:0:0:
299,325,149012,5,2,0:0:0:0:
357,255,149199,2,0,L|349:168,1,70,8|8,0:0|0:0,0:0:0:0:
276,131,149574,2,0,L|270:184,2,35,2|2|2,0:0|0:0|0:0,0:0:0:0:
362,101,149949,2,0,L|350:24,1,70,4|8,0:3|0:0,0:0:0:0:
262,11,150324,1,0,0:0:0:0:
189,114,150512,6,0,L|174:260,1,140,4|8,0:0|0:0,0:0:0:0:
220,331,151074,2,0,P|253:341|309:340,1,70,0|0,0:0|0:0,0:0:0:0:
349,248,151449,2,0,P|316:238|260:239,1,70,0|8,0:0|0:0,0:0:0:0:
174,253,151824,6,0,P|112:225|94:155,1,140,0|0,0:0|0:0,0:0:0:0:
140,81,152387,1,10,0:0:0:0:
215,31,152574,2,0,P|255:25|288:28,2,70,0|2|0,0:0|0:0|0:0,0:0:0:0:
140,81,153137,2,0,L|135:155,1,70,8|0,0:0|0:0,0:0:0:0:
174,267,153512,6,0,P|234:278|298:225,1,140,2|8,0:0|0:0,0:0:0:0:
327,148,154074,2,0,L|332:68,1,70,0|0,0:0|0:0,0:0:0:0:
436,23,154449,2,0,L|431:92,1,70,0|8,0:0|0:0,0:0:0:0:
327,148,154824,6,0,P|280:157|189:125,1,140,2|0,0:0|0:0,0:0:0:0:
119,76,155387,1,10,0:0:0:0:
55,141,155574,2,0,L|47:231,1,70,0|2,0:0|0:0,0:0:0:0:
111,275,155949,1,0,0:0:0:0:
186,223,156137,2,0,L|261:218,1,70,8|0,0:0|0:0,0:0:0:0:
111,275,156512,6,0,P|38:300|-30:253,1,140,4|8,0:0|0:0,0:0:0:0:
48,210,157074,1,0,0:0:0:0:
102,136,157262,2,0,L|258:109,1,140,0|8,0:0|0:0,0:0:0:0:
337,135,157824,1,0,0:0:0:0:
337,135,157918,1,0,0:0:0:0:
337,135,158012,6,0,B|280:181|280:181|206:195,1,140,4|8,0:0|0:0,0:0:0:0:
124,208,158574,1,0,0:0:0:0:
183,277,158762,2,0,L|335:248,1,140,2|8,0:0|0:0,0:0:0:0:
392,193,159324,1,0,0:0:0:0:
392,193,159418,1,0,0:0:0:0:
392,193,159512,6,0,P|411:247|372:324,1,140,4|8,0:0|0:0,0:0:0:0:
320,250,160074,1,0,0:0:0:0:
251,189,160262,2,0,L|260:118,1,70,2|0,0:0|0:0,0:0:0:0:
334,67,160637,1,8,0:0:0:0:
254,23,160824,1,0,0:0:0:0:
178,112,161012,6,0,P|112:133|52:101,1,140,4|8,0:0|0:0,0:0:0:0:
121,42,161574,2,0,L|107:192,1,140,2|2,0:0|0:0,0:0:0:0:
151,261,162137,1,8,0:0:0:0:
235,99,162512,5,8,0:0:0:0:
359,108,162699,1,8,0:0:0:0:
283,275,163074,5,8,0:0:0:0:
213,376,163261,1,8,0:0:0:0:
151,204,163637,5,8,0:0:0:0:
58,125,163824,1,8,0:0:0:0:
212,28,164199,5,8,0:0:0:0:
217,151,164387,2,0,L|264:157,3,35,8|8|8|8,0:0|0:0|0:0|0:0,0:0:0:0:
290,172,164762,2,0,L|337:178,3,35,8|8|8|8,0:0|0:0|0:0|0:0,0:0:0:0:
360,198,165137,2,0,L|407:204,3,35,8|8|8|8,0:0|0:0|0:0|0:0,0:0:0:0:
433,190,165512,6,0,P|453:126|431:58,1,132.999996448517,4|8,0:0|0:0,0:0:0:0:
354,33,166074,2,0,L|356:-6,2,33.2499991121292,2|2|2,0:0|0:0|0:0,0:0:0:0:
289,91,166449,1,2,0:0:0:0:
327,168,166637,1,10,0:0:0:0:
266,228,166824,6,0,P|307:253|391:229,1,132.999996448517,2|2,0:0|0:0,0:0:0:0:
454,181,167387,1,10,0:0:0:0:
407,108,167574,2,0,P|435:96|481:98,2,66.4999982242585,2|0|0,0:0|0:0|0:0,0:0:0:0:
327,144,168137,2,0,L|251:140,1,66.4999982242585,8|0,0:0|0:0,0:0:0:0:
380,205,168512,6,0,P|395:271|371:347,1,132.999996448517,2|10,0:0|0:0,0:0:0:0:
296,360,169074,2,0,L|220:364,1,66.4999982242585,2|0,0:0|0:0,0:0:0:0:
149,330,169449,2,0,L|148:245,1,66.4999982242585,2|8,0:0|0:0,0:0:0:0:
87,183,169824,6,0,P|140:214|214:191,1,132.999996448517,2|2,0:0|0:0,0:0:0:0:
155,122,170387,1,10,0:0:0:0:
206,52,170574,1,2,0:0:0:0:
275,103,170762,2,0,L|351:101,1,66.4999982242585,2|2,0:0|0:0,0:0:0:0:
377,20,171137,2,0,L|310:21,1,66.4999982242585,8|2,0:0|0:0,0:0:0:0:
206,52,171512,6,0,P|191:119|226:174,1,132.999996448517,4|8,0:0|0:0,0:0:0:0:
292,221,172074,2,0,L|289:269,2,33.2499991121292,2|2|2,0:0|0:0|0:0,0:0:0:0:
344,151,172449,1,2,0:0:0:0:
424,117,172637,1,10,0:0:0:0:
426,215,172824,6,0,B|431:281|431:281|368:305,1,132.999996448517,2|2,0:0|0:0,0:0:0:0:
285,330,173387,1,8,0:0:0:0:
211,285,173574,2,0,P|182:276|134:282,1,66.4999982242585,2|0,0:0|0:0,0:0:0:0:
64,306,173949,1,2,0:0:0:0:
25,228,174137,1,10,0:0:0:0:
88,169,174324,1,2,0:0:0:0:
23,110,174512,6,0,P|78:80|147:105,1,132.999996448517,2|4,0:0|0:0,0:0:0:0:
217,142,175074,2,0,L|298:150,1,66.4999982242585,2|0,0:0|0:0,0:0:0:0:
353,199,175449,2,0,L|434:191,1,66.4999982242585,2|4,0:0|0:0,0:0:0:0:
300,267,175824,6,0,L|161:254,1,132.999996448517,2|8,0:0|0:0,0:0:0:0:
91,212,176387,1,8,0:0:0:0:
156,156,176574,1,10,0:0:0:0:
156,156,176668,1,10,0:0:0:0:
156,156,176762,2,0,L|147:70,1,66.4999982242585,10|0,0:0|0:0,0:0:0:0:
232,22,177137,2,0,L|238:88,1,66.4999982242585,10|0,0:0|0:0,0:0:0:0:
226,198,177512,5,2,0:0:0:0:
247,140,183324,5,2,0:0:0:0:
247,140,183418,1,2,0:0:0:0:
247,140,183512,2,0,P|194:147|155:135,2,66.4999982242585,6|2|2,0:3|0:0|0:0,0:0:0:0:
315,87,184074,2,0,L|317:41,2,33.2499991121292,10|8|6,0:0|0:0|0:3,0:0:0:0:
329,172,184449,1,2,0:0:0:0:
397,118,184637,1,2,0:0:0:0:
447,283,185012,6,0,P|491:289|533:269,2,66.4999982242585,6|2|10,0:3|0:0|0:0,0:0:0:0:
477,202,185574,1,2,0:0:0:0:
413,142,185762,2,0,L|406:73,1,66.4999982242585,10|2,0:0|0:0,0:0:0:0:
330,33,186137,2,0,L|285:39,3,33.2499991121292,2|0|8|8,0:0|0:0|0:0|0:0,0:0:0:0:
254,43,186512,6,0,P|237:88|252:130,2,66.4999982242585,6|2|10,0:3|0:0|0:0,0:0:0:0:
305,130,187074,2,0,P|265:170|179:140,1,132.999996448517,6|10,0:3|0:0,0:0:0:0:
133,96,187637,1,10,0:0:0:0:
139,219,187824,6,0,P|112:280|51:318,1,132.999996448517,6|10,0:3|0:0,0:0:0:0:
14,241,188387,1,8,0:0:0:0:
93,153,188574,2,0,P|126:139|211:185,1,132.999996448517,6|2,0:3|0:0,0:0:0:0:
245,256,189137,2,0,L|241:310,3,33.2499991121292,8|0|8|8,0:0|0:0|0:0|0:0,0:0:0:0:
242,332,189512,6,0,P|275:346|328:328,1,66.4999982242585,4|2,0:0|0:0,0:0:0:0:
370,286,189887,2,0,P|402:283|432:296,1,66.4999982242585,2|2,0:0|0:0,0:0:0:0:
425,210,190262,2,0,L|437:125,1,66.4999982242585,2|2,0:0|0:0,0:0:0:0:
356,106,190637,2,0,L|346:40,1,66.4999982242585,2|2,0:0|0:0,0:0:0:0:
265,87,191012,6,0,P|197:102|243:23,1,210.000008010865,2|10,0:0|0:0,0:0:0:0:
397,94,192137,2,0,L|392:146,3,33.2499991121292,8|8|0|0,0:0|0:0|0:0|0:0,0:0:0:0:
389,170,192512,5,8,0:0:0:0:
471,196,192699,1,8,0:0:0:0:
328,293,193074,1,8,0:0:0:0:
246,319,193261,1,8,0:0:0:0:
261,146,193637,1,8,0:0:0:0:
285,64,193824,1,8,0:0:0:0:
256,192,194012,12,0,195512,0:0:0:0:
196,131,196449,5,8,0:0:0:0:
196,131,196543,1,8,0:0:0:0:
196,131,196637,2,0,P|245:134|283:117,1,66.4999982242585,8|0,0:0|0:0,0:0:0:0:
351,43,197012,6,0,P|408:35|473:96,1,140,6|8,0:0|0:0,0:0:0:0:
388,127,197574,1,2,0:0:0:0:
277,271,197949,2,0,L|286:357,1,70,2|8,0:0|0:0,0:0:0:0:
387,264,198324,6,0,L|406:123,1,140,4|0,0:0|0:0,0:0:0:0:
332,70,198887,1,8,0:0:0:0:
262,128,199074,2,0,L|270:177,2,35,8|8|8,0:3|0:3|0:3,0:0:0:0:
178,91,199449,1,10,0:3:0:0:
191,181,199637,2,0,L|183:260,1,70,10|10,0:3|0:3,0:0:0:0:
259,346,200012,6,0,P|315:359|376:286,1,140,4|8,0:0|0:0,0:0:0:0:
325,230,200574,2,0,B|318:193|318:193|328:142,1,70,0|0,0:0|0:0,0:0:0:0:
406,121,200949,2,0,B|413:158|413:158|403:209,1,70,0|8,0:0|0:0,0:0:0:0:
334,90,201324,6,0,P|376:48|470:77,1,140,2|0,0:0|0:0,0:0:0:0:
485,141,201887,1,10,0:0:0:0:
421,206,202074,2,0,L|425:279,2,70,0|2|8,0:0|0:0|0:0,0:0:0:0:
334,175,202637,1,10,0:0:0:0:
318,264,202824,1,8,0:0:0:0:
251,149,203012,6,0,P|208:126|115:180,1,140,4|8,0:0|0:0,0:0:0:0:
107,245,203574,1,0,0:0:0:0:
157,321,203762,2,0,P|199:327|249:303,1,70,0|0,0:0|0:0,0:0:0:0:
260,235,204137,2,0,P|218:229|168:253,1,70,8|0,0:0|0:0,0:0:0:0:
324,298,204512,6,0,L|338:205,1,70,2|0,0:0|0:0,0:0:0:0:
411,180,204887,2,0,L|421:249,1,70,10|0,0:0|0:0,0:0:0:0:
393,336,205262,2,0,P|355:371|311:374,1,70,2|0,0:0|0:0,0:0:0:0:
259,329,205637,1,10,0:0:0:0:
281,240,205824,1,0,0:0:0:0:
175,311,206012,6,0,P|125:310|95:290,2,70,4|2|10,0:0|0:0|0:0,0:0:0:0:
155,222,206574,1,2,0:0:0:0:
134,133,206762,2,0,B|132:95|132:95|143:63,1,70,2|2,0:0|0:0,0:0:0:0:
231,39,207137,1,10,0:0:0:0:
277,147,207324,6,0,P|337:174|415:134,1,140,2|8,0:0|0:0,0:0:0:0:
456,74,207887,1,8,0:0:0:0:
500,164,208074,1,2,0:0:0:0:
500,164,208168,1,2,0:0:0:0:
500,164,208262,2,0,L|488:252,1,70,2|8,0:0|0:0,0:0:0:0:
405,266,208637,1,8,0:0:0:0:
448,345,208824,1,0,0:0:0:0:
490,233,209012,6,0,P|451:187|361:182,1,140,4|8,0:0|0:0,0:0:0:0:
288,203,209574,2,0,L|281:277,1,70,0|0,0:0|0:0,0:0:0:0:
198,218,209949,2,0,L|204:148,1,70,0|8,0:0|0:0,0:0:0:0:
150,285,210324,6,0,P|89:316|25:292,1,140,0|0,0:0|0:0,0:0:0:0:
0,204,210887,1,10,0:0:0:0:
50,128,211074,2,0,L|41:58,2,70,0|2|0,0:0|0:0|0:0,0:0:0:0:
92,208,211637,1,10,0:0:0:0:
155,143,211824,1,0,0:0:0:0:
171,254,212012,6,0,P|207:268|306:237,1,140,4|8,0:0|0:0,0:0:0:0:
352,166,212574,2,0,L|358:92,1,70,0|0,0:0|0:0,0:0:0:0:
285,39,212949,2,0,P|243:35|206:42,1,70,2|10,0:0|0:0,0:0:0:0:
155,143,213324,6,0,P|142:212|143:290,1,140,2|0,0:0|0:0,0:0:0:0:
208,343,213887,1,10,0:0:0:0:
285,296,214074,2,0,P|319:289|361:297,2,70,0|2|0,0:0|0:0|0:0,0:0:0:0:
208,343,214637,1,10,0:0:0:0:
142,281,214824,1,0,0:0:0:0:
236,221,215012,6,0,P|248:152|248:82,1,140,4|8,0:0|0:0,0:0:0:0:
169,38,215574,1,0,0:0:0:0:
253,3,215762,2,0,P|285:-1|341:1,1,70,0|0,0:0|0:0,0:0:0:0:
390,60,216137,1,8,0:0:0:0:
341,136,216324,1,0,0:0:0:0:
341,136,216418,1,0,0:0:0:0:
341,136,216512,6,0,P|273:160|198:134,1,140,4|8,0:0|0:0,0:0:0:0:
127,102,217074,1,0,0:0:0:0:
167,201,217262,2,0,L|168:278,1,70,2|0,0:0|0:0,0:0:0:0:
263,196,217637,2,0,L|262:126,1,70,8|0,0:0|0:0,0:0:0:0:
311,261,218012,6,0,P|361:271|449:228,1,140,4|8,0:0|0:0,0:0:0:0:
470,151,218574,1,0,0:0:0:0:
410,81,218762,2,0,P|376:68|327:67,1,70,2|2,0:0|0:0,0:0:0:0:
251,69,219137,1,8,0:0:0:0:
301,144,219324,1,0,0:0:0:0:
206,213,219512,6,0,P|152:229|75:177,1,140,6|0,0:0|0:0,0:0:0:0:
155,141,220074,2,0,L|131:287,1,140,2|2,0:0|0:0,0:0:0:0:
52,323,220637,1,4,0:0:0:0:
200,365,221012,6,0,P|261:380|337:377,1,119.000002269745,6|2,0:3|0:0,0:0:0:0:
398,343,221574,2,0,L|410:274,1,59.5000011348725,2|4,0:0|0:3,0:0:0:0:
350,215,221949,2,0,L|339:156,1,59.5000011348725,10|0,0:0|0:0,0:0:0:0:
373,73,222324,1,2,0:0:0:0:
292,33,222512,5,4,0:3:0:0:
292,33,222699,2,0,P|267:37|221:39,1,59.5000011348725,2|8,0:0|0:0,0:0:0:0:
146,62,223074,1,2,0:0:0:0:
95,135,223262,2,0,P|80:192|87:259,1,119.000002269745,8|0,0:0|0:0,0:0:0:0:
152,325,223824,1,2,0:0:0:0:
152,325,223918,1,2,0:0:0:0:
152,325,224012,6,0,P|204:348|276:332,1,119.000002269745,6|2,0:3|0:0,0:0:0:0:
343,298,224574,2,0,P|372:294|415:303,1,59.5000011348725,2|4,0:0|0:3,0:0:0:0:
483,335,224949,2,0,L|499:277,1,59.5000011348725,2|0,0:0|0:0,0:0:0:0:
437,212,225324,1,2,0:0:0:0:
495,144,225512,5,4,0:3:0:0:
495,144,225699,2,0,L|479:86,1,59.5000011348725,2|8,0:0|0:0,0:0:0:0:
406,34,226074,1,2,0:0:0:0:
337,91,226262,2,0,L|207:84,1,119.000002269745,10|0,0:0|0:0,0:0:0:0:
129,86,226824,1,10,0:0:0:0:
129,86,226918,1,10,0:0:0:0:
129,86,227012,6,0,B|150:157|150:157|218:161,1,119.000002269745,6|2,0:3|0:0,0:0:0:0:
284,167,227574,2,0,L|288:236,1,59.5000011348725,10|4,0:0|0:3,0:0:0:0:
211,273,227949,2,0,L|207:342,1,59.5000011348725,2|0,0:0|0:0,0:0:0:0:
284,378,228324,1,0,0:0:0:0:
345,313,228512,6,0,L|407:308,1,59.5000011348725,6|0,0:3|0:0,0:0:0:0:
433,221,228887,2,0,L|373:225,1,59.5000011348725,10|0,0:0|0:0,0:0:0:0:
325,148,229262,2,0,L|384:143,1,59.5000011348725,10|0,0:0|0:0,0:0:0:0:
445,77,229637,1,10,0:0:0:0:
372,25,229824,1,8,0:0:0:0:
372,25,229918,1,8,0:0:0:0:
372,25,230012,6,0,L|229:37,1,132.999996448517,4|10,0:0|0:0,0:0:0:0:
143,62,230574,2,0,L|131:143,1,66.4999982242585,4|0,0:0|0:0,0:0:0:0:
217,223,230949,2,0,L|229:142,1,66.4999982242585,4|0,0:0|0:0,0:0:0:0:
142,263,231324,6,0,P|196:306|270:288,1,132.999996448517,8|4,0:0|0:0,0:0:0:0:
304,104,232074,1,8,0:0:0:0:
304,104,232262,2,0,P|414:119|350:210,1,265.999992897034,4|0,0:0|0:0,0:0:0:0:
