osu file format v12

[General]
AudioFilename: fly (Short Ver.).mp3
AudioLeadIn: 1996
PreviewTime: 59464
Countdown: 0
SampleSet: Normal
StackLeniency: 0.7
Mode: 1
LetterboxInBreaks: 0

[Editor]
DistanceSpacing: 0.8
BeatDivisor: 4
GridSize: 8

[Metadata]
Title:fly (Short Ver.)
TitleUnicode:fly (Short Ver.)
Artist:Otomedius X Cast
ArtistUnicode:Otomedius X Cast
Creator:CoroQuetz
Version:Oni
Source:Otomedius X
Tags:excellent gradius Rina Satou Kana Asumi Minori Chihara Satomi Satou Hitomi Harada DakeDekaane dialgadu77
BeatmapID:183486
BeatmapSetID:60717

[Difficulty]
HPDrainRate:5
CircleSize:5
OverallDifficulty:5
ApproachRate:5
SliderMultiplier:1.4
SliderTickRate:1

[Events]
//Background and Video events
Video,0,"op.avi"
0,0,"bg.jpg",0,0
//Break Periods
//Storyboard Layer 0 (Background)
//Storyboard Layer 1 (Fail)
//Storyboard Layer 2 (Pass)
//Storyboard Layer 3 (Foreground)
//Storyboard Sound Samples
//Background Colour Transformations
3,100,163,162,255

[TimingPoints]
1189,323.79924446843,4,1,0,100,1,0
59472,-100,4,1,0,100,0,1
80196,-100,4,1,0,100,0,0

[Colours]
Combo1 : 255,128,128
Combo2 : 128,255,255

[HitObjects]
128,216,1188,1,12,0:0:0:0:
128,216,1512,1,12,0:0:0:0:
128,216,1836,1,8,0:0:0:0:
136,136,1998,5,0,0:0:0:0:
128,216,2160,1,0,0:0:0:0:
136,136,2241,1,0,0:0:0:0:
136,136,2322,1,0,0:0:0:0:
264,184,2484,1,4,0:0:0:0:
208,176,2646,1,4,0:0:0:0:
264,184,3131,1,4,0:0:0:0:
208,176,3293,1,4,0:0:0:0:
264,184,3779,1,4,0:0:0:0:
208,176,3941,1,4,0:0:0:0:
264,184,4265,1,4,0:0:0:0:
208,176,4588,1,4,0:0:0:0:
80,168,4912,5,8,0:0:0:0:
80,168,4993,1,8,0:0:0:0:
80,168,5074,5,0,0:0:0:0:
80,168,5236,1,0,0:0:0:0:
16,144,5560,5,8,0:0:0:0:
16,144,5722,5,0,0:0:0:0:
16,144,5884,1,0,0:0:0:0:
192,192,6207,5,8,0:0:0:0:
192,192,6369,5,0,0:0:0:0:
192,192,6693,5,12,0:0:0:0:
192,192,7017,1,12,0:0:0:0:
192,192,7341,1,12,0:0:0:0:
144,208,7664,5,0,0:0:0:0:
144,208,7826,1,0,0:0:0:0:
144,208,7988,5,8,0:0:0:0:
144,208,8150,5,0,0:0:0:0:
144,208,8231,1,0,0:0:0:0:
144,208,8312,1,0,0:0:0:0:
144,208,8474,1,0,0:0:0:0:
144,208,8636,5,8,0:0:0:0:
144,208,8798,5,0,0:0:0:0:
144,208,8879,1,0,0:0:0:0:
144,208,8960,5,8,0:0:0:0:
144,208,9122,5,0,0:0:0:0:
144,208,9283,5,8,0:0:0:0:
144,208,9445,5,0,0:0:0:0:
144,208,9607,1,0,0:0:0:0:
144,208,9769,1,0,0:0:0:0:
144,208,9931,5,8,0:0:0:0:
144,208,10255,5,0,0:0:0:0:
144,208,10417,1,0,0:0:0:0:
144,208,10579,5,8,0:0:0:0:
144,208,10741,5,0,0:0:0:0:
144,208,10902,1,0,0:0:0:0:
144,208,11064,1,0,0:0:0:0:
144,208,11226,5,8,0:0:0:0:
144,208,11388,5,8,0:0:0:0:
144,208,11469,1,8,0:0:0:0:
144,208,11550,1,0,0:0:0:0:
144,208,11712,1,0,0:0:0:0:
144,208,11874,5,8,0:0:0:0:
144,208,12036,5,0,0:0:0:0:
144,208,12198,1,0,0:0:0:0:
144,208,12360,1,0,0:0:0:0:
144,208,12521,5,8,0:0:0:0:
80,128,12683,1,8,0:0:0:0:
80,128,12764,1,8,0:0:0:0:
144,208,12845,5,0,0:0:0:0:
144,208,13007,1,0,0:0:0:0:
144,208,13169,5,8,0:0:0:0:
88,216,13331,1,0,0:0:0:0:
144,208,13493,1,0,0:0:0:0:
144,208,13655,1,0,0:0:0:0:
144,208,13817,5,8,0:0:0:0:
144,208,13979,5,0,0:0:0:0:
144,208,14140,1,0,0:0:0:0:
144,208,14302,1,0,0:0:0:0:
144,208,14464,5,8,0:0:0:0:
144,208,14626,5,0,0:0:0:0:
144,208,14707,1,0,0:0:0:0:
144,208,14788,1,0,0:0:0:0:
144,208,14950,1,0,0:0:0:0:
144,208,15112,5,8,0:0:0:0:
144,208,15274,5,0,0:0:0:0:
144,208,15436,1,0,0:0:0:0:
144,208,15598,1,0,0:0:0:0:
192,176,16083,1,0,0:0:0:0:
192,176,16164,1,0,0:0:0:0:
192,176,16245,5,8,0:0:0:0:
104,144,16731,5,4,0:0:0:0:
104,144,16893,1,4,0:0:0:0:
104,144,17055,1,4,0:0:0:0:
104,144,17378,1,4,0:0:0:0:
104,144,17540,1,4,0:0:0:0:
104,144,17702,1,4,0:0:0:0:
120,224,18026,5,8,0:0:0:0:
104,144,18188,5,0,0:0:0:0:
120,224,18350,5,8,0:0:0:0:
104,144,18512,5,0,0:0:0:0:
120,224,18674,5,8,0:0:0:0:
104,144,18836,5,0,0:0:0:0:
120,224,18917,1,0,0:0:0:0:
120,224,18997,5,8,0:0:0:0:
104,144,19159,5,0,0:0:0:0:
120,224,19321,5,8,0:0:0:0:
104,144,19483,5,0,0:0:0:0:
120,224,19645,5,8,0:0:0:0:
152,176,19807,1,0,0:0:0:0:
120,224,19969,5,8,0:0:0:0:
104,144,20131,5,0,0:0:0:0:
120,224,20293,5,8,0:0:0:0:
136,160,20374,5,0,0:0:0:0:
104,144,20455,1,0,0:0:0:0:
80,216,20616,1,0,0:0:0:0:
80,216,20778,1,0,0:0:0:0:
80,216,20940,5,8,0:0:0:0:
80,216,21021,5,0,0:0:0:0:
80,216,21102,1,0,0:0:0:0:
80,216,21264,1,0,0:0:0:0:
80,216,21426,1,0,0:0:0:0:
80,216,21588,5,8,0:0:0:0:
80,216,21669,5,0,0:0:0:0:
80,216,21750,1,0,0:0:0:0:
80,216,21912,1,0,0:0:0:0:
80,216,22074,1,0,0:0:0:0:
80,216,22235,5,8,0:0:0:0:
80,216,22397,1,0,0:0:0:0:
80,216,22559,1,0,0:0:0:0:
80,216,22640,1,0,0:0:0:0:
80,216,22721,5,8,0:0:0:0:
80,216,22802,1,8,0:0:0:0:
80,216,22883,5,0,0:0:0:0:
80,216,23045,1,8,0:0:0:0:
80,216,23207,1,4,0:0:0:0:
80,216,23531,1,0,0:0:0:0:
80,216,23612,1,0,0:0:0:0:
80,216,23693,5,8,0:0:0:0:
80,216,23854,1,0,0:0:0:0:
80,216,24016,1,0,0:0:0:0:
80,216,24097,1,0,0:0:0:0:
80,216,24178,5,8,0:0:0:0:
80,216,24340,1,8,0:0:0:0:
80,216,24502,5,0,0:0:0:0:
80,216,24664,1,0,0:0:0:0:
80,216,24745,1,0,0:0:0:0:
80,216,24826,5,8,0:0:0:0:
24,224,24988,1,0,0:0:0:0:
80,216,25150,5,0,0:0:0:0:
80,216,25312,1,0,0:0:0:0:
80,216,25392,1,0,0:0:0:0:
80,216,25473,5,8,0:0:0:0:
80,216,25635,1,8,0:0:0:0:
80,216,25797,5,0,0:0:0:0:
80,216,25959,1,0,0:0:0:0:
80,216,26121,5,8,0:0:0:0:
80,216,26445,1,0,0:0:0:0:
80,216,26607,1,0,0:0:0:0:
80,216,26769,5,8,0:0:0:0:
80,216,26931,5,0,0:0:0:0:
80,216,27092,1,0,0:0:0:0:
80,216,27173,1,0,0:0:0:0:
80,216,27254,1,0,0:0:0:0:
80,216,27416,5,8,0:0:0:0:
80,216,27578,5,0,0:0:0:0:
80,216,27740,5,8,0:0:0:0:
56,200,27902,5,0,0:0:0:0:
56,200,28064,5,0,0:0:0:0:
80,216,28145,5,0,0:0:0:0:
80,216,28226,1,0,0:0:0:0:
80,216,28307,1,0,0:0:0:0:
80,216,28388,1,8,0:0:0:0:
80,216,28550,1,0,0:0:0:0:
80,216,28630,1,0,0:0:0:0:
80,216,28711,5,8,0:0:0:0:
80,216,28873,5,0,0:0:0:0:
80,216,28954,1,0,0:0:0:0:
80,216,29035,1,0,0:0:0:0:
80,216,29197,1,0,0:0:0:0:
56,200,29359,5,8,0:0:0:0:
80,216,29521,1,8,0:0:0:0:
80,216,29683,5,0,0:0:0:0:
80,216,29845,5,8,0:0:0:0:
80,216,30007,1,8,0:0:0:0:
80,216,30169,5,0,0:0:0:0:
80,216,30249,1,0,0:0:0:0:
80,216,30330,1,0,0:0:0:0:
80,216,30492,5,8,0:0:0:0:
80,216,30654,1,8,0:0:0:0:
56,200,30816,1,0,0:0:0:0:
80,216,30978,1,0,0:0:0:0:
80,216,31140,5,8,0:0:0:0:
80,216,31302,1,0,0:0:0:0:
80,216,31464,5,0,0:0:0:0:
80,216,31545,1,0,0:0:0:0:
80,216,31626,1,8,0:0:0:0:
80,216,31788,5,8,0:0:0:0:
80,216,31868,1,8,0:0:0:0:
80,216,31949,1,0,0:0:0:0:
80,216,32111,5,8,0:0:0:0:
80,216,32273,1,0,0:0:0:0:
80,216,32435,5,8,0:0:0:0:
80,216,32597,1,0,0:0:0:0:
80,216,32759,5,8,0:0:0:0:
80,216,32840,1,8,0:0:0:0:
80,216,32921,5,0,0:0:0:0:
80,216,33002,5,0,0:0:0:0:
80,216,33083,1,8,0:0:0:0:
80,216,33164,1,8,0:0:0:0:
80,216,33245,5,0,0:0:0:0:
80,216,33407,1,8,0:0:0:0:
80,216,33568,5,0,0:0:0:0:
80,216,33892,5,8,0:0:0:0:
80,216,34054,5,0,0:0:0:0:
80,216,34135,1,0,0:0:0:0:
80,216,34216,1,0,0:0:0:0:
80,216,34378,1,0,0:0:0:0:
80,216,34540,5,8,0:0:0:0:
80,216,34864,1,0,0:0:0:0:
80,216,35026,1,0,0:0:0:0:
80,216,35187,5,8,0:0:0:0:
80,216,35349,5,0,0:0:0:0:
80,216,35430,5,8,0:0:0:0:
80,216,35511,5,0,0:0:0:0:
80,216,35673,1,0,0:0:0:0:
80,216,35835,5,8,0:0:0:0:
80,216,36159,1,0,0:0:0:0:
80,216,36321,5,0,0:0:0:0:
80,216,36483,5,8,0:0:0:0:
80,216,36806,5,0,0:0:0:0:
80,216,36968,1,0,0:0:0:0:
80,216,37130,5,8,0:0:0:0:
256,200,37454,5,0,0:0:0:0:
256,200,37616,1,0,0:0:0:0:
256,200,37778,5,8,0:0:0:0:
256,200,37940,5,0,0:0:0:0:
256,200,38102,1,8,0:0:0:0:
256,200,38264,1,0,0:0:0:0:
256,200,38425,1,8,0:0:0:0:
256,200,38506,1,8,0:0:0:0:
256,200,38587,1,0,0:0:0:0:
256,200,38668,1,0,0:0:0:0:
256,200,38749,1,0,0:0:0:0:
256,200,38911,1,0,0:0:0:0:
256,200,39235,1,0,0:0:0:0:
256,200,39397,5,8,0:0:0:0:
152,176,39721,5,0,0:0:0:0:
152,176,39883,1,0,0:0:0:0:
152,176,39963,1,0,0:0:0:0:
152,176,40044,1,0,0:0:0:0:
152,176,40206,1,0,0:0:0:0:
256,200,40530,1,0,0:0:0:0:
256,200,40692,5,8,0:0:0:0:
256,200,41016,1,8,0:0:0:0:
232,128,41178,5,0,0:0:0:0:
232,128,41259,1,0,0:0:0:0:
232,128,41340,1,0,0:0:0:0:
176,112,41502,5,8,0:0:0:0:
256,200,41825,5,0,0:0:0:0:
176,112,41987,5,8,0:0:0:0:
256,200,42311,5,0,0:0:0:0:
256,200,42473,1,0,0:0:0:0:
256,200,42554,1,0,0:0:0:0:
256,200,42635,1,0,0:0:0:0:
256,200,42797,5,8,0:0:0:0:
256,200,43121,5,0,0:0:0:0:
256,200,43282,5,8,0:0:0:0:
256,200,43444,5,0,0:0:0:0:
256,200,43606,1,8,0:0:0:0:
256,200,43687,1,8,0:0:0:0:
256,200,43768,1,8,0:0:0:0:
256,200,43930,1,0,0:0:0:0:
256,200,44092,1,0,0:0:0:0:
256,200,44416,1,0,0:0:0:0:
256,200,44578,5,8,0:0:0:0:
312,184,44901,5,8,0:0:0:0:
152,176,45063,5,0,0:0:0:0:
152,176,45225,5,8,0:0:0:0:
256,200,45306,1,8,0:0:0:0:
256,200,45387,1,0,0:0:0:0:
256,200,45468,1,0,0:0:0:0:
256,200,45549,1,8,0:0:0:0:
256,200,45711,1,0,0:0:0:0:
256,200,45873,5,8,0:0:0:0:
256,200,46197,1,8,0:0:0:0:
240,224,46358,1,8,0:0:0:0:
240,224,46439,1,8,0:0:0:0:
256,200,46520,5,0,0:0:0:0:
232,128,46682,1,0,0:0:0:0:
176,112,46844,1,8,0:0:0:0:
256,200,47168,1,0,0:0:0:0:
176,112,47330,5,8,0:0:0:0:
240,224,47411,5,8,0:0:0:0:
274,232,47492,1,0,0:0:0:0:
274,232,47816,1,0,0:0:0:0:
256,200,47977,1,0,0:0:0:0:
232,232,48058,1,8,0:0:0:0:
256,200,48139,5,8,0:0:0:0:
256,200,48301,1,0,0:0:0:0:
256,200,48463,5,0,0:0:0:0:
256,200,48625,5,8,0:0:0:0:
256,200,48787,5,0,0:0:0:0:
256,200,48868,1,0,0:0:0:0:
256,200,48949,1,0,0:0:0:0:
280,216,49030,1,0,0:0:0:0:
256,200,49111,1,0,0:0:0:0:
256,200,49273,1,0,0:0:0:0:
256,200,49596,1,0,0:0:0:0:
152,176,49677,1,0,0:0:0:0:
256,200,49758,5,8,0:0:0:0:
152,176,49920,1,8,0:0:0:0:
152,176,50082,5,0,0:0:0:0:
152,176,50244,1,0,0:0:0:0:
152,176,50406,1,0,0:0:0:0:
152,176,50568,5,8,0:0:0:0:
256,200,50892,5,0,0:0:0:0:
152,176,50973,1,0,0:0:0:0:
256,200,51054,5,8,0:0:0:0:
152,176,51215,5,0,0:0:0:0:
256,200,51377,5,8,0:0:0:0:
176,112,51539,5,0,0:0:0:0:
200,128,51620,1,0,0:0:0:0:
232,128,51701,1,0,0:0:0:0:
176,112,51863,1,0,0:0:0:0:
256,200,52187,1,0,0:0:0:0:
176,112,52349,5,8,0:0:0:0:
176,112,52511,1,8,0:0:0:0:
176,112,52592,1,8,0:0:0:0:
256,200,52673,5,0,0:0:0:0:
256,200,52834,1,0,0:0:0:0:
256,200,52996,1,8,0:0:0:0:
256,200,53158,5,0,0:0:0:0:
256,200,53482,5,0,0:0:0:0:
256,200,53644,5,8,0:0:0:0:
256,200,53806,5,0,0:0:0:0:
256,200,53887,1,0,0:0:0:0:
256,200,53968,1,0,0:0:0:0:
256,200,54130,1,0,0:0:0:0:
256,200,54292,1,0,0:0:0:0:
256,200,54615,5,8,0:0:0:0:
256,200,54939,1,0,0:0:0:0:
256,200,55101,1,0,0:0:0:0:
256,200,55263,5,8,0:0:0:0:
256,200,55425,5,0,0:0:0:0:
256,200,55587,1,8,0:0:0:0:
256,200,55749,1,0,0:0:0:0:
256,200,55911,5,0,0:0:0:0:
256,200,56072,5,0,0:0:0:0:
256,200,56234,1,8,0:0:0:0:
256,200,56396,1,0,0:0:0:0:
256,200,56558,1,0,0:0:0:0:
256,200,56639,1,0,0:0:0:0:
256,200,56720,1,0,0:0:0:0:
256,200,56801,1,0,0:0:0:0:
256,200,56882,1,0,0:0:0:0:
256,200,57044,1,0,0:0:0:0:
256,200,57530,1,4,0:0:0:0:
256,200,57691,1,4,0:0:0:0:
256,200,58177,1,4,0:0:0:0:
256,200,58339,1,4,0:0:0:0:
256,200,58825,5,8,0:0:0:0:
256,200,58906,5,0,0:0:0:0:
256,200,58987,1,0,0:0:0:0:
256,200,59149,5,12,0:0:0:0:
144,208,59472,5,0,0:0:0:0:
144,208,59634,1,0,0:0:0:0:
168,216,59715,1,0,0:0:0:0:
144,208,59796,5,8,0:0:0:0:
144,208,59958,5,0,0:0:0:0:
144,208,60120,1,0,0:0:0:0:
144,208,60282,1,0,0:0:0:0:
144,208,60444,5,8,0:0:0:0:
144,208,60606,5,0,0:0:0:0:
144,208,60768,1,0,0:0:0:0:
144,208,60929,1,0,0:0:0:0:
120,192,61010,1,0,0:0:0:0:
144,208,61091,5,8,0:0:0:0:
144,208,61253,5,0,0:0:0:0:
144,208,61415,1,0,0:0:0:0:
144,208,61577,1,0,0:0:0:0:
144,208,61739,5,8,0:0:0:0:
144,208,61901,5,0,0:0:0:0:
144,208,61982,1,0,0:0:0:0:
144,208,62063,1,0,0:0:0:0:
144,208,62225,1,0,0:0:0:0:
144,208,62387,5,8,0:0:0:0:
144,208,62548,5,0,0:0:0:0:
144,208,62710,1,0,0:0:0:0:
144,208,62791,1,0,0:0:0:0:
144,208,62872,1,0,0:0:0:0:
144,208,63034,5,8,0:0:0:0:
144,208,63115,1,8,0:0:0:0:
144,208,63196,5,0,0:0:0:0:
144,208,63358,1,0,0:0:0:0:
144,208,63520,1,0,0:0:0:0:
144,208,63682,5,8,0:0:0:0:
144,208,63844,5,0,0:0:0:0:
144,208,64006,5,8,0:0:0:0:
144,208,64167,5,0,0:0:0:0:
144,208,64329,1,8,0:0:0:0:
144,208,64410,1,8,0:0:0:0:
144,208,64491,1,8,0:0:0:0:
144,208,64572,1,8,0:0:0:0:
144,208,64653,1,0,0:0:0:0:
144,208,64815,1,0,0:0:0:0:
144,208,64977,5,8,0:0:0:0:
144,208,65139,5,0,0:0:0:0:
144,208,65463,1,0,0:0:0:0:
144,208,65625,5,8,0:0:0:0:
144,208,65786,5,0,0:0:0:0:
144,208,65948,1,0,0:0:0:0:
144,208,66029,1,0,0:0:0:0:
144,208,66110,1,0,0:0:0:0:
144,208,66272,5,8,0:0:0:0:
144,208,66434,5,0,0:0:0:0:
144,208,66596,1,0,0:0:0:0:
144,208,66758,1,0,0:0:0:0:
144,208,66839,1,0,0:0:0:0:
144,208,66920,5,8,0:0:0:0:
144,208,67082,5,0,0:0:0:0:
144,208,67244,5,8,0:0:0:0:
144,208,67405,5,0,0:0:0:0:
144,208,67567,5,8,0:0:0:0:
144,208,67891,5,8,0:0:0:0:
144,208,68053,5,0,0:0:0:0:
144,208,68215,5,8,0:0:0:0:
144,208,68377,5,8,0:0:0:0:
144,208,68539,5,0,0:0:0:0:
144,208,68701,5,0,0:0:0:0:
144,208,68863,5,8,0:0:0:0:
144,208,69024,1,8,0:0:0:0:
144,208,69186,5,0,0:0:0:0:
144,208,69267,1,0,0:0:0:0:
144,208,69348,1,0,0:0:0:0:
144,208,69429,1,0,0:0:0:0:
144,208,69510,1,8,0:0:0:0:
112,215,69834,5,8,0:0:0:0:
144,208,69996,5,0,0:0:0:0:
144,208,70158,5,8,0:0:0:0:
144,208,70320,5,0,0:0:0:0:
144,208,70482,1,0,0:0:0:0:
144,208,70643,1,0,0:0:0:0:
144,208,70805,5,8,0:0:0:0:
144,208,70967,5,0,0:0:0:0:
144,208,71129,1,0,0:0:0:0:
144,208,71291,1,0,0:0:0:0:
144,208,71453,5,8,0:0:0:0:
144,208,71615,5,0,0:0:0:0:
144,208,71777,1,0,0:0:0:0:
144,208,71939,1,0,0:0:0:0:
144,208,72101,5,8,0:0:0:0:
144,208,72262,1,8,0:0:0:0:
144,208,72343,1,8,0:0:0:0:
144,208,72424,5,0,0:0:0:0:
144,208,72586,1,0,0:0:0:0:
144,208,72748,5,8,0:0:0:0:
144,208,72910,5,0,0:0:0:0:
144,208,73072,1,0,0:0:0:0:
144,208,73153,1,0,0:0:0:0:
144,208,73234,1,0,0:0:0:0:
144,208,73396,5,8,0:0:0:0:
144,208,73477,1,8,0:0:0:0:
144,208,73558,5,0,0:0:0:0:
144,208,73720,1,0,0:0:0:0:
144,208,73881,1,0,0:0:0:0:
144,208,74043,5,8,0:0:0:0:
144,208,74205,5,0,0:0:0:0:
144,208,74367,1,0,0:0:0:0:
144,208,74529,5,8,0:0:0:0:
144,208,74691,5,8,0:0:0:0:
144,208,74772,1,8,0:0:0:0:
144,208,74853,1,8,0:0:0:0:
144,208,74934,1,8,0:0:0:0:
144,208,75015,1,0,0:0:0:0:
144,208,75177,1,0,0:0:0:0:
144,208,75339,5,8,0:0:0:0:
144,208,75500,5,0,0:0:0:0:
144,208,75824,1,0,0:0:0:0:
144,208,75986,5,8,0:0:0:0:
144,208,76148,5,0,0:0:0:0:
144,208,76310,1,0,0:0:0:0:
144,208,76391,1,0,0:0:0:0:
144,208,76472,5,8,0:0:0:0:
144,208,76634,1,8,0:0:0:0:
144,208,76715,1,8,0:0:0:0:
144,208,76796,5,0,0:0:0:0:
144,208,76958,1,0,0:0:0:0:
144,208,77119,5,8,0:0:0:0:
144,208,77281,1,8,0:0:0:0:
144,208,77443,5,0,0:0:0:0:
144,208,77605,1,0,0:0:0:0:
144,208,77767,1,0,0:0:0:0:
144,208,77929,5,8,0:0:0:0:
144,208,78253,5,0,0:0:0:0:
144,208,78415,1,0,0:0:0:0:
144,208,78577,5,8,0:0:0:0:
144,208,78738,5,0,0:0:0:0:
144,208,78900,1,0,0:0:0:0:
144,208,79062,1,0,0:0:0:0:
144,208,79224,5,8,0:0:0:0:
144,208,79548,5,0,0:0:0:0:
144,208,79710,1,0,0:0:0:0:
144,208,79872,5,8,0:0:0:0:
144,208,80034,5,0,0:0:0:0:
144,208,80115,1,0,0:0:0:0:
144,208,80196,1,0,0:0:0:0:
144,208,80357,1,0,0:0:0:0:
144,208,80438,1,0,0:0:0:0:
144,208,80519,1,0,0:0:0:0:
144,208,80681,1,0,0:0:0:0:
144,208,80843,5,8,0:0:0:0:
144,208,81005,5,0,0:0:0:0:
144,208,81329,1,0,0:0:0:0:
144,208,81491,1,0,0:0:0:0:
144,208,81653,5,8,0:0:0:0:
144,208,81734,5,0,0:0:0:0:
144,208,81815,1,0,0:0:0:0:
144,208,81976,1,0,0:0:0:0:
144,208,82138,5,8,0:0:0:0:
144,208,82300,5,0,0:0:0:0:
144,208,82462,5,8,0:0:0:0:
144,180,82786,1,0,0:0:0:0:
144,208,82948,1,0,0:0:0:0:
144,208,83029,1,0,0:0:0:0:
144,208,83110,1,0,0:0:0:0:
144,208,83272,1,0,0:0:0:0:
144,208,83434,5,8,0:0:0:0:
144,208,83595,5,0,0:0:0:0:
144,208,83919,5,8,0:0:0:0:
144,208,84081,5,0,0:0:0:0:
144,208,84243,1,0,0:0:0:0:
144,208,84324,1,0,0:0:0:0:
144,208,84405,1,0,0:0:0:0:
144,208,84567,5,8,0:0:0:0:
144,208,84729,1,8,0:0:0:0:
144,208,84891,5,0,0:0:0:0:
144,208,85053,5,8,0:0:0:0:
144,208,85376,1,0,0:0:0:0:
144,208,85538,1,0,0:0:0:0:
144,208,85700,1,0,0:0:0:0:
144,208,85862,1,0,0:0:0:0:
144,208,85943,1,0,0:0:0:0:
144,208,86024,5,8,0:0:0:0:
144,208,86348,5,0,0:0:0:0:
144,208,86510,1,0,0:0:0:0:
144,208,86672,1,0,0:0:0:0:
144,208,86833,5,8,0:0:0:0:
144,208,86995,5,0,0:0:0:0:
144,208,87157,1,0,0:0:0:0:
144,208,87238,1,0,0:0:0:0:
144,208,87319,5,8,0:0:0:0:
144,208,87643,5,0,0:0:0:0:
144,208,87805,1,8,0:0:0:0:
144,180,87967,1,0,0:0:0:0:
144,208,88129,1,0,0:0:0:0:
144,208,88290,1,0,0:0:0:0:
144,208,88452,1,0,0:0:0:0:
144,208,88533,1,0,0:0:0:0:
144,208,88614,5,8,0:0:0:0:
144,208,88938,5,0,0:0:0:0:
144,208,89100,1,0,0:0:0:0:
144,208,89262,1,0,0:0:0:0:
144,208,89424,5,8,0:0:0:0:
144,208,89586,5,0,0:0:0:0:
144,208,89748,5,0,0:0:0:0:
144,208,89909,1,8,0:0:0:0:
208,176,90071,5,0,0:0:0:0:
144,208,90233,1,8,0:0:0:0:
144,208,90395,1,0,0:0:0:0:
144,208,90476,1,0,0:0:0:0:
264,184,90557,1,0,0:0:0:0:
208,176,90719,1,0,0:0:0:0:
264,184,91205,1,4,0:0:0:0:
208,176,91367,1,4,0:0:0:0:
264,184,91852,1,4,0:0:0:0:
208,176,92014,1,4,0:0:0:0:
264,184,92338,1,4,0:0:0:0:
208,176,92662,1,4,0:0:0:0:
80,168,92986,5,8,0:0:0:0:
80,168,93067,1,8,0:0:0:0:
80,168,93147,5,0,0:0:0:0:
80,168,93309,1,0,0:0:0:0:
16,144,93633,5,8,0:0:0:0:
16,144,93795,5,0,0:0:0:0:
16,144,93957,1,0,0:0:0:0:
192,192,94281,5,8,0:0:0:0:
192,192,94443,5,0,0:0:0:0:
192,192,94605,1,0,0:0:0:0:
192,192,94766,1,0,0:0:0:0:
192,192,94928,1,0,0:0:0:0:
192,192,95252,1,4,0:0:0:0:
