osu file format v12

[General]
AudioFilename: Mousou Koukan Nikki.mp3
AudioLeadIn: 1500
PreviewTime: 64006
Countdown: 0
SampleSet: Soft
StackLeniency: 0.7
Mode: 0
LetterboxInBreaks: 0

[Editor]
DistanceSpacing: 1.3
BeatDivisor: 4
GridSize: 16

[Metadata]
Title:Mousou Koukan Nikki (TV Size)
TitleUnicode:もうそう★こうかんにっき (TV Size)
Artist:Otome Shintou
ArtistUnicode:乙女新党
Creator:Natsu
Version:Insane
Source:GJ-bu
Tags:opening xinely hinsvar DakeDekaane
BeatmapID:230542
BeatmapSetID:83504

[Difficulty]
HPDrainRate:7
CircleSize:4
OverallDifficulty:7
ApproachRate:8
SliderMultiplier:2
SliderTickRate:2

[Events]
//Background and Video events
Video,0,"Video.avi"
0,0,"bg.jpg",0,0
//Break Periods
//Storyboard Layer 0 (Background)
//Storyboard Layer 1 (Fail)
//Storyboard Layer 2 (Pass)
//Storyboard Layer 3 (Foreground)
//Storyboard Sound Samples
//Background Colour Transformations
3,100,163,162,255

[TimingPoints]
651,394.736842105263,4,2,1,30,1,0
5387,-100,4,2,2,35,0,0
6769,-100,4,2,1,30,0,0
7953,-100,4,2,2,30,0,0
8150,-100,4,2,1,30,0,0
9532,-100,4,2,2,30,0,0
9631,-100,4,2,1,30,0,0
12098,-100,4,2,1,50,0,0
15848,-100,4,2,1,50,0,0
16045,-100,4,2,1,50,0,0
20585,-100,4,2,2,50,0,0
20782,-100,4,2,1,50,0,0
38282,-100,4,2,1,40,0,0
38479,-100,4,2,1,30,0,0
39335,394.736842105263,4,2,1,40,1,0
50585,-100,4,2,2,40,0,0
50683,-100,4,2,1,40,0,0
64598,-100,4,2,1,50,0,1
88282,-100,4,2,1,50,0,0
89269,-100,4,2,1,10,0,0

[Colours]
Combo1 : 255,202,79
Combo2 : 255,170,94
Combo3 : 255,81,168
Combo4 : 190,125,255

[HitObjects]
256,192,651,1,4,0:2:0:0:
256,192,1045,1,8,0:0:0:0:
256,92,1243,1,0,0:0:0:0:
256,92,1341,1,0,0:0:0:0:
256,92,1440,1,0,0:0:0:0:
314,271,1637,1,0,0:0:0:0:
161,160,1835,1,8,0:0:0:0:
349,160,2032,1,0,0:0:0:0:
197,271,2229,6,0,L|124:344,1,100,0|0,0:0|0:0,0:0:0:0:
90,231,2624,2,0,L|169:152,1,100,8|0,0:0|0:0,0:0:0:0:
320,146,3019,2,0,L|247:219,1,100,0|0,0:0|0:0,0:0:0:0:
220,104,3414,2,0,L|299:25,1,100,8|0,0:0|0:0,0:0:0:0:
400,52,3808,5,0,0:0:0:0:
124,344,4203,1,8,0:0:0:0:
199,266,4400,1,0,0:0:0:0:
199,266,4499,1,0,0:0:0:0:
199,266,4598,1,0,0:0:0:0:
345,164,4795,1,0,0:0:0:0:
167,161,4993,1,8,0:0:0:0:
309,268,5190,1,0,0:0:0:0:
257,98,5387,5,0,0:0:0:0:
240,80,5486,1,0,0:0:0:0:
220,64,5585,1,8,0:0:0:0:
196,56,5683,1,0,0:0:0:0:
172,52,5782,2,0,P|120:60|84:100,1,100,8|0,0:0|0:0,0:0:0:0:
172,332,6177,2,0,P|120:324|87:291,1,100,8|0,0:0|0:0,0:0:0:0:
84,192,6572,1,8,0:0:0:0:
84,192,6670,1,0,0:0:0:0:
84,192,6769,2,0,L|196:192,1,100,12|4,0:0|0:0,0:0:0:0:
310,297,7361,5,8,0:0:0:0:
440,151,7558,1,0,0:0:0:0:
440,151,7657,1,0,0:0:0:0:
440,151,7756,2,0,P|416:191|360:231,1,100,0|8,0:0|0:0,0:0:0:0:
310,297,8150,2,0,P|334:257|390:217,1,100,8|0,0:0|0:0,0:0:0:0:
345,127,8545,6,0,L|268:51,1,100,0|0,0:0|0:0,0:0:0:0:
134,68,8940,2,0,L|204:138,1,100,8|0,0:0|0:0,0:0:0:0:
272,208,9335,1,0,0:0:0:0:
172,240,9532,1,8,0:0:0:0:
172,240,9631,1,0,0:0:0:0:
172,240,9729,2,0,L|242:310,1,100,8|0,0:0|0:0,0:0:0:0:
352,336,10124,6,0,P|432:308|432:200,1,200,4|8,0:0|0:0,0:0:0:0:
428,180,10618,1,0,0:0:0:0:
420,156,10716,1,0,0:0:0:0:
406,135,10815,1,0,0:0:0:0:
389,117,10914,1,0,0:0:0:0:
370,98,11012,1,0,0:0:0:0:
350,84,11111,1,0,0:0:0:0:
327,75,11210,1,0,0:0:0:0:
304,64,11308,2,0,P|256:40|200:40,1,100,8|0,0:0|0:0,0:0:0:0:
96,84,11703,5,6,0:0:0:0:
96,204,11900,1,0,0:0:0:0:
16,296,12098,2,0,P|96:344|180:288,1,200,8|2,0:0|0:0,0:0:0:0:
256,196,12690,1,0,0:0:0:0:
288,80,12887,2,0,P|336:96|372:148,1,100,8|0,0:0|0:0,0:0:0:0:
420,55,13282,6,0,P|404:103|352:139,1,100,6|0,0:0|0:0,0:0:0:0:
446,187,13677,2,0,P|398:171|362:119,1,100,8|0,0:0|0:0,0:0:0:0:
314,213,14072,2,0,P|330:165|382:129,1,100,2|0,0:0|0:0,0:0:0:0:
289,81,14466,2,0,P|337:97|373:149,1,100,8|0,0:0|0:0,0:0:0:0:
395,294,14861,5,2,0:0:0:0:
274,294,15058,1,0,0:0:0:0:
165,244,15256,2,0,P|148:293|166:349,2,100,8|0|2,0:0|0:0|0:0,0:0:0:0:
256,160,15848,1,8,0:0:0:0:
303,51,16045,2,0,P|254:35|196:62,1,100,8|0,0:0|0:0,0:0:0:0:
91,133,16440,5,2,0:0:0:0:
165,245,16637,1,0,0:0:0:0:
240,133,16835,1,8,0:0:0:0:
316,245,17032,1,0,0:0:0:0:
391,133,17229,2,0,P|426:90|472:52,2,100,2|0|8,0:0|0:0|0:0,0:0:0:0:
316,245,17822,1,0,0:0:0:0:
240,133,18019,6,0,P|192:108|161:64,1,100,6|0,0:0|0:0,0:0:0:0:
80,107,18414,2,0,P|94:149|89:203,1,100,8|0,0:0|0:0,0:0:0:0:
188,219,18808,1,2,0:0:0:0:
277,267,19006,2,0,P|248:307|198:317,2,100,0|8|0,0:0|0:0|0:0,0:0:0:0:
366,192,19598,5,2,0:0:0:0:
176,112,19795,1,0,0:0:0:0:
256,302,19993,1,8,0:0:0:0:
334,112,20190,1,0,0:0:0:0:
143,192,20387,1,2,0:0:0:0:
334,270,20585,1,8,0:0:0:0:
255,79,20782,1,8,0:0:0:0:
176,270,20979,1,0,0:0:0:0:
477,150,21177,6,0,L|386:191,1,100,2|0,0:0|0:0,0:0:0:0:
484,39,21572,2,0,L|392:79,1,100,8|0,0:0|0:0,0:0:0:0:
221,151,21966,2,0,L|313:111,1,100,2|0,0:0|0:0,0:0:0:0:
215,263,22361,2,0,L|315:219,1,100,8|0,0:0|0:0,0:0:0:0:
460,148,22756,6,0,P|497:183|496:240,1,100,6|0,0:0|0:0,0:0:0:0:
412,352,23150,1,8,0:0:0:0:
258,342,23348,2,0,P|157:310|145:211,1,200,2|2,0:0|0:0,0:0:0:0:
233,169,23940,2,0,P|200:129|154:111,1,100,8|0,0:0|0:0,0:0:0:0:
56,114,24335,6,0,P|76:61|109:35,1,100,2|0,0:0|0:0,0:0:0:0:
219,36,24729,2,0,P|268:53|317:29,1,100,8|0,0:0|0:0,0:0:0:0:
420,28,25124,1,2,0:0:0:0:
480,116,25322,1,0,0:0:0:0:
380,164,25519,2,0,P|362:206|379:255,1,100,8|0,0:0|0:0,0:0:0:0:
492,288,25914,6,0,P|472:341|439:366,1,100,6|0,0:0|0:0,0:0:0:0:
312,360,26308,1,8,0:0:0:0:
188,348,26506,2,0,P|155:323|135:270,1,100,0|2,0:0|0:0,0:0:0:0:
104,152,26900,2,0,P|84:99|51:74,2,100,0|8|0,0:0|0:0|0:0,0:0:0:0:
133,270,27493,6,0,L|233:270,1,100,2|0,0:0|0:0,0:0:0:0:
406,190,27887,2,0,L|306:190,1,100,8|0,0:0|0:0,0:0:0:0:
121,190,28282,2,0,L|221:190,1,100,2|0,0:0|0:0,0:0:0:0:
406,270,28677,2,0,L|306:269,1,100,8|0,0:0|0:0,0:0:0:0:
34,191,29072,6,0,P|51:139|92:110,1,100,2|0,0:0|0:0,0:0:0:0:
103,22,29466,2,0,B|168:27|184:91|184:91|273:72,1,200,8|2,0:0|0:0,0:0:0:0:
363,45,30058,1,0,0:0:0:0:
409,137,30256,1,8,0:0:0:0:
313,171,30453,1,0,0:0:0:0:
220,188,30650,6,0,P|232:236|284:264,1,100,6|0,0:2|0:0,0:0:0:0:
371,251,31045,1,8,0:0:0:0:
467,121,31243,1,0,0:0:0:0:
313,171,31440,1,2,0:0:0:0:
467,221,31637,1,0,0:0:0:0:
371,91,31835,2,0,P|335:54|281:36,1,100,8|0,0:0|0:0,0:0:0:0:
130,71,32229,6,0,L|57:144,1,100,2|0,0:0|0:0,0:0:0:0:
66,251,32624,2,0,L|136:180,1,100,8|0,0:0|0:0,0:0:0:0:
253,176,33019,2,0,L|180:249,1,100,2|0,0:0|0:0,0:0:0:0:
191,349,33414,2,0,L|261:278,1,100,8|0,0:0|0:0,0:0:0:0:
335,198,33808,6,0,B|367:166|367:166|445:125|414:27|374:19,1,200,2|8,0:0|0:0,0:0:0:0:
334,87,34400,1,0,0:0:0:0:
169,133,34598,2,0,P|206:168|253:176,1,100,2|0,0:0|0:0,0:0:0:0:
162,102,34993,2,0,P|154:55|119:18,1,100,8|0,0:0|0:0,0:0:0:0:
64,100,35387,6,0,L|8:156,1,66.6666666666667,2|0,0:0|0:0,0:0:0:0:
100,172,35650,2,0,L|40:232,1,66.6666666666667,0|8,0:0|0:0,0:0:0:0:
136,248,35914,2,0,L|80:304,1,66.6666666666667
172,320,36177,2,0,L|124:367,1,66.6666666666667,2|0,0:0|0:0,0:0:0:0:
256,356,36440,38,0,L|256:284,1,66.6666666666667,0|8,0:0|0:0,0:0:0:0:
340,320,36703,6,0,L|387:367,1,66.6666666666667,0|0,0:0|0:0,0:0:0:0:
376,248,36966,2,0,L|423:295,1,66.6666666666667,2|0,0:0|0:0,0:0:0:0:
412,172,37229,2,0,L|459:219,1,66.6666666666667,0|8,0:0|0:0,0:0:0:0:
448,100,37493,2,0,L|495:147,1,66.6666666666667,2|0,0:0|0:0,0:0:0:0:
384,40,37756,5,6,0:0:0:0:
257,158,38019,1,4,0:0:0:0:
135,40,38282,1,4,0:0:0:0:
257,158,38479,1,4,0:0:0:0:
141,329,38743,1,0,0:0:0:0:
141,329,38841,1,0,0:0:0:0:
141,330,38940,1,8,0:0:0:0:
374,345,39335,6,0,B|436:312|444:272|452:232|512:204,1,200,2|8,0:0|0:0,0:0:0:0:
511,124,39927,1,0,0:0:0:0:
461,59,40124,2,0,P|408:46|366:22,1,100,2|0,0:0|0:0,0:0:0:0:
187,59,40519,2,0,P|240:46|280:24,1,100,8|0,0:0|0:0,0:0:0:0:
108,20,40913,6,0,P|99:70|122:122,1,100,2|0,0:0|0:0,0:0:0:0:
200,140,41308,2,0,P|169:187|119:205,1,100,8|0,0:0|0:0,0:0:0:0:
37,247,41703,1,2,0:0:0:0:
108,311,41900,2,0,P|146:328|177:375,2,100,0|8|0,0:0|0:0|0:0,0:0:0:0:
38,247,42492,6,0,P|69:294|114:311,1,100,2|0,0:0|0:0,0:0:0:0:
133,213,42887,1,8,0:0:0:0:
220,262,43085,1,0,0:0:0:0:
230,159,43282,2,0,L|352:159,1,100,2|0,0:0|0:0,0:0:0:0:
329,58,43677,2,0,L|329:175,1,100,8|0,0:0|0:0,0:0:0:0:
429,157,44071,6,0,L|319:157,1,100,2|0,0:0|0:0,0:0:0:0:
330,257,44466,2,0,L|330:143,1,100,8|0,0:0|0:0,0:0:0:0:
230,159,44861,1,2,0:0:0:0:
82,91,45058,1,0,0:0:0:0:
161,232,45256,1,8,0:0:0:0:
181,72,45453,1,0,0:0:0:0:
70,190,45650,6,0,P|81:286|168:328,1,200,2|8,0:0|0:0,0:0:0:0:
160,232,46242,1,0,0:0:0:0:
160,232,46341,1,0,0:0:0:0:
160,232,46440,2,0,L|344:120,1,200,6|8,0:0|0:0,0:0:0:0:
331,25,47032,1,0,0:0:0:0:
331,25,47131,1,0,0:0:0:0:
331,25,47229,6,0,P|417:68|428:164,1,200,6|8,0:0|0:0,0:0:0:0:
372,248,47821,1,0,0:0:0:0:
256,344,48019,1,2,0:0:0:0:
32,192,48413,5,8,0:0:0:0:
256,44,48808,1,2,0:0:0:0:
480,192,49203,1,8,0:0:0:0:
304,352,49598,2,0,P|232:336|208:264,1,150,2|0,0:0|0:0,0:0:0:0:
224,252,49992,2,0,P|264:216|272:156,1,100,8|6,0:0|0:0,0:0:0:0:
256,44,50387,5,0,0:0:0:0:
167,147,50585,1,8,0:0:0:0:
167,147,50683,1,0,0:0:0:0:
167,146,50782,1,8,0:0:0:0:
104,27,50979,1,0,0:0:0:0:
104,28,51177,2,0,P|12:52|12:152,1,200,2|8,0:0|0:0,0:0:0:0:
88,240,51769,1,0,0:0:0:0:
188,328,51966,6,0,B|348:284|196:172|376:124,1,300,6|0,0:0|0:0,0:0:0:0:
468,168,52756,2,0,P|492:76|411:35,1,200,2|8,0:0|0:0,0:0:0:0:
300,52,53348,1,0,0:0:0:0:
188,35,53545,6,0,P|107:75|131:167,1,200,2|8,0:0|0:0,0:0:0:0:
256,192,54137,1,0,0:0:0:0:
381,217,54334,2,0,P|405:309|324:349,1,200,2|8,0:0|0:0,0:0:0:0:
201,310,54927,1,0,0:0:0:0:
256,192,55124,6,0,B|183:138|215:106|246:69|158:19,1,200,2|8,0:0|0:0,0:0:0:0:
66,37,55716,1,0,0:0:0:0:
29,135,55913,2,0,B|64:216|104:189|139:160|186:239,1,200,2|8,0:0|0:0,0:0:0:0:
257,314,56506,1,0,0:0:0:0:
361,361,56703,6,0,P|396:312|405:258,1,100,2|0,0:0|0:0,0:0:0:0:
320,198,57098,2,0,P|328:159|363:110,1,100,8|0,0:0|0:0,0:0:0:0:
256,47,57492,2,0,B|205:219|85:23|60:219,1,300,2|0,0:0|0:0,0:0:0:0:
64,336,58282,5,12,0:0:0:0:
448,336,58677,1,6,0:0:0:0:
256,32,59071,2,0,P|209:54|178:99,1,100,2|0,0:0|0:0,0:0:0:0:
216,216,59466,2,0,P|263:194|292:157,1,100,8|0,0:0|0:0,0:0:0:0:
256,32,59861,5,2,0:0:0:0:
256,348,60256,1,8,0:0:0:0:
256,192,60650,2,0,P|172:144|100:204,1,200,2|8,0:0|0:0,0:0:0:0:
48,328,61242,1,0,0:0:0:0:
48,328,61440,5,6,0:0:0:0:
464,48,62032,5,4,0:0:0:0:
464,48,62229,1,6,0:0:0:0:
256,192,62821,5,4,0:0:0:0:
256,192,63019,1,6,0:0:0:0:
256,344,63315,1,4,0:0:0:0:
256,48,63611,5,4,0:0:0:0:
144,120,63808,1,6,0:0:0:0:
256,192,64006,1,0,0:0:0:0:
256,192,64203,2,0,P|216:236|156:256,1,100,12|0,0:0|0:0,0:0:0:0:
240,328,64598,6,0,P|196:288|176:228,1,100,6|0,0:0|0:0,0:0:0:0:
104,312,64992,2,0,P|144:268|204:248,1,100,8|0,0:0|0:0,0:0:0:0:
120,176,65387,2,0,P|164:216|184:276,1,100,2|0,0:0|0:0,0:0:0:0:
256,192,65782,2,0,L|336:112,1,100,8|0,0:0|0:0,0:0:0:0:
432,88,66177,6,0,P|408:40|352:20,1,100,2|0,0:0|0:0,0:0:0:0:
260,48,66571,2,0,P|213:70|161:58,1,100,8|0,0:0|0:0,0:0:0:0:
68,24,66966,2,0,P|27:43|4:96,1,100,2|0,0:0|0:0,0:0:0:0:
112,116,67361,5,8,0:0:0:0:
276,170,67558,1,0,0:0:0:0:
147,286,67756,1,2,0:0:0:0:
208,95,67953,1,0,0:0:0:0:
79,211,68150,1,8,0:0:0:0:
245,265,68348,1,0,0:0:0:0:
208,95,68545,2,0,P|292:52|360:128,1,200,2|8,0:0|0:0,0:0:0:0:
372,216,69137,1,0,0:0:0:0:
320,300,69334,5,2,0:0:0:0:
224,280,69532,1,0,0:0:0:0:
176,368,69729,1,8,0:0:0:0:
80,336,69927,1,0,0:0:0:0:
124,248,70124,1,2,0:0:0:0:
264,176,70321,1,0,0:0:0:0:
400,100,70519,2,0,P|376:52|324:20,1,100,8|0,0:0|0:0,0:0:0:0:
192,80,70913,5,2,0:0:0:0:
60,164,71111,2,0,P|56:236|80:276,1,100,0|8,0:0|0:0,0:0:0:0:
176,368,71506,1,0,0:0:0:0:
336,280,71703,1,2,0:0:0:0:
230,142,71900,1,0,0:0:0:0:
400,100,72098,1,8,0:0:0:0:
328,16,72295,6,0,B|260:64|292:136|292:136|208:144,1,200,0|0,0:0|0:0,0:0:0:0:
205,146,72788,1,0,0:0:0:0:
180,148,72887,1,8,0:0:0:0:
74,202,73084,1,0,0:0:0:0:
176,252,73282,2,0,P|232:252|280:224,1,100,2|0,0:0|0:0,0:0:0:0:
400,216,73677,2,0,P|380:163|338:127,1,100,8|0,0:0|0:0,0:0:0:0:
292,20,74071,6,0,P|243:48|217:97,1,100,2|0,0:0|0:0,0:0:0:0:
116,164,74466,2,0,P|144:212|193:238,1,100,8|0,0:0|0:0,0:0:0:0:
240,314,74861,1,2,0:0:0:0:
336,184,75058,1,0,0:0:0:0:
182,234,75256,1,8,0:0:0:0:
336,284,75453,1,0,0:0:0:0:
240,153,75650,6,0,L|184:64,1,100,2|0,0:0|0:0,0:0:0:0:
24,56,76045,2,0,L|77:140,1,100,8|0,0:0|0:0,0:0:0:0:
152,236,76440,1,2,0:0:0:0:
256,296,76637,2,0,P|228:344|172:368,2,100,0|8|0,0:0|0:0|0:0,0:0:0:0:
360,148,77229,5,6,0:0:0:0:
256,88,77427,2,0,P|284:40|340:16,2,100,0|8|0,0:0|0:0|0:0,0:0:0:0:
192,192,78019,1,2,0:0:0:0:
140,308,78216,1,0,0:0:0:0:
264,308,78413,1,8,0:0:0:0:
192,192,78611,1,0,0:0:0:0:
140,308,78808,5,2,0:0:0:0:
264,308,79006,2,0,P|312:224|272:120,1,200
192,40,79598,1,2,0:0:0:0:
88,116,79795,1,0,0:0:0:0:
192,192,79992,2,0,P|236:216|288:204,1,100,8|0,0:0|0:0,0:0:0:0:
335,129,80387,5,2,0:0:0:0:
328,24,80584,1,0,0:0:0:0:
418,70,80782,1,8,0:0:0:0:
335,129,80979,1,0,0:0:0:0:
247,81,81177,2,0,P|152:88|129:179,1,200,2|8,0:0|0:0,0:0:0:0:
256,192,81769,2,0,L|328:263,1,100,0|2,0:0|0:0,0:0:0:0:
412,344,82163,5,0,0:0:0:0:
412,344,82262,1,0,0:0:0:0:
412,344,82361,1,8,0:0:0:0:
256,328,82558,2,0,B|148:196|72:392|-8:220,1,300,2|8,0:0|0:0,0:0:0:0:
20,68,83545,6,0,B|100:-12|132:104|212:24,1,200,2|8,0:0|0:0,0:0:0:0:
404,46,84334,2,0,L|484:126,1,100,2|0,0:0|0:0,0:0:0:0:
421,246,84729,2,0,L|341:166,1,100,8|0,0:0|0:0,0:0:0:0:
176,152,85124,6,0,L|256:232,1,100,2|0,0:0|0:0,0:0:0:0:
256,368,85519,2,0,L|176:288,1,100,8|0,0:0|0:0,0:0:0:0:
92,176,85913,2,0,P|124:88|224:88,1,200,2|8,0:0|0:0,0:0:0:0:
327,149,86506,1,0,0:0:0:0:
296,272,86703,5,2,0:0:0:0:
320,272,86802,1,0,0:0:0:0:
345,265,86900,1,0,0:0:0:0:
366,253,86999,1,0,0:0:0:0:
388,240,87098,2,0,P|424:192|428:148,1,100,8|0,0:0|0:0,0:0:0:0:
256,36,87492,1,2,0:0:0:0:
256,348,87887,1,8,0:0:0:0:
256,192,88282,5,6,0:0:0:0:
256,192,88381,12,0,89269,0:0:0:0:
