osu file format v12

[General]
AudioFilename: 2 Gakki Debut Daisakusen.mp3
AudioLeadIn: 0
PreviewTime: 56883
Countdown: 0
SampleSet: Soft
StackLeniency: 0.7
Mode: 0
LetterboxInBreaks: 0
WidescreenStoryboard: 1

[Editor]
Bookmarks: 11638
DistanceSpacing: 1.3
BeatDivisor: 4
GridSize: 8
TimelineZoom: 1

[Metadata]
Title:2 Gakki Debut Daisakusen!!
TitleUnicode:2学期デビュー大作戦!!
Artist:Otome Shintou
ArtistUnicode:乙女新党
Creator:nalleyer
Version:Hard
Source:Kitakubu Katsudou Kiroku
Tags:Chronicles of the Going Home Club opening
BeatmapID:350432
BeatmapSetID:140255

[Difficulty]
HPDrainRate:6
CircleSize:4
OverallDifficulty:6
ApproachRate:8
SliderMultiplier:1.7
SliderTickRate:2

[Events]
//Background and Video events
Video,657,"kitakubu modded 2.avi"
0,0,"1.png",0,0
//Break Periods
//Storyboard Layer 0 (Background)
//Storyboard Layer 1 (Fail)
//Storyboard Layer 2 (Pass)
//Storyboard Layer 3 (Foreground)
//Storyboard Sound Samples
//Background Colour Transformations
3,100,163,162,255

[TimingPoints]
667,342.857142857143,4,2,1,100,1,0
33581,-200,4,2,0,60,0,0
41124,-133.333333333333,4,2,1,100,0,0
44552,-200,4,2,1,90,0,0
49352,-100,4,2,1,100,0,0
56895,-100,4,2,1,100,0,1
78838,-133.333333333333,4,2,1,90,0,0
81581,-133.333333333333,4,2,1,90,0,0

[HitObjects]
368,56,11638,5,2,0:0:0:0:
368,56,11809,1,0,0:0:0:0:
368,56,11981,6,0,P|384:104|384:160,1,85,8|0,0:0|0:0,0:0:0:0:
336,256,12324,2,0,P|312:216|304:168,2,85,2|2|8,0:0|0:0|0:0,0:0:0:0:
408,328,12838,1,0,0:0:0:0:
336,256,13009,6,0,P|256:224|168:232,1,170,0|8,0:0|0:0,0:0:0:0:
120,328,13524,1,2,0:0:0:0:
48,256,13695,2,0,P|40:304|24:344,2,85,2|2|8,0:0|0:0|0:0,0:0:0:0:
192,112,14381,6,0,P|144:112|104:96,2,85,2|0|8,0:0|0:0|0:0,0:0:0:0:
256,56,14895,1,8,0:0:0:0:
336,88,15067,2,0,P|384:72|432:72,2,85,2|0|8,0:0|0:0|0:0,0:0:0:0:
108,193,15752,5,2,0:0:0:0:
184,256,15924,1,2,0:0:0:0:
272,288,16095,2,0,P|329:299|384:288,1,85,8|0,0:0|0:0,0:0:0:0:
420,111,16438,2,0,P|363:100|308:111,1,85,2|2,0:0|0:0,0:0:0:0:
436,291,16781,1,8,0:0:0:0:
192,317,17124,6,0,P|263:274|289:190,1,170,2|8,0:0|0:0,0:0:0:0:
257,42,17638,1,0,0:0:0:0:
184,112,17809,2,0,P|160:160|160:216,1,85,0|2,0:0|0:0,0:0:0:0:
320,192,18152,2,0,P|344:144|344:88,1,85,8|0,0:0|0:0,0:0:0:0:
256,40,18495,5,2,0:0:0:0:
256,40,18667,1,2,0:0:0:0:
176,136,18838,1,8,0:0:0:0:
176,136,19009,1,8,0:0:0:0:
328,112,19181,1,2,0:0:0:0:
328,112,19352,1,2,0:0:0:0:
256,272,19524,1,8,0:0:0:0:
56,184,19867,5,2,0:0:0:0:
80,80,20038,1,0,0:0:0:0:
128,184,20209,2,0,P|152:224|192:272,1,85,8|0,0:0|0:0,0:0:0:0:
256,328,20552,1,0,0:0:0:0:
368,304,20724,1,2,0:0:0:0:
288,224,20895,1,8,0:0:0:0:
128,112,21238,5,8,0:0:0:0:
48,96,21409,1,2,0:0:0:0:
40,184,21581,1,8,0:0:0:0:
120,200,21752,1,8,0:0:0:0:
160,264,21924,2,0,B|136:304|136:304|96:328,1,85,0|2,0:0|0:0,0:0:0:0:
232,272,22267,2,0,B|256:232|256:232|288:212,1,85,8|0,0:0|0:0,0:0:0:0:
320,288,22609,5,2,0:0:0:0:
320,288,22781,1,2,0:0:0:0:
320,288,22952,2,0,P|384:272|416:248,1,85,8|0,0:0|0:0,0:0:0:0:
448,192,23295,1,0,0:0:0:0:
448,192,23467,1,2,0:0:0:0:
456,104,23638,1,8,0:0:0:0:
291,59,23981,6,0,P|285:135|195:177,1,170,2|8,0:0|0:0,0:0:0:0:
208,88,24495,2,0,P|136:128|128:208,1,170,0|2,0:0|0:0,0:0:0:0:
168,288,25009,1,8,0:0:0:0:
336,272,25352,5,2,0:0:0:0:
336,272,25524,1,2,0:0:0:0:
336,272,25695,2,0,P|280:240|264:192,1,85,8|2,0:0|0:0,0:0:0:0:
240,120,26038,1,2,0:0:0:0:
344,152,26209,1,2,0:0:0:0:
336,40,26381,1,8,0:0:0:0:
336,152,26552,1,0,0:0:0:0:
248,80,26724,6,0,P|176:48|88:96,1,170,2|0,0:0|0:0,0:0:0:0:
96,128,27067,2,0,L|88:224,1,85,8|0,0:0|0:0,0:0:0:0:
128,304,27409,2,0,P|184:280|200:240,1,85,2|0,0:0|0:0,0:0:0:0:
216,232,27667,1,0,0:0:0:0:
248,200,27752,2,0,B|296:192|352:200,1,85,8|0,0:0|0:0,0:0:0:0:
435,199,28095,5,0,0:0:0:0:
424,304,28267,2,0,L|419:355,2,42.5,2|2|10,0:0|0:0|0:0,0:0:0:0:
439,164,28609,1,0,0:0:0:0:
328,272,28781,2,0,P|272:288|224:288,1,85,2|0,0:0|0:0,0:0:0:0:
240,184,29124,2,0,P|192:168|160:144,1,85,8|0,0:0|0:0,0:0:0:0:
224,64,29467,6,0,P|168:32|128:32,1,85,0|0,0:0|0:0,0:0:0:0:
112,32,29724,1,8,0:0:0:0:
112,32,29809,1,8,0:0:0:0:
112,224,30152,1,2,0:0:0:0:
152,304,30324,1,2,0:0:0:0:
240,280,30495,1,8,0:0:0:0:
312,128,30838,5,2,0:0:0:0:
384,56,31009,1,8,0:0:0:0:
360,152,31181,1,8,0:0:0:0:
456,128,31352,1,2,0:0:0:0:
440,224,31524,2,0,B|384:264|384:264|352:272|352:272|288:304,1,170,2|8,0:0|0:0,0:0:0:0:
280,216,32038,2,0,B|224:256|224:256|192:264|192:264|128:296,1,170,2|8,0:0|0:0,0:0:0:0:
48,328,32552,1,8,0:0:0:0:
96,168,32895,5,10,0:0:0:0:
152,104,33067,1,10,0:0:0:0:
152,104,33238,1,10,0:0:0:0:
152,104,33409,1,10,0:0:0:0:
152,104,33581,6,0,P|208:88|240:88,1,85,2|0,0:0|0:0,0:0:0:0:
248,168,34267,2,0,P|304:168|336:176,1,85,2|0,0:0|0:0,0:0:0:0:
320,304,34952,6,0,P|288:272|272:232,1,85,2|0,0:0|0:0,0:0:0:0:
360,216,35638,2,0,P|352:160|329:124,1,85,2|0,0:0|0:0,0:0:0:0:
384,48,36324,6,0,P|328:32|288:32,1,85,2|0,0:0|0:0,0:0:0:0:
256,104,37009,2,0,P|200:96|168:104,1,85,2|0,0:0|0:0,0:0:0:0:
330,160,37695,6,0,P|346:216|346:248,1,85,2|0,0:0|0:0,0:0:0:0:
423,278,38381,2,0,P|397:324|366:355,1,85,2|0,0:0|0:0,0:0:0:0:
255,294,39067,6,0,L|167:278,1,85,6|0,0:0|0:0,0:0:0:0:
126,184,39752,2,0,L|41:162,1,85,6|0,0:0|0:0,0:0:0:0:
87,53,40438,6,0,L|174:104,1,85,6|0,0:0|0:0,0:0:0:0:
264,152,41124,1,2,0:0:0:0:
264,152,41295,1,2,0:0:0:0:
264,152,41467,1,6,0:0:0:0:
264,152,41638,1,2,0:0:0:0:
264,152,41809,6,0,L|312:96,2,63.7500024318696,2|2|8,0:0|0:0|0:0,0:0:0:0:
264,152,42495,1,2,0:0:0:0:
208,216,42667,1,8,0:0:0:0:
208,216,43009,1,8,0:0:0:0:
280,264,43181,5,2,0:0:0:0:
360,256,43352,1,2,0:0:0:0:
416,192,43524,1,2,0:0:0:0:
424,112,43695,2,0,P|376:40|272:80,1,191.250007295609,2|8,0:0|0:0,0:0:0:0:
216,144,44552,6,0,B|176:184|168:216|168:216|88:256,1,170,6|8,0:0|0:0,0:0:0:0:
80,144,45581,1,2,0:0:0:0:
152,56,45924,6,0,P|200:40|248:40,1,85,2|2,0:0|0:0,0:0:0:0:
288,40,46438,1,2,0:0:0:0:
288,40,46609,2,0,P|328:80|336:120,1,85,8|0,0:0|0:0,0:0:0:0:
312,208,47295,5,2,0:0:0:0:
272,312,47638,1,2,0:0:0:0:
272,312,47809,1,2,0:0:0:0:
272,312,47981,2,0,P|208:296|184:272,1,85,8|0,0:0|0:0,0:0:0:0:
120,208,48667,5,2,0:0:0:0:
104,184,49009,1,2,0:0:0:0:
96,152,49352,1,2,0:0:0:0:
168,48,49524,1,8,0:0:0:0:
208,168,49695,1,2,0:0:0:0:
288,64,49867,1,8,0:0:0:0:
336,184,50038,5,6,0:0:0:0:
392,72,50209,1,2,0:0:0:0:
264,40,50381,2,0,P|240:80|240:152,1,85,8|2,0:0|0:0,0:0:0:0:
224,232,50724,1,2,0:0:0:0:
320,248,50895,2,0,L|368:248,2,42.5,10|2|8,0:0|0:0|0:0,0:0:0:0:
176,80,51409,5,6,0:0:0:0:
280,48,51581,1,2,0:0:0:0:
360,120,51752,2,0,P|392:184|392:216,1,85,8|2,0:0|0:0,0:0:0:0:
336,264,52095,1,2,0:0:0:0:
248,256,52267,2,0,L|208:232,2,42.5,8|2|8,0:0|0:0|0:0,0:0:0:0:
248,344,52609,1,2,0:0:0:0:
168,312,52781,6,0,L|96:280,2,42.5,2|2|2,0:0|0:0|0:0,0:0:0:0:
128,208,53124,2,0,L|88:192,2,42.5,8|8|8,0:0|0:0|0:0,0:0:0:0:
120,112,53467,1,2,0:0:0:0:
176,40,53638,1,2,0:0:0:0:
269,37,53809,1,8,0:0:0:0:
352,80,53981,1,2,0:0:0:0:
392,192,54152,6,0,P|400:112|472:56,2,170,2|8|2,0:0|0:0|0:0,0:0:0:0:
424,280,55181,1,8,0:0:0:0:
232,224,55524,5,2,0:0:0:0:
160,112,55695,1,2,0:0:0:0:
280,152,55867,1,8,0:0:0:0:
160,192,56038,1,2,0:0:0:0:
240,88,56209,1,2,0:0:0:0:
272,304,56552,1,8,0:0:0:0:
280,64,56895,5,6,0:0:0:0:
376,128,57067,2,0,P|376:192|296:280,1,170,8|2,0:0|0:0,0:0:0:0:
184,264,57581,1,2,0:0:0:0:
264,160,57752,1,2,0:0:0:0:
184,264,57924,2,0,P|120:232|104:192,1,85,8|2,0:0|0:0,0:0:0:0:
104,96,58267,5,2,0:0:0:0:
224,136,58438,1,2,0:0:0:0:
104,96,58609,2,0,P|152:72|208:72,1,85,8|2,0:0|0:0,0:0:0:0:
376,72,58952,1,2,0:0:0:0:
336,192,59123,1,2,0:0:0:0:
376,72,59294,2,0,P|432:104|448:152,1,85,8|2,0:0|0:0,0:0:0:0:
416,288,59638,6,0,P|392:328|336:360,1,85,2|2,0:0|0:0,0:0:0:0:
232,320,59981,2,0,P|256:280|296:256,1,85,8|2,0:0|0:0,0:0:0:0:
392,184,60324,1,2,0:0:0:0:
264,200,60495,1,2,0:0:0:0:
336,88,60667,1,8,0:0:0:0:
208,104,60838,1,8,0:0:0:0:
96,40,61009,6,0,P|40:88|32:128,1,85,2|2,0:0|0:0,0:0:0:0:
128,184,61352,2,0,P|112:248|112:288,1,85,8|8,0:0|0:0,0:0:0:0:
208,336,61695,1,2,0:0:0:0:
432,264,62038,1,8,0:0:0:0:
192,264,62381,6,0,P|248:216|344:224,1,170,2|8,0:0|0:0,0:0:0:0:
440,288,62895,1,2,0:0:0:0:
432,160,63067,2,0,P|392:112|288:80,1,170,2|8,0:0|0:0,0:0:0:0:
112,56,63752,5,2,0:0:0:0:
64,168,63924,1,2,0:0:0:0:
176,120,64095,1,8,0:0:0:0:
128,232,64267,1,2,0:0:0:0:
240,192,64438,1,2,0:0:0:0:
312,272,64609,2,0,L|288:360,2,85,2|8|2,0:0|0:0|0:0,0:0:0:0:
368,160,65124,5,2,0:0:0:0:
328,56,65295,1,0,0:0:0:0:
216,64,65467,1,8,0:0:0:0:
216,64,65809,5,2,0:0:0:0:
104,72,65981,1,0,0:0:0:0:
56,168,66152,1,8,0:0:0:0:
256,192,66495,12,0,67524,0:0:0:0:
440,48,67867,6,0,P|336:64|312:128,1,170,6|8,0:0|0:0,0:0:0:0:
336,216,68381,1,2,0:0:0:0:
384,304,68552,2,0,P|352:344|296:352,1,85,0|2,0:0|0:0,0:0:0:0:
248,256,68895,2,0,P|208:280|152:280,1,85,8|0,0:0|0:0,0:0:0:0:
168,176,69238,6,0,P|128:96|40:64,1,170,2|8,0:0|0:0,0:0:0:0:
57,64,69752,1,2,0:0:0:0:
56,176,69924,2,0,P|88:232|128:248,1,85,2|2,0:0|0:0,0:0:0:0:
208,280,70267,1,8,0:0:0:0:
320,280,70438,1,0,0:0:0:0:
256,184,70609,6,0,L|176:152,2,85,6|0|12,0:0|0:0|0:0,0:0:0:0:
320,96,71295,1,2,0:0:0:0:
320,96,71467,1,2,0:0:0:0:
320,96,71638,2,0,P|392:128|416:160,1,85,8|0,0:0|0:0,0:0:0:0:
336,216,71981,5,2,0:0:0:0:
336,216,72152,1,2,0:0:0:0:
336,216,72324,2,0,P|360:264|368:304,1,85,8|0,0:0|0:0,0:0:0:0:
184,192,72667,2,0,P|208:248|224:272,1,85,2|2,0:0|0:0,0:0:0:0:
288,352,73009,1,8,0:0:0:0:
88,160,73352,5,6,0:0:0:0:
88,160,74038,5,2,0:0:0:0:
88,160,74209,1,2,0:0:0:0:
360,56,74724,5,2,0:0:0:0:
416,136,74895,1,2,0:0:0:0:
320,104,75067,1,8,0:0:0:0:
376,184,75238,1,2,0:0:0:0:
272,168,75409,2,0,P|288:232|376:296,1,170,2|8,0:0|0:0,0:0:0:0:
160,304,76095,5,2,0:0:0:0:
96,224,76267,1,2,0:0:0:0:
192,200,76438,1,8,0:0:0:0:
192,200,76781,1,2,0:0:0:0:
232,104,76952,1,2,0:0:0:0:
128,112,77124,1,8,0:0:0:0:
128,112,77467,5,2,0:0:0:0:
200,40,77638,1,2,0:0:0:0:
304,56,77809,1,8,0:0:0:0:
344,152,77981,2,0,P|424:136|464:32,2,170,2|2|2,0:0|0:0|0:0,0:0:0:0:
240,104,78838,6,0,P|176:88|112:104,1,127.500004863739,4|8,0:0|0:0,0:0:0:0:
160,216,79524,2,0,P|96:240|48:288,1,127.500004863739,2|8,0:0|0:0,0:0:0:0:
224,336,80209,6,0,P|272:320|288:304,1,63.7500024318696,2|2,0:0|0:0,0:0:0:0:
368,328,80552,2,0,P|392:296|400:272,1,63.7500024318696,8|0,0:0|0:0,0:0:0:0:
432,192,80895,1,2,0:0:0:0:
256,208,81238,1,8,0:0:0:0:
368,72,81581,6,0,L|432:48,2,63.7500024318696,2|2|8,0:0|0:0|0:0,0:0:0:0:
192,64,82267,2,0,L|256:40,2,63.7500024318696,2|2|8,0:0|0:0|0:0,0:0:0:0:
64,192,82952,6,0,P|104:216|136:224,1,63.7500024318696,2|2,0:0|0:0,0:0:0:0:
176,152,83295,2,0,P|232:184|248:208,1,63.7500024318696,8|2,0:0|0:0,0:0:0:0:
304,232,83638,1,2,0:0:0:0:
424,352,83981,1,8,0:0:0:0:
432,176,84324,6,0,L|384:128,1,63.7500024318696,6|2,0:0|0:0,0:0:0:0:
224,88,84838,2,0,B|152:80|152:80|136:56|88:48,2,127.500004863739,2|2|2,0:0|0:0|0:0,0:0:0:0:
296,152,85695,6,0,L|341:197,1,63.7500024318696,6|2,0:0|0:0,0:0:0:0:
208,296,86209,2,0,B|136:288|136:288|120:264|72:256,2,127.500004863739,2|2|2,0:0|0:0|0:0,0:0:0:0:
256,48,87409,5,6,0:0:0:0:
256,192,87581,12,0,89124,0:0:0:0:
