osu file format v12

[General]
AudioFilename: 2 Gakki Debut Daisakusen.mp3
AudioLeadIn: 0
PreviewTime: 56883
Countdown: 0
SampleSet: Soft
StackLeniency: 0.7
Mode: 3
LetterboxInBreaks: 0
SpecialStyle: 0
WidescreenStoryboard: 1

[Editor]
DistanceSpacing: 0.8
BeatDivisor: 4
GridSize: 8

[Metadata]
Title:2 Gakki Debut Daisakusen!!
TitleUnicode:2学期デビュー大作戦!!
Artist:Otome Shintou
ArtistUnicode:乙女新党
Creator:kuuderes_shadow
Version:Botan (Insane)
Source:Kitakubu Katsudou Kiroku
Tags:Chronicles of the Going Home Club opening
BeatmapID:302782
BeatmapSetID:117547

[Difficulty]
HPDrainRate:8
CircleSize:5
OverallDifficulty:9
ApproachRate:5
SliderMultiplier:1.4
SliderTickRate:1

[Events]
//Background and Video events
Video,657,"kitakubu modded 2.avi"
0,0,"BG2gakkidebut.jpg",0,0
//Break Periods
//Storyboard Layer 0 (Background)
//Storyboard Layer 1 (Fail)
//Storyboard Layer 2 (Pass)
//Storyboard Layer 3 (Foreground)
//Storyboard Sound Samples
//Background Colour Transformations
3,100,163,162,255

[TimingPoints]
667,342.857142857143,4,2,1,55,1,0
56895,-100,4,2,1,55,0,1
78838,-100,4,2,1,55,0,0

[HitObjects]
256,192,667,1,4,0:0:0:0:
460,192,667,1,2,0:0:0:0:
51,192,838,1,0,0:0:0:0:
153,192,1009,1,2,0:0:0:0:
358,192,1009,1,8,0:0:0:0:
51,192,1181,1,0,0:0:0:0:
460,192,1352,1,2,0:0:0:0:
256,192,1352,1,0,0:0:0:0:
358,192,1524,1,2,0:0:0:0:
51,192,1524,1,0,0:0:0:0:
153,192,1695,1,8,0:0:0:0:
256,192,1695,1,2,0:0:0:0:
51,192,1867,1,0,0:0:0:0:
358,192,2038,1,0,0:0:0:0:
256,192,2038,1,2,0:0:0:0:
51,192,2209,1,0,0:0:0:0:
153,192,2381,1,8,0:0:0:0:
460,192,2381,1,2,0:0:0:0:
256,192,2552,1,0,0:0:0:0:
460,192,2724,1,0,0:0:0:0:
51,192,2724,1,2,0:0:0:0:
153,192,2895,1,2,0:0:0:0:
358,192,2895,1,0,0:0:0:0:
256,192,3067,1,8,0:0:0:0:
51,192,3067,1,2,0:0:0:0:
153,192,3409,1,0,0:0:0:0:
460,192,3409,1,2,0:0:0:0:
256,192,3581,1,0,0:0:0:0:
358,192,3752,1,8,0:0:0:0:
51,192,3752,1,2,0:0:0:0:
153,192,3924,1,0,0:0:0:0:
256,192,4095,1,0,0:0:0:0:
51,192,4095,1,2,0:0:0:0:
153,192,4267,1,2,0:0:0:0:
358,192,4267,1,0,0:0:0:0:
256,192,4438,1,2,0:0:0:0:
460,192,4438,1,8,0:0:0:0:
153,192,4609,1,0,0:0:0:0:
51,192,4781,1,0,0:0:0:0:
256,192,4781,1,2,0:0:0:0:
153,192,4952,1,0,0:0:0:0:
358,192,4952,1,0,0:0:0:0:
256,192,5124,1,8,0:0:0:0:
460,192,5124,1,2,0:0:0:0:
153,192,5295,1,0,0:0:0:0:
358,192,5295,128,0,5638:0:0:0:0:
256,192,5467,1,2,0:0:0:0:
51,192,5638,1,2,0:0:0:0:
256,192,5638,128,0,5809:0:0:0:0:
460,192,5809,1,8,0:0:0:0:
153,192,5809,128,2,6152:0:0:0:0:
460,192,6152,1,2,0:0:0:0:
256,192,6152,1,4,0:0:0:0:
358,192,6324,1,0,0:0:0:0:
256,192,6495,1,2,0:0:0:0:
51,192,6495,1,8,0:0:0:0:
153,192,6667,1,0,0:0:0:0:
51,192,6838,1,2,0:0:0:0:
460,192,6838,1,0,0:0:0:0:
153,192,7009,1,2,0:0:0:0:
256,192,7181,1,2,0:0:0:0:
460,192,7181,1,8,0:0:0:0:
358,192,7352,128,0,7695:0:0:0:0:
153,192,7352,1,0,0:0:0:0:
51,192,7524,1,2,0:0:0:0:
256,192,7695,128,0,7867:0:0:0:0:
460,192,7695,1,2,0:0:0:0:
153,192,7867,128,8,8038:0:0:0:0:
358,192,7867,1,2,0:0:0:0:
51,192,8038,128,0,8209:0:0:0:0:
256,192,8038,1,0,0:0:0:0:
153,192,8209,1,2,0:0:0:0:
51,192,8381,1,0,0:0:0:0:
153,192,8552,1,8,0:0:0:0:
460,192,8552,1,2,0:0:0:0:
256,192,8724,1,0,0:0:0:0:
358,192,8895,1,2,0:0:0:0:
51,192,8895,1,4,0:0:0:0:
256,192,9067,1,8,0:0:0:0:
358,192,9152,1,8,0:0:0:0:
153,192,9238,1,2,0:0:0:0:
460,192,9238,1,8,0:0:0:0:
51,192,9409,1,8,0:0:0:0:
153,192,9495,1,0,0:0:0:0:
256,192,9581,1,8,0:0:0:0:
460,192,9581,1,2,0:0:0:0:
358,192,9752,1,8,0:0:0:0:
256,192,9838,1,8,0:0:0:0:
153,192,9924,1,10,0:0:0:0:
256,192,10095,1,8,0:0:0:0:
51,192,10095,1,0,0:0:0:0:
358,192,10181,1,8,0:0:0:0:
153,192,10267,1,4,0:0:0:0:
460,192,10267,128,2,10609:0:0:0:0:
256,192,10438,1,6,0:0:0:0:
256,192,10781,1,0,0:0:0:0:
358,192,10952,1,2,0:0:0:0:
51,192,10952,128,0,11638:0:0:0:0:
460,192,11638,1,6,0:0:0:0:
358,192,11809,1,0,0:0:0:0:
358,192,11981,1,8,0:0:0:0:
153,192,11981,1,0,0:0:0:0:
256,192,12152,1,0,0:0:0:0:
256,192,12324,1,2,0:0:0:0:
51,192,12324,1,0,0:0:0:0:
153,192,12495,1,0,0:0:0:0:
460,192,12667,1,8,0:0:0:0:
256,192,12667,1,0,0:0:0:0:
358,192,12838,1,0,0:0:0:0:
460,192,13009,1,0,0:0:0:0:
153,192,13009,1,2,0:0:0:0:
358,192,13181,1,0,0:0:0:0:
256,192,13352,1,0,0:0:0:0:
153,192,13352,1,8,0:0:0:0:
51,192,13524,1,0,0:0:0:0:
153,192,13695,1,0,0:0:0:0:
358,192,13695,1,2,0:0:0:0:
256,192,13867,1,0,0:0:0:0:
460,192,14038,1,8,0:0:0:0:
153,192,14038,1,0,0:0:0:0:
51,192,14209,1,0,0:0:0:0:
358,192,14381,1,0,0:0:0:0:
153,192,14381,1,2,0:0:0:0:
256,192,14552,1,0,0:0:0:0:
460,192,14552,1,0,0:0:0:0:
153,192,14724,1,0,0:0:0:0:
358,192,14724,1,8,0:0:0:0:
256,192,14895,1,0,0:0:0:0:
51,192,14895,1,0,0:0:0:0:
153,192,15067,1,2,0:0:0:0:
358,192,15067,1,0,0:0:0:0:
256,192,15238,1,0,0:0:0:0:
460,192,15238,1,0,0:0:0:0:
358,192,15409,1,8,0:0:0:0:
153,192,15409,1,0,0:0:0:0:
256,192,15581,1,0,0:0:0:0:
153,192,15752,1,2,0:0:0:0:
460,192,15752,1,0,0:0:0:0:
358,192,15924,1,0,0:0:0:0:
256,192,16095,1,0,0:0:0:0:
51,192,16095,1,8,0:0:0:0:
153,192,16267,1,0,0:0:0:0:
256,192,16438,1,0,0:0:0:0:
460,192,16438,1,2,0:0:0:0:
358,192,16609,1,0,0:0:0:0:
51,192,16781,1,8,0:0:0:0:
256,192,16781,1,0,0:0:0:0:
153,192,16952,1,0,0:0:0:0:
460,192,17124,1,4,0:0:0:0:
256,192,17124,1,2,0:0:0:0:
358,192,17295,1,0,0:0:0:0:
256,192,17467,1,0,0:0:0:0:
51,192,17467,1,8,0:0:0:0:
153,192,17638,1,0,0:0:0:0:
256,192,17809,1,2,0:0:0:0:
460,192,17809,1,0,0:0:0:0:
358,192,17981,1,0,0:0:0:0:
256,192,18152,1,0,0:0:0:0:
51,192,18152,1,8,0:0:0:0:
153,192,18324,1,0,0:0:0:0:
460,192,18495,1,2,0:0:0:0:
358,192,18495,1,0,0:0:0:0:
256,192,18667,1,0,0:0:0:0:
153,192,18838,1,0,0:0:0:0:
51,192,18838,1,8,0:0:0:0:
256,192,19009,1,0,0:0:0:0:
358,192,19181,1,0,0:0:0:0:
460,192,19181,1,2,0:0:0:0:
153,192,19352,1,0,0:0:0:0:
153,192,19524,1,0,0:0:0:0:
51,192,19524,1,8,0:0:0:0:
460,192,19695,1,0,0:0:0:0:
256,192,19867,1,0,0:0:0:0:
153,192,19867,1,2,0:0:0:0:
358,192,20038,1,0,0:0:0:0:
256,192,20209,1,8,0:0:0:0:
358,192,20209,1,0,0:0:0:0:
153,192,20381,1,0,0:0:0:0:
256,192,20552,1,8,0:0:0:0:
51,192,20552,1,0,0:0:0:0:
256,192,20724,1,0,0:0:0:0:
460,192,20724,1,0,0:0:0:0:
256,192,20895,1,8,0:0:0:0:
51,192,20895,1,0,0:0:0:0:
358,192,21067,1,0,0:0:0:0:
153,192,21238,1,2,0:0:0:0:
256,192,21238,1,8,0:0:0:0:
256,192,21409,1,0,0:0:0:0:
358,192,21409,1,8,0:0:0:0:
153,192,21581,1,0,0:0:0:0:
51,192,21752,128,0,22267:0:0:0:0:
460,192,21752,128,0,22267:0:0:0:0:
256,192,22095,1,2,0:0:0:0:
358,192,22267,1,8,0:0:0:0:
153,192,22267,1,0,0:0:0:0:
460,192,22438,1,2,0:0:0:0:
51,192,22609,1,2,0:0:0:0:
460,192,22781,1,0,0:0:0:0:
358,192,22952,1,8,0:0:0:0:
153,192,22952,1,2,0:0:0:0:
256,192,23124,1,0,0:0:0:0:
51,192,23295,1,2,0:0:0:0:
358,192,23295,1,0,0:0:0:0:
153,192,23467,1,0,0:0:0:0:
358,192,23638,1,8,0:0:0:0:
51,192,23638,1,2,0:0:0:0:
460,192,23809,1,0,0:0:0:0:
153,192,23981,1,0,0:0:0:0:
358,192,23981,1,2,0:0:0:0:
256,192,24152,1,0,0:0:0:0:
51,192,24324,1,8,0:0:0:0:
460,192,24324,1,2,0:0:0:0:
256,192,24495,1,0,0:0:0:0:
153,192,24667,1,2,0:0:0:0:
358,192,24667,1,0,0:0:0:0:
460,192,24838,1,0,0:0:0:0:
51,192,25009,1,2,0:0:0:0:
256,192,25009,1,8,0:0:0:0:
358,192,25181,1,0,0:0:0:0:
460,192,25352,1,2,0:0:0:0:
153,192,25352,1,0,0:0:0:0:
256,192,25524,1,0,0:0:0:0:
358,192,25695,1,2,0:0:0:0:
51,192,25695,1,8,0:0:0:0:
153,192,25867,1,0,0:0:0:0:
256,192,26038,1,2,0:0:0:0:
460,192,26038,1,0,0:0:0:0:
153,192,26209,1,0,0:0:0:0:
51,192,26381,1,2,0:0:0:0:
256,192,26381,1,8,0:0:0:0:
358,192,26552,1,0,0:0:0:0:
460,192,26724,1,0,0:0:0:0:
51,192,26724,1,2,0:0:0:0:
358,192,26895,1,0,0:0:0:0:
256,192,27067,1,8,0:0:0:0:
51,192,27067,1,2,0:0:0:0:
460,192,27238,1,0,0:0:0:0:
358,192,27409,1,2,0:0:0:0:
51,192,27409,1,0,0:0:0:0:
256,192,27581,1,0,0:0:0:0:
153,192,27752,1,10,0:0:0:0:
460,192,27752,1,0,0:0:0:0:
51,192,27924,1,0,0:0:0:0:
358,192,28095,1,2,0:0:0:0:
153,192,28181,1,0,0:0:0:0:
256,192,28267,1,0,0:0:0:0:
358,192,28352,1,0,0:0:0:0:
460,192,28438,1,2,0:0:0:0:
51,192,28438,1,8,0:0:0:0:
256,192,28609,1,0,0:0:0:0:
153,192,28781,1,2,0:0:0:0:
51,192,28952,1,0,0:0:0:0:
460,192,29124,1,2,0:0:0:0:
358,192,29124,1,8,0:0:0:0:
256,192,29295,1,0,0:0:0:0:
153,192,29467,1,0,0:0:0:0:
51,192,29467,1,2,0:0:0:0:
358,192,29638,1,0,0:0:0:0:
460,192,29638,1,0,0:0:0:0:
153,192,29724,1,0,0:0:0:0:
256,192,29809,1,8,0:0:0:0:
51,192,29809,1,2,0:0:0:0:
153,192,29981,1,0,0:0:0:0:
51,192,30152,1,0,0:0:0:0:
460,192,30152,1,2,0:0:0:0:
153,192,30324,1,0,0:0:0:0:
256,192,30495,1,8,0:0:0:0:
460,192,30495,1,2,0:0:0:0:
358,192,30838,1,4,0:0:0:0:
153,192,30838,1,2,0:0:0:0:
51,192,31009,1,0,0:0:0:0:
153,192,31181,1,2,0:0:0:0:
358,192,31181,1,8,0:0:0:0:
256,192,31352,1,0,0:0:0:0:
460,192,31352,1,0,0:0:0:0:
358,192,31524,128,0,31867:0:0:0:0:
153,192,31524,1,8,0:0:0:0:
460,192,31695,1,0,0:0:0:0:
51,192,31867,1,0,0:0:0:0:
256,192,31867,1,8,0:0:0:0:
153,192,32038,128,2,32209:0:0:0:0:
51,192,32381,1,8,0:0:0:0:
358,192,32381,1,0,0:0:0:0:
256,192,32552,5,8,0:0:0:0:
460,192,32552,1,0,0:0:0:0:
153,192,32724,1,0,0:0:0:0:
358,192,32724,1,8,0:0:0:0:
460,192,32895,1,8,0:0:0:0:
51,192,32895,1,0,0:0:0:0:
256,192,33238,1,2,0:0:0:0:
153,192,33409,1,2,0:0:0:0:
358,192,33409,1,0,0:0:0:0:
460,192,33581,5,2,0:0:0:0:
51,192,33581,128,0,34267:0:0:0:0:
358,192,33752,1,0,0:0:0:0:
256,192,33924,1,2,0:0:0:0:
256,192,34267,128,0,34952:0:0:0:0:
460,192,34267,1,2,0:0:0:0:
153,192,34609,1,2,0:0:0:0:
51,192,34781,1,0,0:0:0:0:
153,192,34952,128,0,35638:0:0:0:0:
460,192,34952,1,2,0:0:0:0:
256,192,35124,1,0,0:0:0:0:
358,192,35295,1,2,0:0:0:0:
256,192,35467,1,0,0:0:0:0:
358,192,35638,128,0,36324:0:0:0:0:
51,192,35638,1,2,0:0:0:0:
460,192,35981,1,2,0:0:0:0:
256,192,36152,1,0,0:0:0:0:
153,192,36238,1,0,0:0:0:0:
460,192,36324,128,0,37009:0:0:0:0:
51,192,36324,1,2,0:0:0:0:
256,192,36667,1,2,0:0:0:0:
256,192,37009,128,0,37695:0:0:0:0:
51,192,37009,1,2,0:0:0:0:
358,192,37352,1,2,0:0:0:0:
358,192,37695,128,0,38381:0:0:0:0:
51,192,37695,1,2,0:0:0:0:
153,192,38038,1,2,0:0:0:0:
460,192,38381,1,2,0:0:0:0:
153,192,38381,128,0,39067:0:0:0:0:
51,192,38724,1,2,0:0:0:0:
256,192,38895,1,0,0:0:0:0:
358,192,38981,1,0,0:0:0:0:
51,192,39067,128,0,39752:0:0:0:0:
460,192,39067,1,2,0:0:0:0:
153,192,39238,1,0,0:0:0:0:
358,192,39581,1,0,0:0:0:0:
256,192,39667,1,0,0:0:0:0:
153,192,39752,1,2,0:0:0:0:
460,192,39752,128,0,40438:0:0:0:0:
256,192,39924,1,0,0:0:0:0:
51,192,40267,1,0,0:0:0:0:
153,192,40352,1,0,0:0:0:0:
256,192,40438,1,2,0:0:0:0:
358,192,40438,128,0,41124:0:0:0:0:
51,192,40609,1,0,0:0:0:0:
153,192,41124,128,0,41809:0:0:0:0:
256,192,41124,1,2,0:0:0:0:
460,192,41295,1,2,0:0:0:0:
51,192,41467,1,2,0:0:0:0:
256,192,41638,1,2,0:0:0:0:
358,192,41809,1,0,0:0:0:0:
460,192,41809,128,0,42152:0:0:0:0:
51,192,41981,1,0,0:0:0:0:
256,192,42152,1,0,0:0:0:0:
51,192,42238,1,0,0:0:0:0:
153,192,42324,1,0,0:0:0:0:
460,192,42409,1,0,0:0:0:0:
358,192,42495,1,2,0:0:0:0:
153,192,42667,1,2,0:0:0:0:
51,192,42838,1,2,0:0:0:0:
460,192,43009,1,8,0:0:0:0:
153,192,43181,1,0,0:0:0:0:
153,192,43352,1,0,0:0:0:0:
256,192,43524,1,0,0:0:0:0:
358,192,43695,128,0,44381:0:0:0:0:
51,192,43867,1,2,0:0:0:0:
153,192,44038,1,2,0:0:0:0:
256,192,44209,1,2,0:0:0:0:
153,192,44381,1,2,0:0:0:0:
51,192,44552,1,4,0:0:0:0:
460,192,44552,128,2,44895:0:0:0:0:
256,192,44895,1,0,0:0:0:0:
51,192,45067,1,2,0:0:0:0:
358,192,45238,128,0,45581:0:0:0:0:
153,192,45238,1,2,0:0:0:0:
460,192,45581,128,0,45924:0:0:0:0:
51,192,45581,1,8,0:0:0:0:
153,192,45924,1,2,0:0:0:0:
358,192,45924,128,0,46267:0:0:0:0:
256,192,46267,1,0,0:0:0:0:
256,192,46438,128,0,46952:0:0:0:0:
153,192,46438,1,2,0:0:0:0:
51,192,46609,1,2,0:0:0:0:
460,192,46952,1,8,0:0:0:0:
153,192,47124,1,0,0:0:0:0:
51,192,47295,1,2,0:0:0:0:
153,192,47638,1,0,0:0:0:0:
256,192,47809,1,2,0:0:0:0:
358,192,47981,1,2,0:0:0:0:
460,192,48324,1,8,0:0:0:0:
51,192,48324,1,0,0:0:0:0:
153,192,48667,1,0,0:0:0:0:
358,192,48667,1,8,0:0:0:0:
256,192,49009,1,0,0:0:0:0:
460,192,49009,1,8,0:0:0:0:
51,192,49181,128,0,49867:0:0:0:0:
153,192,49352,1,0,0:0:0:0:
256,192,49352,1,8,0:0:0:0:
460,192,49524,1,0,0:0:0:0:
256,192,49695,1,8,0:0:0:0:
358,192,49695,1,0,0:0:0:0:
153,192,49867,1,0,0:0:0:0:
51,192,50038,1,4,0:0:0:0:
358,192,50038,1,2,0:0:0:0:
51,192,50209,1,0,0:0:0:0:
51,192,50381,1,0,0:0:0:0:
460,192,50381,1,2,0:0:0:0:
256,192,50724,1,2,0:0:0:0:
51,192,50724,1,0,0:0:0:0:
51,192,50895,1,0,0:0:0:0:
51,192,51067,1,0,0:0:0:0:
153,192,51067,1,2,0:0:0:0:
460,192,51238,1,8,0:0:0:0:
358,192,51324,1,8,0:0:0:0:
153,192,51409,1,2,0:0:0:0:
256,192,51409,1,4,0:0:0:0:
256,192,51581,1,0,0:0:0:0:
256,192,51752,1,0,0:0:0:0:
358,192,51752,1,2,0:0:0:0:
256,192,52095,1,0,0:0:0:0:
460,192,52095,1,2,0:0:0:0:
256,192,52267,1,0,0:0:0:0:
256,192,52438,1,0,0:0:0:0:
51,192,52438,1,2,0:0:0:0:
153,192,52609,1,8,0:0:0:0:
358,192,52695,1,8,0:0:0:0:
460,192,52781,1,4,0:0:0:0:
51,192,52781,1,2,0:0:0:0:
358,192,52867,1,0,0:0:0:0:
460,192,52952,1,0,0:0:0:0:
358,192,53124,1,0,0:0:0:0:
51,192,53124,1,2,0:0:0:0:
256,192,53209,1,0,0:0:0:0:
358,192,53295,1,0,0:0:0:0:
460,192,53467,1,4,0:0:0:0:
51,192,53467,1,2,0:0:0:0:
153,192,53638,1,0,0:0:0:0:
256,192,53809,1,0,0:0:0:0:
460,192,53809,1,2,0:0:0:0:
51,192,53981,1,0,0:0:0:0:
358,192,54152,1,4,0:0:0:0:
153,192,54152,1,2,0:0:0:0:
153,192,54495,1,0,0:0:0:0:
460,192,54495,1,2,0:0:0:0:
51,192,54667,1,0,0:0:0:0:
153,192,54838,1,0,0:0:0:0:
358,192,54838,1,2,0:0:0:0:
460,192,55009,1,2,0:0:0:0:
358,192,55181,1,2,0:0:0:0:
51,192,55181,1,4,0:0:0:0:
460,192,55524,128,0,56209:0:0:0:0:
256,192,55524,1,0,0:0:0:0:
358,192,55695,1,0,0:0:0:0:
256,192,55867,1,0,0:0:0:0:
153,192,56038,1,0,0:0:0:0:
256,192,56209,1,0,0:0:0:0:
358,192,56209,128,0,56381:0:0:0:0:
256,192,56381,128,0,56552:0:0:0:0:
153,192,56552,128,0,56724:0:0:0:0:
51,192,56724,128,0,56895:0:0:0:0:
358,192,56895,1,2,0:0:0:0:
460,192,56895,1,4,0:0:0:0:
256,192,57067,1,0,0:0:0:0:
358,192,57238,1,0,0:0:0:0:
460,192,57238,1,8,0:0:0:0:
153,192,57409,1,0,0:0:0:0:
256,192,57581,1,0,0:0:0:0:
460,192,57581,1,2,0:0:0:0:
358,192,57752,1,0,0:0:0:0:
153,192,57752,1,0,0:0:0:0:
51,192,57924,128,8,58267:0:0:0:0:
358,192,58095,1,0,0:0:0:0:
358,192,58267,128,0,58438:0:0:0:0:
460,192,58267,1,2,0:0:0:0:
153,192,58438,128,0,58609:0:0:0:0:
358,192,58609,128,0,58952:0:0:0:0:
51,192,58609,1,8,0:0:0:0:
153,192,58781,1,0,0:0:0:0:
51,192,58952,128,0,59124:0:0:0:0:
460,192,58952,1,2,0:0:0:0:
256,192,59124,128,0,59295:0:0:0:0:
460,192,59295,128,0,59638:0:0:0:0:
358,192,59295,1,8,0:0:0:0:
153,192,59467,1,0,0:0:0:0:
256,192,59638,1,2,0:0:0:0:
153,192,59809,1,0,0:0:0:0:
51,192,59981,1,8,0:0:0:0:
460,192,59981,1,0,0:0:0:0:
358,192,60152,1,0,0:0:0:0:
460,192,60324,1,2,0:0:0:0:
153,192,60324,1,0,0:0:0:0:
51,192,60495,1,0,0:0:0:0:
153,192,60667,1,8,0:0:0:0:
358,192,60667,1,0,0:0:0:0:
460,192,60838,1,0,0:0:0:0:
358,192,61009,1,0,0:0:0:0:
256,192,61009,1,2,0:0:0:0:
153,192,61181,1,0,0:0:0:0:
256,192,61352,1,0,0:0:0:0:
358,192,61352,1,8,0:0:0:0:
153,192,61524,1,0,0:0:0:0:
256,192,61695,1,2,0:0:0:0:
51,192,61695,128,0,62038:0:0:0:0:
460,192,62038,128,0,62381:0:0:0:0:
153,192,62038,1,0,0:0:0:0:
358,192,62038,1,8,0:0:0:0:
51,192,62381,128,4,62724:0:0:0:0:
153,192,62381,1,2,0:0:0:0:
358,192,62552,1,0,0:0:0:0:
460,192,62724,1,8,0:0:0:0:
256,192,62895,1,0,0:0:0:0:
358,192,63067,1,2,0:0:0:0:
153,192,63238,1,0,0:0:0:0:
460,192,63409,1,8,0:0:0:0:
51,192,63409,1,0,0:0:0:0:
256,192,63752,1,2,0:0:0:0:
51,192,63924,1,0,0:0:0:0:
153,192,64095,1,0,0:0:0:0:
358,192,64095,1,8,0:0:0:0:
256,192,64267,1,0,0:0:0:0:
358,192,64438,1,0,0:0:0:0:
460,192,64438,1,2,0:0:0:0:
256,192,64609,1,0,0:0:0:0:
460,192,64781,1,0,0:0:0:0:
51,192,64781,1,8,0:0:0:0:
153,192,65124,1,2,0:0:0:0:
256,192,65295,1,0,0:0:0:0:
153,192,65467,128,0,65638:0:0:0:0:
460,192,65467,1,8,0:0:0:0:
358,192,65809,1,0,0:0:0:0:
51,192,65809,1,8,0:0:0:0:
256,192,65981,1,0,0:0:0:0:
358,192,66152,128,0,66324:0:0:0:0:
51,192,66152,1,8,0:0:0:0:
153,192,66324,1,8,0:0:0:0:
51,192,66495,1,8,0:0:0:0:
460,192,66495,1,0,0:0:0:0:
256,192,66667,1,0,0:0:0:0:
358,192,66838,1,2,0:0:0:0:
153,192,66838,1,0,0:0:0:0:
460,192,67009,128,0,67352:0:0:0:0:
51,192,67009,128,8,67352:0:0:0:0:
153,192,67352,128,8,67695:0:0:0:0:
358,192,67352,128,0,67695:0:0:0:0:
256,192,67524,1,8,0:0:0:0:
256,192,67781,1,8,0:0:0:0:
460,192,67867,1,2,0:0:0:0:
51,192,67867,128,4,68038:0:0:0:0:
358,192,68038,1,0,0:0:0:0:
460,192,68209,1,8,0:0:0:0:
153,192,68209,128,0,68381:0:0:0:0:
460,192,68552,1,2,0:0:0:0:
51,192,68552,128,0,68724:0:0:0:0:
358,192,68724,1,0,0:0:0:0:
256,192,68895,128,8,69067:0:0:0:0:
51,192,69238,1,0,0:0:0:0:
460,192,69238,1,2,0:0:0:0:
153,192,69581,1,0,0:0:0:0:
358,192,69581,1,8,0:0:0:0:
256,192,69752,1,0,0:0:0:0:
460,192,69924,1,0,0:0:0:0:
51,192,69924,1,2,0:0:0:0:
358,192,70095,1,0,0:0:0:0:
256,192,70267,1,0,0:0:0:0:
153,192,70267,1,8,0:0:0:0:
358,192,70609,1,4,0:0:0:0:
256,192,70609,1,2,0:0:0:0:
153,192,70781,1,0,0:0:0:0:
256,192,70952,1,2,0:0:0:0:
153,192,70952,1,0,0:0:0:0:
358,192,71124,1,0,0:0:0:0:
460,192,71295,1,8,0:0:0:0:
153,192,71295,1,0,0:0:0:0:
256,192,71467,1,0,0:0:0:0:
358,192,71638,1,0,0:0:0:0:
153,192,71809,1,0,0:0:0:0:
460,192,71809,1,0,0:0:0:0:
51,192,71981,1,4,0:0:0:0:
358,192,71981,1,2,0:0:0:0:
460,192,72152,1,0,0:0:0:0:
51,192,72324,1,2,0:0:0:0:
460,192,72495,1,0,0:0:0:0:
51,192,72667,1,8,0:0:0:0:
460,192,72838,1,0,0:0:0:0:
256,192,73009,128,0,73352:0:0:0:0:
51,192,73352,1,2,0:0:0:0:
460,192,73352,1,4,0:0:0:0:
153,192,73695,1,8,0:0:0:0:
256,192,74038,1,2,0:0:0:0:
358,192,74209,1,0,0:0:0:0:
51,192,74381,1,8,0:0:0:0:
358,192,74724,1,0,0:0:0:0:
51,192,74724,1,2,0:0:0:0:
460,192,74895,1,0,0:0:0:0:
358,192,75067,1,0,0:0:0:0:
51,192,75067,1,8,0:0:0:0:
256,192,75238,1,0,0:0:0:0:
153,192,75409,1,0,0:0:0:0:
460,192,75409,1,2,0:0:0:0:
256,192,75581,1,0,0:0:0:0:
51,192,75752,1,8,0:0:0:0:
460,192,75752,1,0,0:0:0:0:
153,192,76095,1,8,0:0:0:0:
358,192,76095,1,0,0:0:0:0:
256,192,76267,1,0,0:0:0:0:
51,192,76438,1,8,0:0:0:0:
460,192,76438,1,0,0:0:0:0:
460,192,76781,1,0,0:0:0:0:
51,192,76781,1,8,0:0:0:0:
256,192,76952,1,0,0:0:0:0:
153,192,77124,1,8,0:0:0:0:
358,192,77124,1,0,0:0:0:0:
460,192,77295,1,8,0:0:0:0:
51,192,77467,1,0,0:0:0:0:
256,192,77467,1,0,0:0:0:0:
153,192,77638,1,0,0:0:0:0:
358,192,77638,1,8,0:0:0:0:
256,192,77809,1,0,0:0:0:0:
358,192,77981,1,0,0:0:0:0:
460,192,78152,1,0,0:0:0:0:
256,192,78152,1,8,0:0:0:0:
51,192,78324,128,0,78667:0:0:0:0:
460,192,78667,128,0,79867:0:0:0:0:
358,192,78838,1,2,0:0:0:0:
51,192,79009,1,0,0:0:0:0:
256,192,79181,1,2,0:0:0:0:
51,192,79352,1,0,0:0:0:0:
153,192,79524,1,2,0:0:0:0:
51,192,79695,1,0,0:0:0:0:
358,192,79867,1,2,0:0:0:0:
153,192,79867,1,0,0:0:0:0:
51,192,80209,1,0,0:0:0:0:
256,192,80209,1,2,0:0:0:0:
153,192,80381,1,0,0:0:0:0:
358,192,80381,1,0,0:0:0:0:
256,192,80552,1,0,0:0:0:0:
460,192,80552,1,2,0:0:0:0:
358,192,80724,1,0,0:0:0:0:
153,192,80724,1,0,0:0:0:0:
51,192,80895,128,0,81238:0:0:0:0:
460,192,80895,128,0,81238:0:0:0:0:
256,192,80895,1,2,0:0:0:0:
153,192,81238,128,2,81581:0:0:0:0:
358,192,81238,128,0,81581:0:0:0:0:
256,192,81581,128,0,82609:0:0:0:0:
51,192,81581,1,8,0:0:0:0:
460,192,81581,1,0,0:0:0:0:
51,192,81752,1,8,0:0:0:0:
460,192,81924,1,8,0:0:0:0:
153,192,81924,1,0,0:0:0:0:
358,192,82267,1,0,0:0:0:0:
460,192,82267,1,8,0:0:0:0:
153,192,82438,1,8,0:0:0:0:
51,192,82609,1,8,0:0:0:0:
358,192,82609,1,0,0:0:0:0:
153,192,82952,1,8,0:0:0:0:
256,192,82952,1,0,0:0:0:0:
460,192,83124,1,8,0:0:0:0:
358,192,83295,1,8,0:0:0:0:
256,192,83295,1,0,0:0:0:0:
51,192,83467,1,0,0:0:0:0:
460,192,83638,1,8,0:0:0:0:
256,192,83638,1,0,0:0:0:0:
358,192,83809,1,8,0:0:0:0:
153,192,83895,1,8,0:0:0:0:
256,192,83981,1,2,0:0:0:0:
51,192,83981,1,8,0:0:0:0:
460,192,84152,1,0,0:0:0:0:
358,192,84238,1,0,0:0:0:0:
256,192,84324,1,2,0:0:0:0:
51,192,84324,128,4,85181:0:0:0:0:
460,192,84495,128,8,84667:0:0:0:0:
358,192,84838,128,8,85009:0:0:0:0:
256,192,85181,128,8,85352:0:0:0:0:
460,192,85352,1,2,0:0:0:0:
153,192,85524,1,6,0:0:0:0:
51,192,85695,128,2,85867:0:0:0:0:
153,192,85867,128,8,86038:0:0:0:0:
460,192,86038,1,0,0:0:0:0:
256,192,86209,128,8,86381:0:0:0:0:
51,192,86381,1,8,0:0:0:0:
153,192,86467,1,8,0:0:0:0:
358,192,86552,128,8,86724:0:0:0:0:
51,192,86552,1,0,0:0:0:0:
51,192,86724,1,8,0:0:0:0:
460,192,86895,1,0,0:0:0:0:
256,192,86895,128,8,87067:0:0:0:0:
256,192,87409,1,0,0:0:0:0:
51,192,87409,128,2,89467:0:0:0:0:
460,192,87409,128,4,89467:0:0:0:0:
153,192,87409,128,0,88438:0:0:0:0:
358,192,87409,128,0,88438:0:0:0:0:
