osu file format v14

[General]
AudioFilename: ievan polkka.mp3
AudioLeadIn: 0
PreviewTime: 17016
Countdown: 0
SampleSet: Soft
StackLeniency: 0.7
Mode: 0
LetterboxInBreaks: 0
WidescreenStoryboard: 1

[Editor]
Bookmarks: 9201,17268,33402,49537,57604,65671,81806
DistanceSpacing: 1.2
BeatDivisor: 4
GridSize: 16
TimelineZoom: 1

[Metadata]
Title:Ievan Polkka
TitleUnicode:Ievan Polkka
Artist:Otomania
ArtistUnicode:Otomania
Creator:Sinnoh
Version:Normal
Source:初音ミク -Project DIVA-
Tags:vocaloid hatsune hachune miku levan finnish finland Project Diva polka
BeatmapID:1483944
BeatmapSetID:700945

[Difficulty]
HPDrainRate:3
CircleSize:3
OverallDifficulty:4
ApproachRate:4
SliderMultiplier:1.27
SliderTickRate:1

[Events]
//Background and Video events
0,0,"hachune.jpg",0,0
//Break Periods
2,49537,56284
//Storyboard Layer 0 (Background)
//Storyboard Layer 1 (Fail)
//Storyboard Layer 2 (Pass)
//Storyboard Layer 3 (Foreground)
//Storyboard Sound Samples

[TimingPoints]
1134,504.201680672269,4,2,0,100,1,0
9201,-99.009900990099,4,2,0,100,0,0

[Colours]
Combo1 : 0,228,228
Combo2 : 211,211,0
Combo3 : 0,128,128
Combo4 : 57,156,255

[HitObjects]
64,16,9201,6,0,L|64:144,1,128.269997455582,2|8,0:0|0:0,0:0:0:0:
224,144,10209,2,0,L|352:144,1,128.269997455582,2|8,0:0|0:0,0:0:0:0:
432,144,10965,1,0,0:0:0:0:
432,224,11218,2,0,L|432:352,1,128.269997455582,2|8,0:0|0:0,0:0:0:0:
272,352,12226,2,0,L|144:352,1,128.269997455582,2|8,0:0|0:0,0:0:0:0:
64,352,12982,1,8,0:0:0:0:
64,272,13234,6,0,L|64:144,1,128.269997455582,2|8,0:0|0:0,0:0:0:0:
192,64,14243,2,0,L|192:192,1,128.269997455582,2|8,0:0|0:0,0:0:0:0:
192,272,14999,1,0,0:0:0:0:
272,272,15251,2,0,L|416:272,2,128.269997455582,2|8|2,0:0|0:0|0:0,0:0:0:0:
320,48,17268,6,0,L|240:48,1,64.1349987277909,2|0,0:0|0:0,0:0:0:0:
176,48,17772,2,0,L|48:48,1,128.269997455582,8|2,0:0|0:0,0:0:0:0:
48,128,18528,1,0,0:0:0:0:
48,208,18781,1,8,0:0:0:0:
192,208,19285,2,0,L|278:208,3,64.1349987277909,2|0|8|0,0:0|0:0|0:0|0:0,0:0:0:0:
336,208,20293,2,0,L|416:208,1,64.1349987277909,2|0,0:0|0:0,0:0:0:0:
480,208,20797,1,8,0:0:0:0:
480,368,21302,6,0,L|400:368,1,64.1349987277909,2|0,0:0|0:0,0:0:0:0:
336,368,21806,1,8,0:0:0:0:
176,368,22310,2,0,L|96:368,1,64.1349987277909,2|0,0:0|0:0,0:0:0:0:
32,368,22814,1,8,0:0:0:0:
32,208,23318,1,2,0:0:0:0:
32,128,23570,1,0,0:0:0:0:
32,48,23823,2,0,L|96:48,1,64.1349987277909,8|0,0:0|0:0,0:0:0:0:
176,48,24327,2,0,L|176:128,2,64.1349987277909,2|0|8,0:0|0:0|0:0,0:0:0:0:
336,48,25335,6,0,L|336:112,1,64.1349987277909,2|0,0:0|0:0,0:0:0:0:
336,192,25839,2,0,L|416:192,1,64.1349987277909,8|0,0:0|0:0,0:0:0:0:
480,192,26344,2,0,L|480:80,2,96.2024980916863,2|0|0,0:0|0:0|0:0,0:0:0:0:
480,272,27352,2,0,L|480:352,3,64.1349987277909,2|0|8|0,0:0|0:0|0:0|0:0,0:0:0:0:
400,336,28360,2,0,L|272:336,1,128.269997455582,2|8,0:0|0:0,0:0:0:0:
112,336,29369,5,2,0:0:0:0:
112,176,29873,1,8,0:0:0:0:
272,176,30377,2,0,L|336:176,1,64.1349987277909,2|0,0:0|0:0,0:0:0:0:
416,176,30881,1,8,0:0:0:0:
416,16,31386,2,0,L|352:16,3,64.1349987277909,2|0|8|0,0:0|0:0|0:0|0:0,0:0:0:0:
272,16,32394,1,2,0:0:0:0:
160,336,33402,6,0,L|224:336,1,64.1349987277909,2|0,0:0|0:0,0:0:0:0:
304,336,33907,2,0,L|448:336,1,128.269997455582,8|2,0:0|0:0,0:0:0:0:
432,256,34663,1,0,0:0:0:0:
432,176,34915,1,8,0:0:0:0:
288,176,35419,2,0,L|224:176,3,64.1349987277909,2|0|8|0,0:0|0:0|0:0|0:0,0:0:0:0:
224,96,36428,1,2,0:0:0:0:
224,16,36680,2,0,L|304:16,1,64.1349987277909,0|8,0:0|0:0,0:0:0:0:
448,16,37436,6,0,L|448:96,1,64.1349987277909,2|0,0:0|0:0,0:0:0:0:
448,160,37940,1,8,0:0:0:0:
448,320,38444,2,0,L|368:320,1,64.1349987277909,2|0,0:0|0:0,0:0:0:0:
304,320,38949,1,8,0:0:0:0:
304,160,39453,1,2,0:0:0:0:
224,160,39705,1,0,0:0:0:0:
144,160,39957,2,0,L|80:160,1,64.1349987277909,8|0,0:0|0:0,0:0:0:0:
80,240,40461,2,0,L|80:320,2,64.1349987277909,2|0|8,0:0|0:0|0:0,0:0:0:0:
240,240,41470,6,0,L|320:240,1,64.1349987277909,2|0,0:0|0:0,0:0:0:0:
304,160,41974,2,0,L|304:80,1,64.1349987277909,8|0,0:0|0:0,0:0:0:0:
384,96,42478,2,0,L|496:96,2,96.2024980916863,2|0|0,0:0|0:0|0:0,0:0:0:0:
304,96,43486,2,0,L|224:96,3,64.1349987277909,2|0|8|0,0:0|0:0|0:0|0:0,0:0:0:0:
160,96,44495,2,0,L|160:240,1,128.269997455582,2|8,0:0|0:0,0:0:0:0:
320,224,45503,5,2,0:0:0:0:
320,384,46007,1,8,0:0:0:0:
144,384,46512,2,0,L|64:384,1,64.1349987277909,2|0,0:0|0:0,0:0:0:0:
80,304,47016,1,8,0:0:0:0:
80,144,47520,2,0,L|80:64,3,64.1349987277909,2|0|8|0,0:0|0:0|0:0|0:0,0:0:0:0:
160,80,48528,1,2,0:0:0:0:
240,32,57604,6,0,L|111:32,1,128.269997455582,2|8,0:0|0:0,0:0:0:0:
112,192,58612,2,0,L|240:192,1,128.269997455582,2|8,0:0|0:0,0:0:0:0:
320,192,59369,1,0,0:0:0:0:
400,192,59621,1,2,0:0:0:0:
400,352,60125,2,0,L|320:352,1,64.1349987277909,8|0,0:0|0:0,0:0:0:0:
256,352,60629,2,0,L|112:352,1,128.269997455582,2|8,0:0|0:0,0:0:0:0:
128,192,61638,6,0,L|128:48,1,128.269997455582,2|8,0:0|0:0,0:0:0:0:
288,64,62646,2,0,L|416:64,1,128.269997455582,2|8,0:0|0:0,0:0:0:0:
416,144,63402,1,0,0:0:0:0:
416,224,63655,1,0,0:0:0:0:
256,224,64159,1,0,0:0:0:0:
96,224,64663,1,2,0:0:0:0:
195,97,65167,2,2,B|232:89|273:97|273:97,1,64.1349987277909,2|0,0:1|0:1,0:1:0:0:
336,128,65671,6,0,L|416:128,1,64.1349987277909,2|0,0:0|0:0,0:0:0:0:
480,128,66176,2,0,L|480:256,1,128.269997455582,8|2,0:0|0:0,0:0:0:0:
480,336,66932,1,0,0:0:0:0:
400,336,67184,1,8,0:0:0:0:
256,336,67688,2,0,L|256:272,3,64.1349987277909,2|0|8|0,0:0|0:0|0:0|0:0,0:0:0:0:
176,272,68697,1,2,0:0:0:0:
16,272,69201,1,8,0:0:0:0:
16,112,69705,6,0,L|96:112,1,64.1349987277909,2|0,0:0|0:0,0:0:0:0:
160,112,70209,1,8,0:0:0:0:
304,112,70713,2,0,L|304:32,1,64.1349987277909,2|0,0:0|0:0,0:0:0:0:
384,48,71218,1,8,0:0:0:0:
384,208,71722,1,2,0:0:0:0:
384,288,71974,1,0,0:0:0:0:
384,368,72226,2,0,L|304:368,1,64.1349987277909,8|0,0:0|0:0,0:0:0:0:
240,368,72730,2,0,L|112:368,1,128.269997455582,2|8,0:0|0:0,0:0:0:0:
112,208,73739,5,2,0:0:0:0:
112,48,74243,1,8,0:0:0:0:
272,48,74747,2,0,L|272:128,1,64.1349987277909,2|0,0:0|0:0,0:0:0:0:
272,192,75251,1,8,0:0:0:0:
352,192,75503,1,0,0:0:0:0:
432,192,75755,2,0,L|496:192,3,64.1349987277909,2|0|8|0,0:0|0:0|0:0|0:0,0:0:0:0:
496,272,76764,2,0,L|352:272,1,128.269997455582,2|8,0:0|0:0,0:0:0:0:
208,272,77772,5,2,0:0:0:0:
48,272,78276,1,8,0:0:0:0:
48,112,78781,2,0,L|128:112,1,64.1349987277909,2|0,0:0|0:0,0:0:0:0:
192,112,79285,1,8,0:0:0:0:
272,112,79537,1,0,0:0:0:0:
272,192,79789,2,0,L|272:256,3,64.1349987277909,2|0|8|0,0:0|0:0|0:0|0:0,0:0:0:0:
272,336,80797,1,2,0:0:0:0:
