osu file format v14

[General]
AudioFilename: ievan polkka.mp3
AudioLeadIn: 0
PreviewTime: 17016
Countdown: 0
SampleSet: Soft
StackLeniency: 0.7
Mode: 0
LetterboxInBreaks: 0
WidescreenStoryboard: 1

[Editor]
Bookmarks: 9201,17268,33402,49537,57604,65671,81806
DistanceSpacing: 1.3
BeatDivisor: 4
GridSize: 16
TimelineZoom: 1

[Metadata]
Title:Ievan Polkka
TitleUnicode:Ievan Polkka
Artist:Otomania
ArtistUnicode:Otomania
Creator:Sinnoh
Version:Advanced
Source:初音ミク -Project DIVA-
Tags:vocaloid hatsune hachune miku levan finnish finland Project Diva polka
BeatmapID:1491857
BeatmapSetID:700945

[Difficulty]
HPDrainRate:4
CircleSize:3
OverallDifficulty:5
ApproachRate:5
SliderMultiplier:1.28
SliderTickRate:1

[Events]
//Background and Video events
0,0,"hachune.jpg",0,0
//Break Periods
2,49537,56404
//Storyboard Layer 0 (Background)
//Storyboard Layer 1 (Fail)
//Storyboard Layer 2 (Pass)
//Storyboard Layer 3 (Foreground)
//Storyboard Sound Samples

[TimingPoints]
1134,504.201680672269,4,2,0,100,1,0
9201,-100,4,2,0,100,0,0
65671,-100,4,2,0,100,0,0

[Colours]
Combo1 : 0,228,228
Combo2 : 211,211,0
Combo3 : 0,128,128
Combo4 : 57,156,255

[HitObjects]
64,48,9201,6,0,L|64:176,1,128,2|8,0:0|0:0,0:0:0:0:
224,176,10209,1,2,0:0:0:0:
224,336,10713,1,8,0:0:0:0:
304,336,10965,1,0,0:0:0:0:
384,336,11218,2,0,L|384:208,1,128,2|8,0:0|0:0,0:0:0:0:
384,48,12226,1,2,0:0:0:0:
224,48,12730,1,8,0:0:0:0:
144,48,12982,5,8,0:0:0:0:
128,48,13108,1,8,0:0:0:0:
112,48,13234,2,0,L|112:192,1,128,2|8,0:0|0:0,0:0:0:0:
112,336,14243,1,2,0:0:0:0:
272,336,14747,1,8,0:0:0:0:
272,256,14999,1,0,0:0:0:0:
272,176,15251,2,0,L|272:32,1,128,2|8,0:0|0:0,0:0:0:0:
448,48,16260,1,2,0:0:0:0:
144,48,17268,6,0,L|144:128,1,64,2|0,0:0|0:0,0:0:0:0:
144,192,17772,2,0,L|144:256,1,64,8|0,0:0|0:0,0:0:0:0:
144,336,18276,1,2,0:0:0:0:
160,336,18402,1,0,0:0:0:0:
176,336,18528,2,0,L|240:336,1,64,0|8,0:0|0:0,0:0:0:0:
320,336,19033,1,0,0:0:0:0:
322,258,19285,5,2,0:0:0:0:
322,258,19537,1,0,0:0:0:0:
322,178,19789,1,8,0:0:0:0:
322,178,20041,1,0,0:0:0:0:
320,96,20293,2,0,L|320:16,2,64,2|0|8,0:0|0:0|0:0,0:0:0:0:
400,96,21049,5,8,0:0:0:0:
416,96,21175,1,8,0:0:0:0:
432,96,21302,2,0,L|496:96,1,64,2|0,0:0|0:0,0:0:0:0:
496,176,21806,2,0,L|496:272,1,96,8|0,0:0|0:0,0:0:0:0:
496,320,22310,2,0,L|416:320,1,64,2|0,0:0|0:0,0:0:0:0:
352,320,22814,2,0,L|272:320,1,64,8|0,0:0|0:0,0:0:0:0:
208,320,23318,6,0,L|160:320,3,32,2|0|0|0,0:0|0:0|0:0|0:0,0:0:0:0:
128,320,23823,2,0,L|128:240,1,64,8|0,0:0|0:0,0:0:0:0:
128,176,24327,2,0,L|128:96,2,64,2|0|8,0:0|0:0|0:0,0:0:0:0:
208,176,25083,5,8,0:0:0:0:
224,176,25209,1,8,0:0:0:0:
240,176,25336,2,0,L|304:176,1,64,2|0,0:0|0:0,0:0:0:0:
384,176,25839,2,0,L|384:96,1,64,8|0,0:0|0:0,0:0:0:0:
384,32,26344,2,0,L|304:32,1,64,2|0,0:0|0:0,0:0:0:0:
272,32,26722,2,0,L|176:32,1,96
96,32,27352,6,0,L|96:64,3,32,2|0|0|0,0:0|0:0|0:0|0:0,0:0:0:0:
96,112,27856,2,0,L|96:144,3,32,8|0|0|0,0:0|0:0|0:0|0:0,0:0:0:0:
96,192,28360,2,0,L|96:272,1,64,2|0,0:0|0:0,0:0:0:0:
96,336,28865,1,8,0:0:0:0:
176,336,29117,5,8,0:0:0:0:
192,336,29243,1,8,0:0:0:0:
208,336,29370,2,0,L|272:336,1,64,2|0,0:0|0:0,0:0:0:0:
352,336,29873,2,0,L|432:336,1,64,8|0,0:0|0:0,0:0:0:0:
416,256,30377,2,0,L|416:192,1,64,2|0,0:0|0:0,0:0:0:0:
416,112,30881,1,8,0:0:0:0:
336,112,31134,1,0,0:0:0:0:
256,112,31386,6,0,L|208:112,3,32,2|0|0|0,0:0|0:0|0:0|0:0,0:0:0:0:
176,112,31890,2,0,L|176:192,1,64,8|0,0:0|0:0,0:0:0:0:
176,256,32394,1,2,0:0:0:0:
464,368,33402,6,0,L|384:368,1,64,2|0,0:0|0:0,0:0:0:0:
320,368,33907,2,0,L|240:368,1,64,8|0,0:0|0:0,0:0:0:0:
176,368,34411,1,2,0:0:0:0:
176,352,34537,1,0,0:0:0:0:
176,336,34663,2,0,L|176:272,1,64,0|8,0:0|0:0,0:0:0:0:
176,192,35167,1,0,0:0:0:0:
98,194,35419,5,2,0:0:0:0:
98,194,35671,1,0,0:0:0:0:
98,114,35923,1,8,0:0:0:0:
98,114,36175,1,0,0:0:0:0:
96,32,36428,2,0,L|16:32,2,64,2|0|8,0:0|0:0|0:0,0:0:0:0:
176,32,37184,5,8,0:0:0:0:
192,32,37310,1,8,0:0:0:0:
208,32,37436,2,0,L|272:32,1,64,2|0,0:0|0:0,0:0:0:0:
352,32,37940,2,0,L|448:32,1,96,8|0,0:0|0:0,0:0:0:0:
496,32,38444,2,0,L|496:112,1,64,2|0,0:0|0:0,0:0:0:0:
496,176,38949,2,0,L|496:240,1,64,8|0,0:0|0:0,0:0:0:0:
416,240,39453,6,0,L|384:240,3,32,2|0|0|0,0:0|0:0|0:0|0:0,0:0:0:0:
336,240,39957,2,0,L|272:240,1,64,8|0,0:0|0:0,0:0:0:0:
192,240,40461,2,0,L|192:320,2,64,2|0|8,0:0|0:0|0:0,0:0:0:0:
192,160,41218,5,8,0:0:0:0:
192,144,41344,1,8,0:0:0:0:
192,128,41471,2,0,L|192:64,1,64,2|0,0:0|0:0,0:0:0:0:
112,64,41974,2,0,L|48:64,1,64,8|0,0:0|0:0,0:0:0:0:
48,144,42478,2,0,L|48:208,1,64,2|0,0:0|0:0,0:0:0:0:
48,256,42856,2,0,L|48:352,1,96
128,352,43486,6,0,L|176:352,3,32,2|0|0|0,0:0|0:0|0:0|0:0,0:0:0:0:
208,352,43991,2,0,L|256:352,3,32,8|0|0|0,0:0|0:0|0:0|0:0,0:0:0:0:
288,352,44495,2,0,L|352:352,1,64,2|0,0:0|0:0,0:0:0:0:
432,352,44999,1,8,0:0:0:0:
432,272,45251,5,8,0:0:0:0:
432,256,45377,1,8,0:0:0:0:
432,240,45504,2,0,L|432:176,1,64,2|0,0:0|0:0,0:0:0:0:
432,96,46007,2,0,L|432:16,1,64,8|0,0:0|0:0,0:0:0:0:
352,32,46512,2,0,L|272:32,1,64,2|0,0:0|0:0,0:0:0:0:
208,32,47016,1,8,0:0:0:0:
208,112,47268,1,0,0:0:0:0:
208,192,47520,6,0,L|208:224,3,32,2|0|0|0,0:0|0:0|0:0|0:0,0:0:0:0:
208,272,48024,2,0,L|288:272,1,64,8|0,0:0|0:0,0:0:0:0:
352,272,48528,1,2,0:0:0:0:
64,64,57604,6,0,L|209:64,1,128,2|8,0:0|0:0,0:0:0:0:
272,64,58360,1,0,0:0:0:0:
352,64,58612,2,0,L|352:144,1,64,2|0,0:0|0:0,0:0:0:0:
352,208,59117,1,8,0:0:0:0:
192,208,59621,2,0,L|112:208,1,64,2|0,0:0|0:0,0:0:0:0:
48,208,60125,2,0,L|48:128,2,64,8|0|2,0:0|0:0|0:0,0:0:0:0:
48,368,61133,1,8,0:0:0:0:
208,368,61638,6,0,L|336:368,1,128,2|8,0:0|0:0,0:0:0:0:
416,368,62394,1,0,0:0:0:0:
496,368,62646,2,0,L|496:240,1,128,2|8,0:0|0:0,0:0:0:0:
496,80,63655,1,2,0:0:0:0:
336,80,64159,2,0,L|336:16,2,64,8|0|2,0:0|0:0|0:0,0:0:0:0:
336,240,65167,2,2,B|300:251|282:221|243:223|243:223,1,96,2|0,0:1|0:0,0:1:0:0:
192,224,65671,6,0,L|112:224,1,64,2|0,0:0|0:0,0:0:0:0:
48,224,66176,2,0,L|48:128,1,96,8|0,0:0|0:0,0:0:0:0:
48,80,66680,2,0,L|48:32,2,32,2|0|0,0:0|0:0|0:0,0:0:0:0:
128,80,67184,1,8,0:0:0:0:
208,80,67436,5,0,0:0:0:0:
224,80,67562,1,0,0:0:0:0:
240,80,67688,2,0,L|320:80,1,64,2|0,0:0|0:0,0:0:0:0:
384,80,68192,2,0,L|464:80,1,64,8|0,0:0|0:0,0:0:0:0:
448,160,68697,1,2,0:0:0:0:
448,176,68823,1,0,0:0:0:0:
448,192,68949,1,0,0:0:0:0:
448,272,69201,2,0,L|336:272,1,96,8|8,0:0|0:0,0:0:0:0:
304,272,69705,6,0,L|304:336,1,64,2|0,0:0|0:0,0:0:0:0:
224,336,70209,2,0,L|128:336,1,96,8|0,0:0|0:0,0:0:0:0:
80,336,70713,1,2,0:0:0:0:
80,256,70965,2,0,L|80:176,1,64,0|2,0:0|0:0,0:0:0:0:
80,112,71470,1,0,0:0:0:0:
160,112,71722,6,0,L|192:112,3,32,2|0|0|0,0:0|0:0|0:0|0:0,0:0:0:0:
240,112,72226,2,0,L|288:112,3,32,8|0|0|0,0:0|0:0|0:0|0:0,0:0:0:0:
320,112,72730,2,0,L|320:192,1,64,2|0,0:0|0:0,0:0:0:0:
320,256,73234,1,8,0:0:0:0:
240,256,73486,5,8,0:0:0:0:
224,256,73612,1,8,0:0:0:0:
208,256,73739,2,0,L|128:256,1,64,2|0,0:0|0:0,0:0:0:0:
144,336,74243,2,0,L|208:336,1,64,8|0,0:0|0:0,0:0:0:0:
288,336,74747,1,2,0:0:0:0:
368,336,74999,2,0,L|400:336,2,32,0|0|8,0:0|0:0|0:0,0:0:0:0:
368,256,75503,1,0,0:0:0:0:
368,176,75755,6,0,L|368:128,3,32,2|0|0|0,0:0|0:0|0:0|0:0,0:0:0:0:
368,96,76260,2,0,L|368:48,3,32,8|0|0|0,0:0|0:0|0:0|0:0,0:0:0:0:
368,16,76764,2,0,L|288:16,1,64,2|0,0:0|0:0,0:0:0:0:
224,16,77268,2,0,L|128:16,1,96,8|8,0:0|0:0,0:0:0:0:
128,64,77772,6,0,L|128:144,1,64,2|0,0:0|0:0,0:0:0:0:
128,208,78276,2,0,L|128:272,1,64,8|0,0:0|0:0,0:0:0:0:
128,352,78781,1,2,0:0:0:0:
208,352,79033,2,0,L|256:352,2,32,0|0|8,0:0|0:0|0:0,0:0:0:0:
208,272,79537,1,0,0:0:0:0:
208,192,79789,6,0,L|208:160,3,32,2|0|0|0,0:0|0:0|0:0|0:0,0:0:0:0:
208,112,80293,2,0,L|288:112,1,64,8|0,0:0|0:0,0:0:0:0:
352,112,80797,1,2,0:0:0:0:
