osu file format v14

[General]
AudioFilename: ievan polkka.mp3
AudioLeadIn: 0
PreviewTime: 17016
Countdown: 0
SampleSet: Soft
StackLeniency: 0.2
Mode: 0
LetterboxInBreaks: 0
WidescreenStoryboard: 1

[Editor]
Bookmarks: 9201,17268,33402,49537,57604,65671,81806
DistanceSpacing: 1.6
BeatDivisor: 4
GridSize: 8
TimelineZoom: 1.2

[Metadata]
Title:Ievan Polkka
TitleUnicode:Ievan Polkka
Artist:Otomania
ArtistUnicode:Otomania
Creator:Sinnoh
Version:Insane
Source:初音ミク -Project DIVA-
Tags:vocaloid hatsune hachune miku levan finnish finland Project Diva polka
BeatmapID:1483943
BeatmapSetID:700945

[Difficulty]
HPDrainRate:6
CircleSize:5
OverallDifficulty:7
ApproachRate:7
SliderMultiplier:1.58
SliderTickRate:1

[Events]
//Background and Video events
0,0,"hachune.jpg",0,0
//Break Periods
2,49537,56704
//Storyboard Layer 0 (Background)
//Storyboard Layer 1 (Fail)
//Storyboard Layer 2 (Pass)
//Storyboard Layer 3 (Foreground)
//Storyboard Sound Samples

[TimingPoints]
1134,504.201680672269,4,2,0,100,1,0
9201,-99.009900990099,4,2,0,100,0,0
65167,-50,4,2,0,100,0,0
65671,-99.009900990099,4,2,0,100,0,0

[Colours]
Combo1 : 0,228,228
Combo2 : 211,211,0
Combo3 : 0,128,128
Combo4 : 57,156,255

[HitObjects]
64,88,9201,5,2,0:0:0:0:
64,280,9705,1,8,0:0:0:0:
64,88,10209,1,2,0:0:0:0:
192,280,10713,1,8,0:0:0:0:
192,184,10965,1,0,0:0:0:0:
192,88,11217,5,2,0:0:0:0:
192,280,11722,1,8,0:0:0:0:
192,88,12226,1,2,0:0:0:0:
320,280,12730,1,8,0:0:0:0:
320,88,12982,5,8,0:0:0:0:
320,136,13108,1,8,0:0:0:0:
320,88,13234,1,2,0:0:0:0:
320,280,13739,1,8,0:0:0:0:
320,88,14243,1,2,0:0:0:0:
448,280,14747,1,8,0:0:0:0:
448,184,14999,1,0,0:0:0:0:
448,88,15251,5,2,0:0:0:0:
448,280,15756,1,8,0:0:0:0:
448,88,16260,1,2,0:0:0:0:
168,48,17142,5,0,0:0:0:0:
232,48,17268,1,2,0:0:0:0:
232,176,17520,1,0,0:0:0:0:
232,176,17772,2,0,L|112:176,1,119.684997625877,8|0,0:0|0:0,0:0:0:0:
48,176,18276,1,2,0:0:0:0:
48,213,18402,1,0,0:0:0:0:
48,250,18528,1,0,0:0:0:0:
48,287,18654,1,0,0:0:0:0:
48,320,18781,1,8,0:0:0:0:
160,320,19033,5,0,0:0:0:0:
224,320,19159,1,0,0:0:0:0:
288,320,19285,1,2,0:0:0:0:
416,320,19537,1,0,0:0:0:0:
416,192,19789,1,8,0:0:0:0:
288,192,20041,1,0,0:0:0:0:
416,192,20293,1,2,0:0:0:0:
416,64,20545,1,0,0:0:0:0:
288,64,20797,1,8,0:0:0:0:
160,64,21049,5,8,0:0:0:0:
224,64,21176,1,8,0:0:0:0:
160,64,21302,1,2,0:0:0:0:
160,192,21554,1,0,0:0:0:0:
32,192,21806,1,8,0:0:0:0:
160,336,22184,5,0,0:0:0:0:
224,336,22310,1,2,0:0:0:0:
352,336,22562,5,0,0:0:0:0:
288,336,22688,1,0,0:0:0:0:
256,216,22940,6,0,L|256:160,2,39.8949992086258
256,128,23318,1,2,0:0:0:0:
256,88,23444,1,0,0:0:0:0:
256,48,23570,1,0,0:0:0:0:
256,8,23696,1,0,0:0:0:0:
320,8,23823,1,8,0:0:0:0:
320,47,23949,1,0,0:0:0:0:
320,87,24075,1,0,0:0:0:0:
192,88,24327,5,2,0:0:0:0:
320,88,24579,1,0,0:0:0:0:
256,200,24831,1,8,0:0:0:0:
256,328,25083,5,8,0:0:0:0:
256,264,25209,1,8,0:0:0:0:
320,264,25335,2,0,L|408:264,1,79.7899984172516,2|0,0:0|0:0,0:0:0:0:
192,264,25839,2,0,L|104:264,1,79.7899984172516,8|0,0:0|0:0,0:0:0:0:
112,136,26344,1,2,0:0:0:0:
112,8,26596,5,0,0:0:0:0:
112,72,26722,1,0,0:0:0:0:
240,72,26974,5,0,0:0:0:0:
240,8,27100,1,0,0:0:0:0:
304,8,27226,1,0,0:0:0:0:
304,72,27352,5,2,0:0:0:0:
304,111,27478,1,0,0:0:0:0:
304,151,27604,1,0,0:0:0:0:
304,191,27730,1,0,0:0:0:0:
304,256,27856,1,8,0:0:0:0:
264,256,27982,1,0,0:0:0:0:
200,256,28108,1,0,0:0:0:0:
160,256,28234,1,0,0:0:0:0:
160,320,28360,5,2,0:0:0:0:
304,320,28613,1,0,0:0:0:0:
304,384,28739,1,0,0:0:0:0:
304,104,29243,5,8,0:0:0:0:
368,104,29369,1,2,0:0:0:0:
240,104,29621,1,0,0:0:0:0:
112,104,29873,1,8,0:0:0:0:
112,232,30125,1,0,0:0:0:0:
112,104,30377,1,2,0:0:0:0:
240,104,30629,1,0,0:0:0:0:
112,104,30881,1,8,0:0:0:0:
112,232,31134,5,0,0:0:0:0:
176,232,31260,1,0,0:0:0:0:
240,232,31386,1,2,0:0:0:0:
279,232,31512,1,0,0:0:0:0:
319,232,31638,1,0,0:0:0:0:
359,232,31764,1,0,0:0:0:0:
400,232,31890,1,8,0:0:0:0:
400,232,32142,1,0,0:0:0:0:
279,232,32394,1,2,0:0:0:0:
279,232,33276,5,0,0:0:0:0:
280,168,33402,1,2,0:0:0:0:
408,168,33654,1,0,0:0:0:0:
408,168,33907,2,0,L|408:48,1,119.684997625877,8|0,0:0|0:0,0:0:0:0:
344,48,34411,1,2,0:0:0:0:
304,48,34537,1,0,0:0:0:0:
264,48,34663,1,0,0:0:0:0:
224,48,34789,1,0,0:0:0:0:
184,48,34915,1,8,0:0:0:0:
56,48,35167,5,0,0:0:0:0:
120,48,35293,1,0,0:0:0:0:
120,112,35419,1,2,0:0:0:0:
120,240,35671,1,0,0:0:0:0:
248,240,35923,1,8,0:0:0:0:
248,368,36176,1,0,0:0:0:0:
248,240,36428,1,2,0:0:0:0:
376,240,36680,1,0,0:0:0:0:
376,112,36932,1,8,0:0:0:0:
376,240,37184,5,8,0:0:0:0:
376,176,37310,1,8,0:0:0:0:
376,240,37436,1,2,0:0:0:0:
248,240,37688,1,0,0:0:0:0:
248,112,37940,1,8,0:0:0:0:
440,40,38318,5,0,0:0:0:0:
376,40,38444,1,2,0:0:0:0:
248,40,38697,5,0,0:0:0:0:
312,40,38823,1,0,0:0:0:0:
184,40,39075,6,0,L|128:40,2,39.8949992086258
96,40,39453,1,2,0:0:0:0:
96,79,39579,1,0,0:0:0:0:
96,119,39705,1,0,0:0:0:0:
96,159,39831,1,0,0:0:0:0:
160,160,39957,1,8,0:0:0:0:
160,199,40083,1,0,0:0:0:0:
160,239,40209,1,0,0:0:0:0:
288,240,40461,5,2,0:0:0:0:
160,239,40713,1,0,0:0:0:0:
288,240,40965,1,8,0:0:0:0:
416,240,41218,5,8,0:0:0:0:
352,240,41344,1,8,0:0:0:0:
352,304,41470,2,0,L|352:392,1,79.7899984172516,2|0,0:0|0:0,0:0:0:0:
352,176,41974,2,0,L|352:88,1,79.7899984172516,8|0,0:0|0:0,0:0:0:0:
224,96,42478,1,2,0:0:0:0:
96,96,42730,5,0,0:0:0:0:
160,96,42856,1,0,0:0:0:0:
160,224,43108,5,0,0:0:0:0:
224,224,43234,1,0,0:0:0:0:
224,288,43360,1,0,0:0:0:0:
224,352,43486,5,2,0:0:0:0:
184,352,43612,1,0,0:0:0:0:
144,352,43738,1,0,0:0:0:0:
104,352,43864,1,0,0:0:0:0:
104,288,43991,1,8,0:0:0:0:
104,248,44117,1,0,0:0:0:0:
104,184,44243,1,0,0:0:0:0:
104,144,44369,1,0,0:0:0:0:
40,144,44495,5,2,0:0:0:0:
40,16,44747,1,0,0:0:0:0:
104,16,44873,1,0,0:0:0:0:
296,16,45377,5,8,0:0:0:0:
296,80,45503,1,2,0:0:0:0:
296,208,45755,1,0,0:0:0:0:
424,208,46007,1,8,0:0:0:0:
424,336,46260,1,0,0:0:0:0:
424,208,46512,1,2,0:0:0:0:
424,80,46764,1,0,0:0:0:0:
424,208,47016,1,8,0:0:0:0:
424,336,47268,5,0,0:0:0:0:
360,336,47394,1,0,0:0:0:0:
296,336,47520,1,2,0:0:0:0:
256,336,47646,1,0,0:0:0:0:
216,336,47772,1,0,0:0:0:0:
176,336,47898,1,0,0:0:0:0:
136,336,48024,1,8,0:0:0:0:
136,336,48276,1,0,0:0:0:0:
256,336,48528,1,2,0:0:0:0:
408,96,57604,5,2,0:0:0:0:
408,288,58108,5,8,0:0:0:0:
408,192,58360,1,0,0:0:0:0:
408,288,58612,1,2,0:0:0:0:
256,288,59117,5,8,0:0:0:0:
256,192,59369,1,0,0:0:0:0:
256,288,59621,1,2,0:0:0:0:
104,96,60125,5,8,0:0:0:0:
104,192,60377,1,0,0:0:0:0:
104,96,60629,1,2,0:0:0:0:
256,288,61133,5,8,0:0:0:0:
256,144,61386,1,0,0:0:0:0:
256,192,61512,1,8,0:0:0:0:
256,144,61638,1,2,0:0:0:0:
408,288,62142,5,8,0:0:0:0:
408,192,62394,1,0,0:0:0:0:
408,288,62646,1,2,0:0:0:0:
256,288,63150,5,8,0:0:0:0:
256,192,63402,1,0,0:0:0:0:
256,384,63655,1,2,0:0:0:0:
104,320,64159,5,8,0:0:0:0:
104,384,64411,1,0,0:0:0:0:
104,256,64663,1,2,0:0:0:0:
256,11,65167,6,2,L|256:264,1,237,2|0,0:1|0:0,0:1:0:0:
256,248,65671,6,0,L|256:336,1,79.7899984172516,2|0,0:0|0:0,0:0:0:0:
384,328,66176,2,0,L|384:232,1,79.7899984172516,8|0,0:0|0:0,0:0:0:0:
384,184,66554,1,0,0:0:0:0:
384,120,66680,2,0,L|384:72,2,39.8949992086258,2|0|0,0:0|0:0|0:0,0:0:0:0:
256,120,67184,2,0,L|168:120,1,79.7899984172516,8|0,0:0|0:0,0:0:0:0:
112,120,67562,1,0,0:0:0:0:
112,184,67688,5,2,0:0:0:0:
112,312,67940,1,0,0:0:0:0:
240,312,68192,1,8,0:0:0:0:
240,184,68444,1,0,0:0:0:0:
240,56,68697,2,0,L|240:0,2,39.8949992086258,2|0|0,0:0|0:0|0:0,0:0:0:0:
368,56,69201,2,0,L|487:56,1,119.684997625877,8|8,0:0|0:0,0:0:0:0:
488,120,69705,6,0,L|488:208,1,79.7899984172516,2|0,0:0|0:0,0:0:0:0:
360,200,70209,2,0,L|360:280,1,79.7899984172516,8|0,0:0|0:0,0:0:0:0:
296,280,70587,1,0,0:0:0:0:
232,280,70713,1,2,0:0:0:0:
232,152,70965,5,0,0:0:0:0:
232,216,71091,1,0,0:0:0:0:
232,88,71344,2,0,L|232:32,2,39.8949992086258
184,48,71722,5,2,0:0:0:0:
145,48,71848,1,0,0:0:0:0:
104,48,71974,1,0,0:0:0:0:
64,48,72100,1,0,0:0:0:0:
0,49,72226,1,8,0:0:0:0:
0,89,72352,1,0,0:0:0:0:
64,89,72478,1,0,0:0:0:0:
64,128,72604,1,0,0:0:0:0:
64,192,72730,6,0,L|176:192,1,79.7899984172516,2|0,0:0|0:0,0:0:0:0:
208,192,73108,1,0,0:0:0:0:
272,192,73234,1,8,0:0:0:0:
400,192,73486,5,8,0:0:0:0:
336,192,73612,1,8,0:0:0:0:
336,128,73739,2,0,L|336:40,1,79.7899984172516,2|0,0:0|0:0,0:0:0:0:
336,264,74243,2,0,L|336:352,1,79.7899984172516,8|0,0:0|0:0,0:0:0:0:
208,344,74747,2,0,L|112:344,1,79.7899984172516,2|0,0:0|0:0,0:0:0:0:
128,280,75125,1,0,0:0:0:0:
128,216,75251,1,8,0:0:0:0:
0,216,75503,5,0,0:0:0:0:
0,152,75629,1,0,0:0:0:0:
64,152,75755,1,2,0:0:0:0:
103,152,75881,1,0,0:0:0:0:
143,152,76007,1,0,0:0:0:0:
183,152,76133,1,0,0:0:0:0:
184,88,76260,1,8,0:0:0:0:
223,88,76386,1,0,0:0:0:0:
232,152,76512,1,0,0:0:0:0:
271,152,76638,1,0,0:0:0:0:
272,88,76764,6,0,L|272:-24,1,79.7899984172516,2|0,0:0|0:0,0:0:0:0:
336,8,77142,1,0,0:0:0:0:
400,8,77268,2,0,L|400:104,1,79.7899984172516,8|0,0:0|0:0,0:0:0:0:
400,152,77646,1,8,0:0:0:0:
400,216,77772,5,2,0:0:0:0:
272,216,78024,1,0,0:0:0:0:
272,344,78276,1,8,0:0:0:0:
144,344,78528,1,0,0:0:0:0:
272,344,78781,1,2,0:0:0:0:
272,216,79033,2,0,L|272:160,1,39.8949992086258
208,176,79285,2,0,L|120:176,1,79.7899984172516,8|0,0:0|0:0,0:0:0:0:
128,112,79663,1,0,0:0:0:0:
128,48,79789,5,2,0:0:0:0:
167,48,79915,1,0,0:0:0:0:
207,48,80041,1,0,0:0:0:0:
247,48,80167,1,0,0:0:0:0:
248,112,80293,1,8,0:0:0:0:
128,112,80545,1,0,0:0:0:0:
248,112,80797,1,2,0:0:0:0:
