osu file format v14

[General]
AudioFilename: ievan polkka.mp3
AudioLeadIn: 0
PreviewTime: 17016
Countdown: 0
SampleSet: Soft
StackLeniency: 0.7
Mode: 0
LetterboxInBreaks: 0
WidescreenStoryboard: 1

[Editor]
Bookmarks: 9201,17268,33402,49537,57604,65671,81806
DistanceSpacing: 1
BeatDivisor: 4
GridSize: 16
TimelineZoom: 1

[Metadata]
Title:Ievan Polkka
TitleUnicode:Ievan Polkka
Artist:Otomania
ArtistUnicode:Otomania
Creator:Sinnoh
Version:Hard
Source:初音ミク -Project DIVA-
Tags:vocaloid hatsune hachune miku levan finnish finland Project Diva polka
BeatmapID:1483942
BeatmapSetID:700945

[Difficulty]
HPDrainRate:5
CircleSize:4
OverallDifficulty:6
ApproachRate:6
SliderMultiplier:1.27
SliderTickRate:1

[Events]
//Background and Video events
0,0,"hachune.jpg",0,0
//Break Periods
2,49537,56554
//Storyboard Layer 0 (Background)
//Storyboard Layer 1 (Fail)
//Storyboard Layer 2 (Pass)
//Storyboard Layer 3 (Foreground)
//Storyboard Sound Samples

[TimingPoints]
1134,504.201680672269,4,2,0,100,1,0
9201,-99.009900990099,4,2,0,100,0,0
65167,-66.6666666666667,4,2,0,100,0,0
65671,-99.009900990099,4,2,0,100,0,0

[Colours]
Combo1 : 0,228,228
Combo2 : 211,211,0
Combo3 : 0,128,128
Combo4 : 57,156,255

[HitObjects]
80,80,9201,6,0,L|80:208,1,128.269997455582,2|8,0:0|0:0,0:0:0:0:
240,208,10209,1,2,0:0:0:0:
240,48,10713,1,8,0:0:0:0:
320,48,10965,1,0,0:0:0:0:
400,48,11218,6,0,L|400:192,1,128.269997455582,2|8,0:0|0:0,0:0:0:0:
400,336,12226,1,2,0:0:0:0:
240,336,12730,1,8,0:0:0:0:
240,224,12982,1,8,0:0:0:0:
240,208,13108,1,8,0:0:0:0:
240,192,13234,6,0,L|112:192,1,128.269997455582,2|8,0:0|0:0,0:0:0:0:
112,32,14243,1,2,0:0:0:0:
272,32,14747,1,8,0:0:0:0:
352,32,14999,1,0,0:0:0:0:
432,32,15251,2,0,L|432:160,2,128.269997455582,2|8|2,0:0|0:0|0:0,0:0:0:0:
256,288,17268,5,2,0:0:0:0:
176,288,17520,1,0,0:0:0:0:
96,288,17772,2,0,L|96:208,1,64.1349987277909,8|0,0:0|0:0,0:0:0:0:
96,144,18276,1,2,0:0:0:0:
112,144,18402,1,0,0:0:0:0:
128,144,18528,1,0,0:0:0:0:
144,144,18654,1,0,0:0:0:0:
160,144,18781,2,0,L|224:144,1,64.1349987277909,8|0,0:0|0:0,0:0:0:0:
224,224,19285,5,2,0:0:0:0:
304,224,19537,1,0,0:0:0:0:
304,144,19789,1,8,0:0:0:0:
384,144,20041,1,0,0:0:0:0:
384,64,20293,2,0,L|384:0,2,64.1349987277909,2|0|8,0:0|0:0|0:0,0:0:0:0:
304,64,21049,5,8,0:0:0:0:
288,64,21176,1,8,0:0:0:0:
272,64,21302,2,0,L|192:64,1,64.1349987277909,2|0,0:0|0:0,0:0:0:0:
128,64,21806,2,0,L|128:176,1,96.2024980916863,8|0,0:0|0:0,0:0:0:0:
128,192,22310,2,0,L|208:192,1,64.1349987277909,2|0,0:0|0:0,0:0:0:0:
224,192,22688,2,0,L|224:272,1,64.1349987277909
224,288,23066,1,0,0:0:0:0:
304,288,23318,5,2,0:0:0:0:
320,288,23444,1,0,0:0:0:0:
336,288,23570,1,0,0:0:0:0:
352,288,23696,1,0,0:0:0:0:
368,288,23823,2,0,L|448:288,1,64.1349987277909,8|0,0:0|0:0,0:0:0:0:
432,208,24327,2,0,L|368:208,1,64.1349987277909,2|0,0:0|0:0,0:0:0:0:
288,208,24831,1,8,0:0:0:0:
208,208,25083,5,8,0:0:0:0:
208,192,25209,1,8,0:0:0:0:
208,176,25335,2,0,L|208:112,1,64.1349987277909,2|0,0:0|0:0,0:0:0:0:
208,32,25839,2,0,L|128:32,1,64.1349987277909,8|0,0:0|0:0,0:0:0:0:
64,32,26344,2,0,L|64:112,1,64.1349987277909,2|0,0:0|0:0,0:0:0:0:
64,128,26722,2,0,L|64:192,1,64.1349987277909
64,224,27100,1,0,0:0:0:0:
144,224,27352,5,2,0:0:0:0:
144,240,27478,1,0,0:0:0:0:
144,256,27604,1,0,0:0:0:0:
144,272,27730,1,0,0:0:0:0:
144,288,27856,2,0,L|144:368,1,64.1349987277909,8|0,0:0|0:0,0:0:0:0:
224,352,28360,2,0,L|304:352,1,64.1349987277909,2|0,0:0|0:0,0:0:0:0:
320,352,28739,2,0,L|432:352,1,96.2024980916863
416,272,29369,5,2,0:0:0:0:
416,192,29621,1,0,0:0:0:0:
416,112,29873,1,8,0:0:0:0:
416,32,30125,1,0,0:0:0:0:
336,32,30377,2,0,L|256:32,1,64.1349987277909,2|0,0:0|0:0,0:0:0:0:
192,32,30881,2,0,L|192:96,1,64.1349987277909,8|0,0:0|0:0,0:0:0:0:
192,176,31386,5,2,0:0:0:0:
208,176,31512,1,0,0:0:0:0:
224,176,31638,1,0,0:0:0:0:
240,176,31764,1,0,0:0:0:0:
256,176,31890,2,0,L|336:176,1,64.1349987277909,8|0,0:0|0:0,0:0:0:0:
400,176,32394,1,2,0:0:0:0:
400,176,33402,5,2,0:0:0:0:
400,256,33655,1,0,0:0:0:0:
400,336,33907,2,0,L|320:336,1,64.1349987277909,8|0,0:0|0:0,0:0:0:0:
256,336,34411,1,2,0:0:0:0:
240,336,34537,1,0,0:0:0:0:
224,336,34663,1,0,0:0:0:0:
208,336,34789,1,0,0:0:0:0:
192,336,34916,2,0,L|128:336,1,64.1349987277909,8|0,0:0|0:0,0:0:0:0:
48,336,35419,5,2,0:0:0:0:
48,256,35671,1,0,0:0:0:0:
48,176,35923,1,8,0:0:0:0:
128,176,36176,1,0,0:0:0:0:
208,176,36428,2,0,L|288:176,2,64.1349987277909,2|0|8,0:0|0:0|0:0,0:0:0:0:
208,96,37184,5,8,0:0:0:0:
208,80,37310,1,8,0:0:0:0:
208,64,37436,2,0,L|288:64,1,64.1349987277909,2|0,0:0|0:0,0:0:0:0:
352,64,37940,2,0,L|464:64,1,96.2024980916863,8|0,0:0|0:0,0:0:0:0:
448,96,38444,2,0,L|448:160,1,64.1349987277909,2|0,0:0|0:0,0:0:0:0:
448,192,38823,2,0,L|368:192,1,64.1349987277909
352,192,39201,1,0,0:0:0:0:
272,192,39453,5,2,0:0:0:0:
272,176,39579,1,0,0:0:0:0:
272,160,39705,1,0,0:0:0:0:
272,144,39831,1,0,0:0:0:0:
272,128,39958,2,0,L|272:64,1,64.1349987277909,8|0,0:0|0:0,0:0:0:0:
192,64,40461,2,0,L|192:144,1,64.1349987277909,2|0,0:0|0:0,0:0:0:0:
192,208,40965,1,8,0:0:0:0:
112,208,41218,5,8,0:0:0:0:
112,224,41344,1,8,0:0:0:0:
112,240,41470,2,0,L|112:304,1,64.1349987277909,2|0,0:0|0:0,0:0:0:0:
192,304,41974,2,0,L|256:304,1,64.1349987277909,8|0,0:0|0:0,0:0:0:0:
336,304,42478,2,0,L|336:240,1,64.1349987277909,2|0,0:0|0:0,0:0:0:0:
336,208,42856,2,0,L|400:208,1,64.1349987277909
432,208,43234,1,0,0:0:0:0:
432,128,43486,5,2,0:0:0:0:
416,128,43612,1,0,0:0:0:0:
400,128,43738,1,0,0:0:0:0:
384,128,43864,1,0,0:0:0:0:
368,128,43991,2,0,L|304:128,1,64.1349987277909,8|0,0:0|0:0,0:0:0:0:
224,128,44495,2,0,L|144:128,1,64.1349987277909,2|0,0:0|0:0,0:0:0:0:
128,128,44873,2,0,L|128:16,1,96.2024980916863
208,32,45503,5,2,0:0:0:0:
288,32,45755,1,0,0:0:0:0:
368,32,46007,1,8,0:0:0:0:
448,32,46260,1,0,0:0:0:0:
448,112,46512,2,0,L|448:176,1,64.1349987277909,2|0,0:0|0:0,0:0:0:0:
368,176,47016,2,0,L|368:256,1,64.1349987277909,8|0,0:0|0:0,0:0:0:0:
288,240,47520,5,2,0:0:0:0:
272,240,47646,1,0,0:0:0:0:
256,240,47772,1,0,0:0:0:0:
240,240,47898,1,0,0:0:0:0:
224,240,48024,2,0,L|144:240,1,64.1349987277909,8|0,0:0|0:0,0:0:0:0:
160,160,48528,1,2,0:0:0:0:
224,48,57604,6,0,L|368:48,1,128.269997455582,2|8,0:0|0:0,0:0:0:0:
432,48,58360,1,0,0:0:0:0:
432,128,58612,2,0,L|432:256,1,128.269997455582,2|8,0:0|0:0,0:0:0:0:
352,256,59369,1,0,0:0:0:0:
272,256,59621,1,2,0:0:0:0:
112,256,60125,2,0,L|112:336,2,64.1349987277909,8|0|2,0:0|0:0|0:0,0:0:0:0:
112,112,61134,2,0,L|112:48,1,64.1349987277909,8|0,0:0|0:0,0:0:0:0:
192,48,61638,6,0,L|192:192,1,128.269997455582,2|8,0:0|0:0,0:0:0:0:
272,176,62394,1,0,0:0:0:0:
272,255,62646,2,0,L|272:384,1,128.269997455582,2|8,0:0|0:0,0:0:0:0:
352,384,63402,1,0,0:0:0:0:
352,304,63655,1,2,0:0:0:0:
512,304,64159,1,8,0:0:0:0:
512,224,64411,1,0,0:0:0:0:
432,224,64663,1,2,0:0:0:0:
432,64,65167,6,2,L|336:64,1,95.2500036334993,2|0,0:1|0:1,0:1:0:0:
256,64,65671,6,0,L|256:144,1,64.1349987277909,2|0,0:0|0:0,0:0:0:0:
256,208,66176,2,0,L|176:208,1,64.1349987277909,8|0,0:0|0:0,0:0:0:0:
112,208,66680,1,2,0:0:0:0:
112,225,66806,1,0,0:0:0:0:
112,240,66932,2,0,L|112:304,1,64.1349987277909,0|8,0:0|0:0,0:0:0:0:
192,304,67436,5,0,0:0:0:0:
209,304,67562,1,0,0:0:0:0:
224,304,67688,2,0,L|288:304,1,64.1349987277909,2|0,0:0|0:0,0:0:0:0:
368,304,68192,1,8,0:0:0:0:
448,304,68444,1,0,0:0:0:0:
448,224,68697,1,2,0:0:0:0:
448,207,68823,1,0,0:0:0:0:
448,192,68949,1,0,0:0:0:0:
368,192,69201,2,0,L|272:192,1,96.2024980916863,8|8,0:0|0:0,0:0:0:0:
240,192,69705,6,0,L|240:128,1,64.1349987277909,2|0,0:0|0:0,0:0:0:0:
240,48,70209,2,0,L|160:48,1,64.1349987277909,8|0,0:0|0:0,0:0:0:0:
96,48,70713,2,0,L|96:128,1,64.1349987277909,2|0,0:0|0:0,0:0:0:0:
96,144,71091,2,0,L|32:144,1,64.1349987277909
0,144,71470,1,0,0:0:0:0:
0,224,71722,5,2,0:0:0:0:
16,224,71848,1,0,0:0:0:0:
32,224,71974,1,0,0:0:0:0:
48,224,72100,1,0,0:0:0:0:
64,224,72226,2,0,L|128:224,1,64.1349987277909,8|0,0:0|0:0,0:0:0:0:
208,224,72730,2,0,L|208:304,1,64.1349987277909,2|0,0:0|0:0,0:0:0:0:
240,288,73108,1,0,0:0:0:0:
272,288,73234,2,0,L|336:288,1,64.1349987277909,8|8,0:0|0:0,0:0:0:0:
336,208,73739,5,2,0:0:0:0:
416,208,73991,1,0,0:0:0:0:
416,128,74243,1,8,0:0:0:0:
336,128,74495,1,0,0:0:0:0:
256,128,74747,2,0,L|256:48,1,64.1349987277909,2|0,0:0|0:0,0:0:0:0:
256,32,75125,1,0,0:0:0:0:
256,0,75251,2,0,L|320:0,1,64.1349987277909,8|0,0:0|0:0,0:0:0:0:
400,0,75755,5,2,0:0:0:0:
400,16,75881,1,0,0:0:0:0:
400,32,76007,1,0,0:0:0:0:
400,48,76133,1,0,0:0:0:0:
400,64,76259,2,0,L|400:128,1,64.1349987277909,8|0,0:0|0:0,0:0:0:0:
400,208,76764,1,2,0:0:0:0:
320,208,77016,1,0,0:0:0:0:
304,208,77142,1,0,0:0:0:0:
288,208,77268,2,0,L|208:208,1,64.1349987277909,8|0,0:0|0:0,0:0:0:0:
224,128,77772,5,2,0:0:0:0:
144,128,78024,1,0,0:0:0:0:
64,128,78276,1,8,0:0:0:0:
64,208,78528,1,0,0:0:0:0:
64,288,78781,1,2,0:0:0:0:
144,288,79033,1,0,0:0:0:0:
160,288,79159,1,0,0:0:0:0:
176,288,79285,2,0,L|256:288,1,64.1349987277909,8|0,0:0|0:0,0:0:0:0:
240,208,79789,5,2,0:0:0:0:
240,192,79915,1,0,0:0:0:0:
240,176,80041,1,0,0:0:0:0:
240,160,80167,1,0,0:0:0:0:
240,144,80293,2,0,L|240:80,1,64.1349987277909,8|0,0:0|0:0,0:0:0:0:
240,0,80797,1,2,0:0:0:0:
