osu file format v14

[General]
AudioFilename: ievan polkka.mp3
AudioLeadIn: 0
PreviewTime: 17016
Countdown: 0
SampleSet: Soft
StackLeniency: 0
Mode: 0
LetterboxInBreaks: 0
WidescreenStoryboard: 0

[Editor]
Bookmarks: 9201,17268,33402,49537,57604,81806
DistanceSpacing: 2
BeatDivisor: 4
GridSize: 4
TimelineZoom: 1.7

[Metadata]
Title:Ievan Polkka
TitleUnicode:Ievan Polkka
Artist:Otomania
ArtistUnicode:Otomania
Creator:Sinnoh
Version:Expert
Source:初音ミク -Project DIVA-
Tags:vocaloid hatsune hachune miku levan finnish finland Project Diva polka
BeatmapID:1483732
BeatmapSetID:700945

[Difficulty]
HPDrainRate:6
CircleSize:6
OverallDifficulty:8
ApproachRate:8
SliderMultiplier:1.4
SliderTickRate:1

[Events]
//Background and Video events
0,0,"hachune.jpg",0,0
//Break Periods
2,49537,56854
//Storyboard Layer 0 (Background)
//Storyboard Layer 1 (Fail)
//Storyboard Layer 2 (Pass)
//Storyboard Layer 3 (Foreground)
//Storyboard Sound Samples

[TimingPoints]
1134,504.201680672269,4,2,0,100,1,0
65167,-33.3333333333333,4,2,0,100,0,0
65671,-100,4,2,0,100,0,0

[Colours]
Combo1 : 0,228,228
Combo2 : 211,211,0
Combo3 : 0,128,128
Combo4 : 57,156,255

[HitObjects]
184,52,9201,6,0,L|184:196,2,140,2|8|2,0:0|0:0|0:0,0:0:0:0:
184,192,10713,1,8,0:0:0:0:
184,52,10965,1,0,0:0:0:0:
328,52,11218,6,0,L|328:196,2,140,2|8|2,0:0|0:0|0:0,0:0:0:0:
328,192,12730,1,8,0:0:0:0:
328,52,12982,1,0,0:0:0:0:
328,52,13108,1,8,0:0:0:0:
256,52,13234,6,0,L|256:212,2,140,2|8|2,0:0|0:0|0:0,0:0:0:0:
256,192,14747,1,8,0:0:0:0:
256,52,14999,1,0,0:0:0:0:
256,192,15251,6,0,L|256:52,1,140,2|8,0:0|0:0,0:0:0:0:
256,192,16007,1,0,0:0:0:0:
256,192,16260,1,2,0:0:0:0:
256,192,17142,5,0,0:0:0:0:
256,264,17268,1,2,0:0:0:0:
256,120,17520,1,0,0:0:0:0:
112,120,17772,1,8,0:0:0:0:
328,120,18150,5,0,0:0:0:0:
328,192,18276,1,2,0:0:0:0:
328,192,18402,1,0,0:0:0:0:
328,264,18529,1,0,0:0:0:0:
328,264,18655,1,0,0:0:0:0:
256,264,18781,1,8,0:0:0:0:
400,332,19033,5,0,0:0:0:0:
400,264,19159,1,0,0:0:0:0:
400,192,19285,1,2,0:0:0:0:
256,192,19537,1,0,0:0:0:0:
256,48,19789,1,8,0:0:0:0:
256,192,20041,1,0,0:0:0:0:
256,336,20293,1,2,0:0:0:0:
256,192,20545,1,0,0:0:0:0:
112,192,20797,1,8,0:0:0:0:
256,192,21050,5,8,0:0:0:0:
256,116,21176,1,8,0:0:0:0:
184,116,21302,1,2,0:0:0:0:
256,272,21554,1,0,0:0:0:0:
328,116,21806,1,8,0:0:0:0:
328,116,22184,5,0,0:0:0:0:
328,32,22310,1,2,0:0:0:0:
184,32,22562,1,0,0:0:0:0:
184,116,22688,1,0,0:0:0:0:
256,240,22940,5,0,0:0:0:0:
328,240,23066,1,0,0:0:0:0:
328,240,23192,1,0,0:0:0:0:
184,240,23318,5,2,0:0:0:0:
184,240,23444,1,0,0:0:0:0:
184,384,23570,5,0,0:0:0:0:
184,384,23696,1,0,0:0:0:0:
328,384,23823,5,8,0:0:0:0:
328,384,23949,1,0,0:0:0:0:
256,312,24075,5,0,0:0:0:0:
400,312,24327,1,2,0:0:0:0:
400,172,24579,1,0,0:0:0:0:
256,172,24831,1,8,0:0:0:0:
112,172,25083,5,8,0:0:0:0:
184,172,25209,1,8,0:0:0:0:
112,100,25335,1,2,0:0:0:0:
256,100,25587,1,0,0:0:0:0:
400,240,25839,1,8,0:0:0:0:
256,240,26091,1,0,0:0:0:0:
400,100,26344,1,2,0:0:0:0:
255,16,26596,1,0,0:0:0:0:
184,16,26722,1,0,0:0:0:0:
256,136,26974,5,0,0:0:0:0:
328,136,27100,1,0,0:0:0:0:
328,136,27226,1,0,0:0:0:0:
328,216,27352,5,2,0:0:0:0:
328,216,27478,1,0,0:0:0:0:
328,296,27604,1,0,0:0:0:0:
328,296,27730,1,0,0:0:0:0:
256,296,27856,1,8,0:0:0:0:
256,296,27982,1,0,0:0:0:0:
256,216,28108,1,0,0:0:0:0:
256,216,28234,1,0,0:0:0:0:
256,136,28360,5,2,0:0:0:0:
256,296,28612,1,0,0:0:0:0:
256,296,28738,1,0,0:0:0:0:
112,52,29243,5,8,0:0:0:0:
184,52,29369,1,2,0:0:0:0:
328,52,29621,1,0,0:0:0:0:
328,192,29873,1,8,0:0:0:0:
184,192,30125,1,0,0:0:0:0:
184,52,30377,1,2,0:0:0:0:
328,52,30629,1,0,0:0:0:0:
328,192,30881,1,8,0:0:0:0:
328,52,31134,5,0,0:0:0:0:
328,52,31260,1,0,0:0:0:0:
400,122,31386,5,2,0:0:0:0:
400,122,31512,1,0,0:0:0:0:
328,192,31638,5,0,0:0:0:0:
328,192,31764,1,0,0:0:0:0:
256,122,31890,5,8,0:0:0:0:
400,122,32142,1,0,0:0:0:0:
256,44,32394,5,2,0:0:0:0:
256,192,32646,1,0,0:0:0:0:
256,192,32772,1,0,0:0:0:0:
256,192,33276,5,0,0:0:0:0:
256,124,33402,1,2,0:0:0:0:
328,264,33654,1,0,0:0:0:0:
184,264,33907,1,8,0:0:0:0:
400,192,34285,5,0,0:0:0:0:
328,192,34411,1,2,0:0:0:0:
328,192,34537,1,0,0:0:0:0:
256,192,34663,1,0,0:0:0:0:
256,192,34789,1,0,0:0:0:0:
184,192,34915,1,8,0:0:0:0:
184,36,35167,5,0,0:0:0:0:
256,36,35293,1,0,0:0:0:0:
328,36,35419,1,2,0:0:0:0:
184,112,35671,1,0,0:0:0:0:
328,112,35923,1,8,0:0:0:0:
184,112,36175,1,0,0:0:0:0:
184,268,36428,1,2,0:0:0:0:
328,268,36680,1,0,0:0:0:0:
256,200,36932,1,8,0:0:0:0:
256,340,37184,5,8,0:0:0:0:
184,340,37310,1,8,0:0:0:0:
184,268,37436,1,2,0:0:0:0:
328,184,37688,1,0,0:0:0:0:
184,100,37940,1,8,0:0:0:0:
184,100,38318,5,0,0:0:0:0:
184,184,38444,1,2,0:0:0:0:
328,184,38697,1,0,0:0:0:0:
328,100,38823,1,0,0:0:0:0:
256,192,39075,5,0,0:0:0:0:
256,264,39201,1,0,0:0:0:0:
256,264,39327,1,0,0:0:0:0:
256,121,39453,5,2,0:0:0:0:
256,121,39579,1,0,0:0:0:0:
400,120,39705,5,0,0:0:0:0:
400,120,39831,1,0,0:0:0:0:
400,264,39957,5,8,0:0:0:0:
400,264,40083,1,0,0:0:0:0:
328,192,40209,5,0,0:0:0:0:
328,332,40461,1,2,0:0:0:0:
184,332,40713,1,0,0:0:0:0:
256,192,40965,1,8,0:0:0:0:
256,52,41218,5,8,0:0:0:0:
256,120,41344,1,8,0:0:0:0:
328,52,41470,1,2,0:0:0:0:
328,192,41722,1,0,0:0:0:0:
184,332,41974,1,8,0:0:0:0:
184,192,42226,1,0,0:0:0:0:
328,332,42478,1,2,0:0:0:0:
256,192,42730,1,0,0:0:0:0:
256,264,42856,1,0,0:0:0:0:
184,120,43108,5,0,0:0:0:0:
256,120,43234,1,0,0:0:0:0:
256,120,43360,1,0,0:0:0:0:
256,45,43486,5,2,0:0:0:0:
256,45,43612,1,0,0:0:0:0:
328,120,43739,1,0,0:0:0:0:
328,120,43865,1,0,0:0:0:0:
256,192,43991,1,8,0:0:0:0:
256,192,44117,1,0,0:0:0:0:
184,120,44243,1,0,0:0:0:0:
184,120,44369,1,0,0:0:0:0:
256,120,44495,5,2,0:0:0:0:
256,264,44747,1,0,0:0:0:0:
184,264,44873,1,0,0:0:0:0:
328,52,45377,5,8,0:0:0:0:
328,120,45503,1,2,0:0:0:0:
328,264,45755,1,0,0:0:0:0:
184,264,46007,1,8,0:0:0:0:
184,120,46260,1,0,0:0:0:0:
328,120,46512,1,2,0:0:0:0:
328,264,46764,1,0,0:0:0:0:
184,264,47016,1,8,0:0:0:0:
328,264,47268,5,0,0:0:0:0:
328,264,47394,1,0,0:0:0:0:
256,192,47520,5,2,0:0:0:0:
256,192,47646,1,0,0:0:0:0:
184,120,47772,5,0,0:0:0:0:
184,120,47898,1,0,0:0:0:0:
112,48,48024,5,8,0:0:0:0:
112,192,48276,1,0,0:0:0:0:
256,48,48528,1,2,0:0:0:0:
256,192,48781,1,0,0:0:0:0:
256,192,48907,1,0,0:0:0:0:
400,52,57604,6,0,L|400:192,1,140,2|8,0:0|0:0,0:0:0:0:
256,192,58360,1,0,0:0:0:0:
400,192,58612,2,0,L|400:332,1,140,2|8,0:0|0:0,0:0:0:0:
256,332,59369,1,0,0:0:0:0:
112,332,59621,6,0,L|112:192,1,140,2|8,0:0|0:0,0:0:0:0:
256,192,60377,1,0,0:0:0:0:
112,192,60629,2,0,L|112:52,1,140,2|8,0:0|0:0,0:0:0:0:
256,52,61386,1,0,0:0:0:0:
256,52,61512,1,8,0:0:0:0:
256,120,61638,6,0,L|256:268,1,140,2|8,0:0|0:0,0:0:0:0:
256,120,62394,1,0,0:0:0:0:
256,260,62646,2,0,L|256:120,1,140,2|8,0:0|0:0,0:0:0:0:
256,260,63402,1,0,0:0:0:0:
256,120,63655,5,2,0:0:0:0:
256,120,64159,1,8,0:0:0:0:
256,120,64663,1,2,0:0:0:0:
399,20,65167,6,2,B|256:20|256:20|256:120|256:120|184:120,1,315.000012016297,2|0,0:1|0:0,0:1:0:0:
184,120,65671,6,0,L|184:208,1,70,2|0,0:0|0:0,0:0:0:0:
328,192,66175,2,0,L|328:280,1,70,8|0,0:0|0:0,0:0:0:0:
256,264,66554,1,0,0:0:0:0:
184,264,66680,2,0,L|184:324,2,35,2|0|0,0:0|0:0|0:0,0:0:0:0:
256,144,67184,2,0,L|256:52,1,70,8|0,0:0|0:0,0:0:0:0:
328,72,67562,1,0,0:0:0:0:
400,72,67688,5,2,0:0:0:0:
400,212,67940,1,0,0:0:0:0:
256,212,68192,1,8,0:0:0:0:
112,212,68444,1,0,0:0:0:0:
256,212,68697,2,0,L|256:272,2,35,2|0|0,0:0|0:0|0:0,0:0:0:0:
256,352,69201,2,0,L|256:240,1,105,8|8,0:0|0:0,0:0:0:0:
256,176,69705,6,0,L|256:104,1,70,2|0,0:0|0:0,0:0:0:0:
112,106,70209,2,0,L|112:178,1,70,8|0,0:0|0:0,0:0:0:0:
112,244,70587,1,0,0:0:0:0:
112,312,70713,1,2,0:0:0:0:
256,356,70965,1,0,0:0:0:0:
256,288,71091,2,0,L|256:200,1,70
256,144,71470,5,0,0:0:0:0:
256,144,71596,1,0,0:0:0:0:
184,72,71722,1,2,0:0:0:0:
184,72,71848,1,0,0:0:0:0:
112,144,71974,1,0,0:0:0:0:
112,144,72100,1,0,0:0:0:0:
184,216,72226,1,8,0:0:0:0:
184,216,72352,1,0,0:0:0:0:
256,144,72478,1,0,0:0:0:0:
256,144,72604,1,0,0:0:0:0:
184,72,72730,6,0,L|184:2,1,70,2|0,0:0|0:0,0:0:0:0:
256,4,73108,1,0,0:0:0:0:
256,74,73234,2,0,L|256:144,1,70,8|0,0:0|0:0,0:0:0:0:
328,76,73612,5,8,0:0:0:0:
256,144,73739,1,2,0:0:0:0:
256,284,73991,1,0,0:0:0:0:
400,284,74243,1,8,0:0:0:0:
400,144,74495,1,0,0:0:0:0:
400,284,74747,2,0,L|400:214,1,70,2|0,0:0|0:0,0:0:0:0:
328,214,75125,1,0,0:0:0:0:
328,144,75251,2,0,L|328:74,1,70,8|0,0:0|0:0,0:0:0:0:
256,74,75629,1,0,0:0:0:0:
328,4,75755,5,2,0:0:0:0:
328,4,75881,1,0,0:0:0:0:
400,74,76007,1,0,0:0:0:0:
400,74,76133,1,0,0:0:0:0:
328,144,76260,1,8,0:0:0:0:
328,144,76386,1,0,0:0:0:0:
256,74,76512,1,0,0:0:0:0:
256,74,76638,1,0,0:0:0:0:
256,4,76764,2,0,L|256:88,1,70,2|0,0:0|0:0,0:0:0:0:
256,144,77142,1,0,0:0:0:0:
256,214,77268,2,0,L|256:298,1,70,8|0,0:0|0:0,0:0:0:0:
328,212,77646,5,8,0:0:0:0:
256,144,77772,1,2,0:0:0:0:
112,144,78024,1,0,0:0:0:0:
112,284,78276,1,8,0:0:0:0:
256,284,78528,1,0,0:0:0:0:
112,284,78781,1,2,0:0:0:0:
256,284,79033,1,0,0:0:0:0:
256,354,79159,1,0,0:0:0:0:
328,354,79285,2,0,L|328:284,1,70,8|0,0:0|0:0,0:0:0:0:
328,214,79663,1,0,0:0:0:0:
400,214,79789,5,2,0:0:0:0:
400,214,79915,1,0,0:0:0:0:
328,144,80041,1,0,0:0:0:0:
328,144,80167,1,0,0:0:0:0:
256,214,80293,1,8,0:0:0:0:
256,80,80545,1,0,0:0:0:0:
256,214,80797,1,2,0:0:0:0:
