osu file format v14

[General]
AudioFilename: ievan polkka.mp3
AudioLeadIn: 0
PreviewTime: 17016
Countdown: 0
SampleSet: Soft
StackLeniency: 0.7
Mode: 0
LetterboxInBreaks: 0
WidescreenStoryboard: 1

[Editor]
Bookmarks: 9201,17268,33402,49537,57604,81806
DistanceSpacing: 1.2
BeatDivisor: 4
GridSize: 32
TimelineZoom: 1

[Metadata]
Title:Ievan Polkka
TitleUnicode:Ievan Polkka
Artist:Otomania
ArtistUnicode:Otomania
Creator:Sinnoh
Version:Easy
Source:初音ミク -Project DIVA-
Tags:vocaloid hatsune hachune miku levan finnish finland Project Diva polka
BeatmapID:1483941
BeatmapSetID:700945

[Difficulty]
HPDrainRate:2
CircleSize:2
OverallDifficulty:3
ApproachRate:3
SliderMultiplier:1.27
SliderTickRate:1

[Events]
//Background and Video events
0,0,"hachune.jpg",0,0
//Break Periods
2,49537,56164
//Storyboard Layer 0 (Background)
//Storyboard Layer 1 (Fail)
//Storyboard Layer 2 (Pass)
//Storyboard Layer 3 (Foreground)
//Storyboard Sound Samples

[TimingPoints]
1134,504.201680672269,4,2,0,100,1,0
9201,-99.009900990099,4,2,0,100,0,0

[Colours]
Combo1 : 0,228,228
Combo2 : 211,211,0
Combo3 : 0,128,128
Combo4 : 57,156,255

[HitObjects]
128,192,9201,6,0,L|128:64,2,128.269997455582,2|8|2,0:0|0:0|0:0,0:0:0:0:
256,192,10713,1,8,0:0:0:0:
384,192,11218,2,0,L|384:320,2,128.269997455582,2|8|2,0:0|0:0|0:0,0:0:0:0:
256,192,12730,2,0,L|256:256,1,64.1349987277909,8|0,0:0|0:0,0:0:0:0:
256,320,13234,6,0,L|128:320,2,128.269997455582,2|8|2,0:0|0:0|0:0,0:0:0:0:
256,192,14747,1,8,0:0:0:0:
256,64,15251,2,0,L|384:64,2,128.269997455582,2|8|2,0:0|0:0|0:0,0:0:0:0:
256,320,17268,5,2,0:0:0:0:
128,320,17772,1,8,0:0:0:0:
128,192,18276,2,0,L|128:128,2,64.1349987277909,2|0|8,0:0|0:0|0:0,0:0:0:0:
256,192,19285,2,0,L|384:192,1,128.269997455582,2|8,0:0|0:0,0:0:0:0:
384,64,20293,2,0,L|320:64,1,64.1349987277909,2|0,0:0|0:0,0:0:0:0:
256,64,20797,1,8,0:0:0:0:
256,192,21302,5,2,0:0:0:0:
256,320,21806,1,8,0:0:0:0:
384,320,22310,2,0,L|384:192,1,128.269997455582,2|8,0:0|0:0,0:0:0:0:
384,64,23318,2,0,L|448:64,2,64.1349987277909,2|0|8,0:0|0:0|0:0,0:0:0:0:
256,64,24327,2,0,L|192:64,2,64.1349987277909,2|0|8,0:0|0:0|0:0,0:0:0:0:
256,192,25335,5,2,0:0:0:0:
256,320,25839,1,8,0:0:0:0:
128,320,26344,2,0,L|0:320,1,128.269997455582,2|8,0:0|0:0,0:0:0:0:
0,192,27352,2,0,L|0:128,1,64.1349987277909,2|0,0:0|0:0,0:0:0:0:
0,64,27856,1,8,0:0:0:0:
128,64,28360,2,0,L|128:192,1,128.269997455582,2|8,0:0|0:0,0:0:0:0:
256,192,29369,5,2,0:0:0:0:
256,64,29873,1,8,0:0:0:0:
384,64,30377,2,0,L|448:64,2,64.1349987277909,2|0|8,0:0|0:0|0:0,0:0:0:0:
384,192,31386,2,0,L|320:192,1,64.1349987277909,2|0,0:0|0:0,0:0:0:0:
256,192,31890,1,8,0:0:0:0:
256,320,32394,1,2,0:0:0:0:
256,64,33402,5,2,0:0:0:0:
384,64,33907,1,8,0:0:0:0:
512,64,34411,2,0,L|512:128,2,64.1349987277909,2|0|8,0:0|0:0|0:0,0:0:0:0:
384,64,35419,2,0,L|384:192,1,128.269997455582,2|8,0:0|0:0,0:0:0:0:
384,320,36428,2,0,L|448:320,2,64.1349987277909,2|0|8,0:0|0:0|0:0,0:0:0:0:
256,320,37436,5,2,0:0:0:0:
128,320,37940,1,8,0:0:0:0:
128,192,38444,2,0,L|128:64,1,128.269997455582,2|8,0:0|0:0,0:0:0:0:
256,64,39453,2,0,L|320:64,2,64.1349987277909,2|0|8,0:0|0:0|0:0,0:0:0:0:
256,192,40461,2,0,L|256:256,2,64.1349987277909,2|0|8,0:0|0:0|0:0,0:0:0:0:
384,192,41470,5,2,0:0:0:0:
512,192,41974,1,8,0:0:0:0:
512,320,42478,2,0,L|384:320,1,128.269997455582,2|8,0:0|0:0,0:0:0:0:
256,320,43486,2,0,L|256:256,1,64.1349987277909,2|0,0:0|0:0,0:0:0:0:
256,192,43991,1,8,0:0:0:0:
128,192,44495,2,0,L|0:192,1,128.269997455582,2|8,0:0|0:0,0:0:0:0:
0,320,45503,5,2,0:0:0:0:
128,320,46007,1,8,0:0:0:0:
128,192,46512,2,0,L|128:128,2,64.1349987277909,2|0|8,0:0|0:0|0:0,0:0:0:0:
256,192,47520,2,0,L|256:128,1,64.1349987277909,2|0,0:0|0:0,0:0:0:0:
256,64,48024,1,8,0:0:0:0:
384,64,48528,1,2,0:0:0:0:
256,192,57604,6,0,L|384:192,2,128.269997455582,2|8|2,0:0|0:0|0:0,0:0:0:0:
256,320,59117,1,8,0:0:0:0:
128,320,59621,2,0,L|0:320,1,128.269997455582,2|8,0:0|0:0,0:0:0:0:
0,192,60629,2,0,L|128:192,1,128.269997455582,2|8,0:0|0:0,0:0:0:0:
128,64,61638,6,0,L|0:64,2,128.269997455582,2|8|2,0:0|0:0|0:0,0:0:0:0:
256,64,63150,1,8,0:0:0:0:
384,64,63655,1,0,0:0:0:0:
384,192,64159,2,0,L|448:192,2,64.1349987277909,8|0|2,0:0|0:0|0:0,0:0:0:0:
384,320,65167,2,2,B|340:326|320:320|320:320,1,64.1349987277909,2|0,0:1|0:1,0:1:0:0:
256,320,65671,6,0,L|128:320,1,128.269997455582,2|8,0:0|0:0,0:0:0:0:
128,192,66680,2,0,L|128:128,2,64.1349987277909,2|0|8,0:0|0:0|0:0,0:0:0:0:
256,192,67688,1,2,0:0:0:0:
256,64,68192,1,8,0:0:0:0:
384,64,68697,2,0,L|448:64,2,64.1349987277909,2|0|8,0:0|0:0|0:0,0:0:0:0:
384,192,69705,5,2,0:0:0:0:
384,320,70209,1,8,0:0:0:0:
256,320,70713,2,0,L|256:192,1,128.269997455582,2|8,0:0|0:0,0:0:0:0:
128,192,71722,1,2,0:0:0:0:
128,320,72226,1,8,0:0:0:0:
0,320,72730,2,0,L|0:192,1,128.269997455582,2|8,0:0|0:0,0:0:0:0:
0,64,73738,5,2,0:0:0:0:
128,64,74243,1,8,0:0:0:0:
256,64,74747,2,0,L|320:64,2,64.1349987277909,2|0|8,0:0|0:0|0:0,0:0:0:0:
256,192,75755,1,2,0:0:0:0:
384,192,76260,1,8,0:0:0:0:
512,192,76764,2,0,L|512:64,1,128.269997455582,2|8,0:0|0:0,0:0:0:0:
384,64,77772,5,2,0:0:0:0:
256,64,78276,1,8,0:0:0:0:
256,192,78781,2,0,L|128:192,1,128.269997455582,2|8,0:0|0:0,0:0:0:0:
128,320,79789,1,2,0:0:0:0:
256,320,80293,1,8,0:0:0:0:
256,192,80797,1,2,0:0:0:0:
