osu file format v13

[General]
AudioFilename: Ame Michi.mp3
AudioLeadIn: 0
PreviewTime: 70853
Countdown: 0
SampleSet: Soft
StackLeniency: 0.7
Mode: 3
LetterboxInBreaks: 0
SpecialStyle: 0
WidescreenStoryboard: 1

[Editor]
DistanceSpacing: 0.9
BeatDivisor: 4
GridSize: 4
TimelineZoom: 1.4

[Metadata]
Title:amamichi
TitleUnicode:雨道 -amamichi-
Artist:Otokaze
ArtistUnicode:Otokaze
Creator:Simple_Star
Version:4K Hyper
Source:
Tags:richardfeder Arrival Rain road
BeatmapID:321664
BeatmapSetID:126508

[Difficulty]
HPDrainRate:7
CircleSize:4
OverallDifficulty:7
ApproachRate:5
SliderMultiplier:1.4
SliderTickRate:1

[Events]
//Background and Video events
0,0,"nbhc.jpg",0,0
//Break Periods
//Storyboard Layer 0 (Background)
//Storyboard Layer 1 (Fail)
//Storyboard Layer 2 (Pass)
//Storyboard Layer 3 (Foreground)
//Storyboard Sound Samples
//Background Colour Transformations
3,100,163,162,255

[TimingPoints]
117,631.578947368421,4,2,0,40,1,0
10222,-100,4,2,0,40,0,1
30432,-100,4,2,0,40,0,0
70853,-100,4,2,0,40,0,1
121380,-100,4,2,0,40,0,0

[HitObjects]
64,192,117,5,0,0:0:0:0:
448,192,117,1,0,0:0:0:0:
192,192,432,1,0,0:0:0:0:
320,192,590,1,0,0:0:0:0:
64,192,748,1,0,0:0:0:0:
320,192,1064,1,0,0:0:0:0:
64,192,1380,1,0,0:0:0:0:
448,192,1380,1,0,0:0:0:0:
192,192,1538,1,0,0:0:0:0:
320,192,1695,1,0,0:0:0:0:
64,192,1853,1,0,0:0:0:0:
192,192,2011,1,0,0:0:0:0:
448,192,2011,1,0,0:0:0:0:
320,192,2169,1,0,0:0:0:0:
64,192,2327,1,0,0:0:0:0:
192,192,2485,1,0,0:0:0:0:
448,192,2643,1,0,0:0:0:0:
320,192,2643,1,0,0:0:0:0:
64,192,2959,1,0,0:0:0:0:
192,192,3274,1,0,0:0:0:0:
448,192,3274,1,0,0:0:0:0:
320,192,3590,1,0,0:0:0:0:
64,192,3906,1,0,0:0:0:0:
192,192,3906,1,0,0:0:0:0:
192,192,4222,1,0,0:0:0:0:
320,192,4538,1,0,0:0:0:0:
448,192,4853,1,0,0:0:0:0:
64,192,5169,1,0,0:0:0:0:
320,192,5169,1,0,0:0:0:0:
192,192,5485,1,0,0:0:0:0:
64,192,5643,1,0,0:0:0:0:
320,192,5801,1,0,0:0:0:0:
192,192,6117,1,0,0:0:0:0:
64,192,6432,1,0,0:0:0:0:
448,192,6432,1,0,0:0:0:0:
320,192,6590,1,0,0:0:0:0:
192,192,6748,1,0,0:0:0:0:
448,192,6906,1,0,0:0:0:0:
320,192,7064,1,0,0:0:0:0:
64,192,7064,1,0,0:0:0:0:
192,192,7222,1,0,0:0:0:0:
448,192,7380,1,0,0:0:0:0:
320,192,7538,1,0,0:0:0:0:
192,192,7695,1,0,0:0:0:0:
64,192,7695,1,0,0:0:0:0:
448,192,8011,1,0,0:0:0:0:
320,192,8327,1,0,0:0:0:0:
448,192,8327,1,0,0:0:0:0:
64,192,8643,1,0,0:0:0:0:
192,192,8959,1,0,0:0:0:0:
448,192,8959,1,0,0:0:0:0:
320,192,9274,1,0,0:0:0:0:
64,192,9590,1,0,0:0:0:0:
448,192,9906,1,0,0:0:0:0:
64,192,10222,1,0,0:0:0:0:
192,192,10222,1,0,0:0:0:0:
320,192,10380,1,0,0:0:0:0:
448,192,10538,1,0,0:0:0:0:
320,192,10695,1,0,0:0:0:0:
64,192,10853,1,8,0:0:0:0:
448,192,10853,1,0,0:0:0:0:
192,192,11011,1,0,0:0:0:0:
320,192,11169,1,0,0:0:0:0:
64,192,11169,1,0,0:0:0:0:
448,192,11485,1,0,0:0:0:0:
64,192,11643,1,0,0:0:0:0:
320,192,11643,1,0,0:0:0:0:
192,192,11801,1,0,0:0:0:0:
448,192,11801,1,0,0:0:0:0:
64,192,11959,1,0,0:0:0:0:
320,192,12116,1,8,0:0:0:0:
448,192,12116,1,0,0:0:0:0:
192,192,12274,1,0,0:0:0:0:
320,192,12432,1,0,0:0:0:0:
64,192,12590,1,0,0:0:0:0:
192,192,12748,1,0,0:0:0:0:
448,192,12748,1,0,0:0:0:0:
320,192,13064,1,0,0:0:0:0:
64,192,13222,1,0,0:0:0:0:
192,192,13222,1,0,0:0:0:0:
320,192,13380,1,8,0:0:0:0:
448,192,13380,1,0,0:0:0:0:
192,192,13695,1,0,0:0:0:0:
64,192,14011,1,0,0:0:0:0:
448,192,14169,1,0,0:0:0:0:
192,192,14169,1,0,0:0:0:0:
320,192,14327,1,0,0:0:0:0:
64,192,14327,1,0,0:0:0:0:
64,192,14643,1,8,0:0:0:0:
448,192,14643,1,0,0:0:0:0:
192,192,14959,1,0,0:0:0:0:
448,192,14959,1,0,0:0:0:0:
64,192,15274,1,0,0:0:0:0:
448,192,15274,1,0,0:0:0:0:
320,192,15432,1,0,0:0:0:0:
448,192,15590,1,0,0:0:0:0:
192,192,15748,1,0,0:0:0:0:
320,192,15906,1,8,0:0:0:0:
64,192,15906,1,0,0:0:0:0:
448,192,16064,1,0,0:0:0:0:
192,192,16222,1,0,0:0:0:0:
64,192,16222,1,0,0:0:0:0:
64,192,16538,1,0,0:0:0:0:
448,192,16695,1,0,0:0:0:0:
320,192,16695,1,0,0:0:0:0:
64,192,16853,1,0,0:0:0:0:
192,192,16853,1,0,0:0:0:0:
320,192,17011,1,0,0:0:0:0:
448,192,17169,1,8,0:0:0:0:
192,192,17169,1,0,0:0:0:0:
64,192,17327,1,0,0:0:0:0:
320,192,17485,1,0,0:0:0:0:
192,192,17643,1,0,0:0:0:0:
64,192,17801,1,0,0:0:0:0:
448,192,17801,1,0,0:0:0:0:
448,192,18117,1,0,0:0:0:0:
64,192,18274,1,0,0:0:0:0:
192,192,18274,1,0,0:0:0:0:
320,192,18432,1,0,0:0:0:0:
448,192,18432,1,8,0:0:0:0:
64,192,18748,1,0,0:0:0:0:
448,192,18748,1,0,0:0:0:0:
192,192,19064,1,0,0:0:0:0:
64,192,19222,1,0,0:0:0:0:
320,192,19222,1,0,0:0:0:0:
192,192,19380,1,0,0:0:0:0:
448,192,19380,1,0,0:0:0:0:
192,192,19695,1,8,0:0:0:0:
320,192,19695,1,0,0:0:0:0:
64,192,20011,1,0,0:0:0:0:
320,192,20011,1,0,0:0:0:0:
192,192,20327,1,0,0:0:0:0:
448,192,20327,1,0,0:0:0:0:
64,192,20485,1,0,0:0:0:0:
320,192,20643,1,0,0:0:0:0:
192,192,20801,1,0,0:0:0:0:
64,192,20959,1,8,0:0:0:0:
448,192,20959,1,0,0:0:0:0:
320,192,21117,1,0,0:0:0:0:
192,192,21274,1,0,0:0:0:0:
448,192,21274,1,0,0:0:0:0:
64,192,21590,1,0,0:0:0:0:
192,192,21748,1,0,0:0:0:0:
448,192,21748,1,0,0:0:0:0:
64,192,21906,1,0,0:0:0:0:
320,192,21906,1,0,0:0:0:0:
448,192,22064,1,0,0:0:0:0:
64,192,22222,1,0,0:0:0:0:
192,192,22222,1,8,0:0:0:0:
320,192,22380,1,0,0:0:0:0:
192,192,22538,1,0,0:0:0:0:
448,192,22695,1,0,0:0:0:0:
64,192,22853,1,0,0:0:0:0:
320,192,22853,1,0,0:0:0:0:
192,192,23169,1,0,0:0:0:0:
320,192,23327,1,0,0:0:0:0:
448,192,23327,1,0,0:0:0:0:
64,192,23485,1,8,0:0:0:0:
192,192,23485,1,0,0:0:0:0:
192,192,23801,1,0,0:0:0:0:
448,192,23801,1,0,0:0:0:0:
320,192,24117,1,0,0:0:0:0:
64,192,24274,1,0,0:0:0:0:
448,192,24274,1,0,0:0:0:0:
192,192,24432,1,0,0:0:0:0:
320,192,24432,1,0,0:0:0:0:
64,192,24748,1,0,0:0:0:0:
320,192,24748,1,8,0:0:0:0:
448,192,25064,1,0,0:0:0:0:
320,192,25064,1,0,0:0:0:0:
64,192,25380,1,0,0:0:0:0:
192,192,25380,1,0,0:0:0:0:
320,192,25538,1,0,0:0:0:0:
448,192,25695,1,0,0:0:0:0:
192,192,25853,1,0,0:0:0:0:
64,192,26011,1,0,0:0:0:0:
448,192,26011,1,8,0:0:0:0:
320,192,26169,1,0,0:0:0:0:
192,192,26327,1,0,0:0:0:0:
448,192,26327,1,0,0:0:0:0:
64,192,26643,1,0,0:0:0:0:
320,192,26801,1,0,0:0:0:0:
448,192,26801,1,0,0:0:0:0:
64,192,26959,1,0,0:0:0:0:
192,192,26959,1,0,0:0:0:0:
448,192,27117,1,0,0:0:0:0:
64,192,27274,1,0,0:0:0:0:
320,192,27274,1,8,0:0:0:0:
448,192,27432,1,0,0:0:0:0:
192,192,27590,1,0,0:0:0:0:
64,192,27748,1,0,0:0:0:0:
320,192,27906,1,0,0:0:0:0:
448,192,27906,1,0,0:0:0:0:
64,192,28222,1,0,0:0:0:0:
192,192,28380,1,0,0:0:0:0:
448,192,28380,1,0,0:0:0:0:
64,192,28538,1,8,0:0:0:0:
320,192,28538,1,0,0:0:0:0:
192,192,28853,1,0,0:0:0:0:
320,192,28853,1,0,0:0:0:0:
64,192,29169,1,0,0:0:0:0:
320,192,29327,1,0,0:0:0:0:
448,192,29327,1,0,0:0:0:0:
192,192,29485,1,0,0:0:0:0:
64,192,29485,1,0,0:0:0:0:
192,192,29801,1,8,0:0:0:0:
448,192,29801,1,0,0:0:0:0:
64,192,30117,1,0,0:0:0:0:
448,192,30117,1,0,0:0:0:0:
64,192,30432,1,0,0:0:0:0:
320,192,30432,1,0,0:0:0:0:
64,192,31695,1,0,0:0:0:0:
192,192,31853,1,0,0:0:0:0:
448,192,32011,1,0,0:0:0:0:
64,192,32169,1,0,0:0:0:0:
192,192,32327,1,8,0:0:0:0:
448,192,32485,1,0,0:0:0:0:
64,192,32643,1,0,0:0:0:0:
192,192,32801,1,0,0:0:0:0:
448,192,32959,1,0,0:0:0:0:
192,192,33274,1,0,0:0:0:0:
64,192,33590,1,8,0:0:0:0:
192,192,33906,1,0,0:0:0:0:
448,192,34222,1,0,0:0:0:0:
192,192,34538,1,0,0:0:0:0:
64,192,34853,1,8,0:0:0:0:
320,192,35169,1,0,0:0:0:0:
192,192,35485,1,0,0:0:0:0:
448,192,35485,1,0,0:0:0:0:
448,192,36748,1,0,0:0:0:0:
320,192,36906,1,0,0:0:0:0:
64,192,37064,1,0,0:0:0:0:
448,192,37222,1,0,0:0:0:0:
320,192,37380,1,8,0:0:0:0:
64,192,37538,1,0,0:0:0:0:
448,192,37695,1,0,0:0:0:0:
320,192,37853,1,0,0:0:0:0:
64,192,38011,1,0,0:0:0:0:
320,192,38327,1,0,0:0:0:0:
448,192,38643,1,8,0:0:0:0:
320,192,38959,1,0,0:0:0:0:
64,192,39274,1,0,0:0:0:0:
448,192,39590,1,0,0:0:0:0:
320,192,39906,1,8,0:0:0:0:
448,192,40222,1,0,0:0:0:0:
64,192,40538,1,0,0:0:0:0:
192,192,40538,1,0,0:0:0:0:
192,192,41801,1,0,0:0:0:0:
448,192,41959,1,0,0:0:0:0:
64,192,42117,1,0,0:0:0:0:
192,192,42274,1,0,0:0:0:0:
448,192,42432,1,8,0:0:0:0:
64,192,42590,1,0,0:0:0:0:
192,192,42748,1,0,0:0:0:0:
448,192,42906,1,0,0:0:0:0:
64,192,43064,1,0,0:0:0:0:
320,192,43380,1,0,0:0:0:0:
448,192,43695,1,8,0:0:0:0:
192,192,44011,1,0,0:0:0:0:
64,192,44327,1,0,0:0:0:0:
192,192,44643,1,0,0:0:0:0:
320,192,44959,1,8,0:0:0:0:
192,192,45274,1,0,0:0:0:0:
448,192,45590,1,0,0:0:0:0:
64,192,45590,1,0,0:0:0:0:
64,192,46853,1,0,0:0:0:0:
448,192,47011,1,0,0:0:0:0:
320,192,47169,1,0,0:0:0:0:
64,192,47327,1,0,0:0:0:0:
448,192,47485,1,8,0:0:0:0:
320,192,47643,1,0,0:0:0:0:
64,192,47801,1,0,0:0:0:0:
448,192,47959,1,0,0:0:0:0:
320,192,48117,1,0,0:0:0:0:
192,192,48432,1,0,0:0:0:0:
448,192,48748,1,0,0:0:0:0:
320,192,49064,1,0,0:0:0:0:
64,192,49380,1,0,0:0:0:0:
448,192,49695,1,0,0:0:0:0:
64,192,50011,1,0,0:0:0:0:
192,192,50011,1,8,0:0:0:0:
192,192,50327,1,0,0:0:0:0:
320,192,50327,1,0,0:0:0:0:
448,192,50643,1,0,0:0:0:0:
320,192,50643,1,0,0:0:0:0:
64,192,50959,1,0,0:0:0:0:
192,192,51274,1,0,0:0:0:0:
448,192,51274,1,8,0:0:0:0:
64,192,51590,1,0,0:0:0:0:
448,192,51590,1,0,0:0:0:0:
192,192,51906,1,0,0:0:0:0:
320,192,52064,1,0,0:0:0:0:
448,192,52064,1,0,0:0:0:0:
64,192,52222,1,0,0:0:0:0:
192,192,52222,1,0,0:0:0:0:
320,192,52380,1,0,0:0:0:0:
448,192,52538,1,8,0:0:0:0:
64,192,52538,1,0,0:0:0:0:
192,192,52695,1,0,0:0:0:0:
448,192,52853,1,0,0:0:0:0:
320,192,53011,1,0,0:0:0:0:
64,192,53169,1,0,0:0:0:0:
192,192,53169,1,0,0:0:0:0:
448,192,53485,1,0,0:0:0:0:
64,192,53643,1,0,0:0:0:0:
320,192,53643,1,0,0:0:0:0:
448,192,53801,1,0,0:0:0:0:
192,192,53801,1,8,0:0:0:0:
64,192,54117,1,0,0:0:0:0:
192,192,54117,1,0,0:0:0:0:
320,192,54432,1,0,0:0:0:0:
64,192,54590,1,0,0:0:0:0:
448,192,54590,1,0,0:0:0:0:
192,192,54748,1,0,0:0:0:0:
320,192,54748,1,0,0:0:0:0:
64,192,55064,1,8,0:0:0:0:
192,192,55064,1,0,0:0:0:0:
320,192,55380,1,0,0:0:0:0:
192,192,55695,1,0,0:0:0:0:
448,192,55695,1,0,0:0:0:0:
64,192,56011,1,0,0:0:0:0:
448,192,56327,1,0,0:0:0:0:
64,192,56327,1,8,0:0:0:0:
320,192,56643,1,0,0:0:0:0:
448,192,56643,1,0,0:0:0:0:
64,192,56959,1,0,0:0:0:0:
192,192,57117,1,0,0:0:0:0:
448,192,57117,1,0,0:0:0:0:
64,192,57274,1,0,0:0:0:0:
320,192,57274,1,0,0:0:0:0:
192,192,57432,1,0,0:0:0:0:
64,192,57590,1,0,0:0:0:0:
448,192,57590,1,8,0:0:0:0:
320,192,57748,1,0,0:0:0:0:
192,192,57906,1,0,0:0:0:0:
448,192,58064,1,0,0:0:0:0:
320,192,58222,1,0,0:0:0:0:
64,192,58222,1,0,0:0:0:0:
192,192,58538,1,0,0:0:0:0:
448,192,58695,1,0,0:0:0:0:
64,192,58695,1,0,0:0:0:0:
192,192,58853,1,0,0:0:0:0:
320,192,58853,1,8,0:0:0:0:
64,192,59169,1,0,0:0:0:0:
320,192,59169,1,0,0:0:0:0:
448,192,59485,1,0,0:0:0:0:
64,192,59643,1,0,0:0:0:0:
192,192,59643,1,0,0:0:0:0:
320,192,59801,1,0,0:0:0:0:
448,192,59801,1,0,0:0:0:0:
64,192,60117,1,8,0:0:0:0:
448,192,60117,1,0,0:0:0:0:
64,192,60432,1,0,0:0:0:0:
320,192,60748,1,0,0:0:0:0:
448,192,60748,1,0,0:0:0:0:
64,192,61064,1,0,0:0:0:0:
192,192,61380,1,0,0:0:0:0:
448,192,61380,1,8,0:0:0:0:
64,192,61695,1,0,0:0:0:0:
320,192,61695,1,0,0:0:0:0:
448,192,62011,1,0,0:0:0:0:
64,192,62169,1,0,0:0:0:0:
192,192,62169,1,0,0:0:0:0:
320,192,62327,1,0,0:0:0:0:
448,192,62327,1,0,0:0:0:0:
64,192,62485,1,0,0:0:0:0:
192,192,62643,1,8,0:0:0:0:
448,192,62643,1,0,0:0:0:0:
320,192,62801,1,0,0:0:0:0:
192,192,62959,1,0,0:0:0:0:
64,192,63117,1,0,0:0:0:0:
448,192,63274,1,0,0:0:0:0:
320,192,63274,1,0,0:0:0:0:
192,192,63590,1,0,0:0:0:0:
320,192,63748,1,0,0:0:0:0:
64,192,63748,1,0,0:0:0:0:
192,192,63906,1,0,0:0:0:0:
448,192,63906,1,8,0:0:0:0:
64,192,64222,1,0,0:0:0:0:
320,192,64222,1,0,0:0:0:0:
64,192,64538,1,0,0:0:0:0:
320,192,64695,1,0,0:0:0:0:
448,192,64695,1,0,0:0:0:0:
64,192,64853,1,0,0:0:0:0:
192,192,64853,1,0,0:0:0:0:
448,192,65169,1,8,0:0:0:0:
64,192,65169,1,0,0:0:0:0:
448,192,65485,1,0,0:0:0:0:
64,192,65801,1,0,0:0:0:0:
192,192,65801,1,0,0:0:0:0:
320,192,66116,1,0,0:0:0:0:
448,192,66432,1,0,0:0:0:0:
192,192,66432,1,8,0:0:0:0:
320,192,66748,1,0,0:0:0:0:
448,192,66748,1,0,0:0:0:0:
64,192,67064,1,0,0:0:0:0:
192,192,67222,1,0,0:0:0:0:
448,192,67222,1,0,0:0:0:0:
64,192,67380,1,0,0:0:0:0:
320,192,67380,1,0,0:0:0:0:
448,192,67538,1,0,0:0:0:0:
64,192,67695,1,8,0:0:0:0:
320,192,67695,1,0,0:0:0:0:
192,192,67853,1,0,0:0:0:0:
320,192,68011,1,0,0:0:0:0:
448,192,68169,1,0,0:0:0:0:
64,192,68327,1,0,0:0:0:0:
320,192,68643,1,0,0:0:0:0:
64,192,68959,1,0,0:0:0:0:
448,192,68959,1,0,0:0:0:0:
64,192,69274,1,0,0:0:0:0:
192,192,69274,1,0,0:0:0:0:
64,192,69590,1,0,0:0:0:0:
448,192,69590,1,0,0:0:0:0:
320,192,69906,1,0,0:0:0:0:
192,192,70222,1,8,0:0:0:0:
448,192,70222,1,0,0:0:0:0:
64,192,70538,1,0,0:0:0:0:
320,192,70853,1,0,0:0:0:0:
448,192,70853,1,0,0:0:0:0:
192,192,71011,1,0,0:0:0:0:
64,192,71169,1,0,0:0:0:0:
320,192,71327,1,0,0:0:0:0:
448,192,71485,1,8,0:0:0:0:
64,192,71485,1,0,0:0:0:0:
192,192,71643,1,0,0:0:0:0:
64,192,71801,1,0,0:0:0:0:
448,192,71801,1,0,0:0:0:0:
192,192,72116,1,0,0:0:0:0:
320,192,72274,1,0,0:0:0:0:
448,192,72274,1,0,0:0:0:0:
64,192,72432,1,0,0:0:0:0:
192,192,72432,1,0,0:0:0:0:
320,192,72590,1,0,0:0:0:0:
192,192,72748,1,0,0:0:0:0:
448,192,72748,1,8,0:0:0:0:
64,192,72906,1,0,0:0:0:0:
192,192,73064,1,0,0:0:0:0:
64,192,73222,1,0,0:0:0:0:
448,192,73380,1,0,0:0:0:0:
320,192,73380,1,0,0:0:0:0:
64,192,73695,1,0,0:0:0:0:
192,192,73853,1,0,0:0:0:0:
448,192,73853,1,0,0:0:0:0:
64,192,74011,1,8,0:0:0:0:
320,192,74011,1,0,0:0:0:0:
192,192,74327,1,0,0:0:0:0:
448,192,74327,1,0,0:0:0:0:
192,192,74643,1,0,0:0:0:0:
320,192,74801,1,0,0:0:0:0:
448,192,74801,1,0,0:0:0:0:
64,192,74959,1,0,0:0:0:0:
192,192,74959,1,0,0:0:0:0:
192,192,75274,1,0,0:0:0:0:
448,192,75274,1,8,0:0:0:0:
320,192,75590,1,0,0:0:0:0:
448,192,75906,1,0,0:0:0:0:
192,192,75906,1,0,0:0:0:0:
64,192,76064,1,0,0:0:0:0:
448,192,76222,1,0,0:0:0:0:
320,192,76380,1,0,0:0:0:0:
192,192,76538,1,0,0:0:0:0:
64,192,76538,1,8,0:0:0:0:
448,192,76695,1,0,0:0:0:0:
320,192,76853,1,0,0:0:0:0:
64,192,76853,1,0,0:0:0:0:
448,192,77169,1,0,0:0:0:0:
320,192,77327,1,0,0:0:0:0:
64,192,77327,1,0,0:0:0:0:
448,192,77485,1,0,0:0:0:0:
192,192,77485,1,0,0:0:0:0:
64,192,77643,1,0,0:0:0:0:
320,192,77801,1,8,0:0:0:0:
448,192,77801,1,0,0:0:0:0:
64,192,77959,1,0,0:0:0:0:
192,192,78116,1,0,0:0:0:0:
64,192,78274,1,0,0:0:0:0:
192,192,78432,1,0,0:0:0:0:
448,192,78432,1,0,0:0:0:0:
64,192,78748,1,0,0:0:0:0:
448,192,78906,1,0,0:0:0:0:
320,192,78906,1,0,0:0:0:0:
192,192,79064,1,8,0:0:0:0:
64,192,79064,1,0,0:0:0:0:
192,192,79380,1,0,0:0:0:0:
448,192,79380,1,0,0:0:0:0:
64,192,79695,1,0,0:0:0:0:
448,192,79853,1,0,0:0:0:0:
192,192,79853,1,0,0:0:0:0:
64,192,80011,1,0,0:0:0:0:
320,192,80011,1,0,0:0:0:0:
64,192,80327,1,0,0:0:0:0:
448,192,80327,1,8,0:0:0:0:
64,192,80643,1,0,0:0:0:0:
320,192,80959,1,0,0:0:0:0:
448,192,80959,1,0,0:0:0:0:
192,192,81116,1,0,0:0:0:0:
64,192,81274,1,0,0:0:0:0:
448,192,81432,1,0,0:0:0:0:
320,192,81590,1,8,0:0:0:0:
64,192,81590,1,0,0:0:0:0:
192,192,81748,1,0,0:0:0:0:
448,192,81906,1,0,0:0:0:0:
64,192,81906,1,0,0:0:0:0:
192,192,82222,1,0,0:0:0:0:
320,192,82380,1,0,0:0:0:0:
448,192,82380,1,0,0:0:0:0:
64,192,82538,1,0,0:0:0:0:
192,192,82538,1,0,0:0:0:0:
320,192,82695,1,0,0:0:0:0:
448,192,82853,1,0,0:0:0:0:
64,192,82853,1,8,0:0:0:0:
320,192,83011,1,0,0:0:0:0:
192,192,83169,1,0,0:0:0:0:
64,192,83327,1,0,0:0:0:0:
448,192,83485,1,0,0:0:0:0:
192,192,83485,1,0,0:0:0:0:
64,192,83801,1,0,0:0:0:0:
320,192,83959,1,0,0:0:0:0:
448,192,83959,1,0,0:0:0:0:
64,192,84116,1,0,0:0:0:0:
192,192,84116,1,8,0:0:0:0:
192,192,84432,1,0,0:0:0:0:
448,192,84432,1,0,0:0:0:0:
64,192,84748,1,0,0:0:0:0:
192,192,84906,1,0,0:0:0:0:
448,192,84906,1,0,0:0:0:0:
64,192,85064,1,0,0:0:0:0:
320,192,85064,1,0,0:0:0:0:
448,192,85380,1,0,0:0:0:0:
320,192,85380,1,8,0:0:0:0:
192,192,85695,1,0,0:0:0:0:
64,192,86011,1,0,0:0:0:0:
448,192,86011,1,0,0:0:0:0:
192,192,86169,1,0,0:0:0:0:
320,192,86327,1,0,0:0:0:0:
64,192,86485,1,0,0:0:0:0:
192,192,86643,1,0,0:0:0:0:
448,192,86643,1,8,0:0:0:0:
320,192,86801,1,0,0:0:0:0:
192,192,86959,1,0,0:0:0:0:
64,192,86959,1,0,0:0:0:0:
448,192,87274,1,0,0:0:0:0:
64,192,87432,1,0,0:0:0:0:
320,192,87432,1,0,0:0:0:0:
192,192,87590,1,0,0:0:0:0:
448,192,87590,1,0,0:0:0:0:
64,192,87748,1,0,0:0:0:0:
448,192,87906,1,8,0:0:0:0:
192,192,87906,1,0,0:0:0:0:
64,192,88064,1,0,0:0:0:0:
448,192,88222,1,0,0:0:0:0:
320,192,88380,1,0,0:0:0:0:
64,192,88538,1,0,0:0:0:0:
192,192,88538,1,0,0:0:0:0:
448,192,88853,1,0,0:0:0:0:
192,192,89011,1,0,0:0:0:0:
64,192,89011,1,0,0:0:0:0:
448,192,89169,1,0,0:0:0:0:
320,192,89169,1,8,0:0:0:0:
64,192,89485,1,0,0:0:0:0:
320,192,89485,1,0,0:0:0:0:
192,192,89801,1,0,0:0:0:0:
320,192,89959,1,0,0:0:0:0:
448,192,89959,1,0,0:0:0:0:
192,192,90116,1,0,0:0:0:0:
64,192,90116,1,0,0:0:0:0:
192,192,90432,1,8,0:0:0:0:
320,192,90432,1,0,0:0:0:0:
448,192,90748,1,0,0:0:0:0:
64,192,91064,1,0,0:0:0:0:
320,192,91064,1,0,0:0:0:0:
192,192,91222,1,0,0:0:0:0:
448,192,91380,1,0,0:0:0:0:
64,192,91538,1,0,0:0:0:0:
192,192,91695,1,8,0:0:0:0:
448,192,91695,1,0,0:0:0:0:
320,192,91853,1,0,0:0:0:0:
192,192,92011,1,0,0:0:0:0:
64,192,92011,1,0,0:0:0:0:
320,192,92327,1,0,0:0:0:0:
448,192,92485,1,0,0:0:0:0:
64,192,92485,1,0,0:0:0:0:
192,192,92643,1,0,0:0:0:0:
320,192,92643,1,0,0:0:0:0:
64,192,92801,1,0,0:0:0:0:
320,192,92959,1,8,0:0:0:0:
448,192,92959,1,0,0:0:0:0:
64,192,93116,1,0,0:0:0:0:
192,192,93274,1,0,0:0:0:0:
448,192,93432,1,0,0:0:0:0:
64,192,93590,1,0,0:0:0:0:
320,192,93590,1,0,0:0:0:0:
320,192,93906,1,0,0:0:0:0:
192,192,94064,1,0,0:0:0:0:
448,192,94064,1,0,0:0:0:0:
64,192,94222,1,8,0:0:0:0:
320,192,94222,1,0,0:0:0:0:
320,192,94538,1,0,0:0:0:0:
448,192,94538,1,0,0:0:0:0:
64,192,94853,1,0,0:0:0:0:
192,192,95011,1,0,0:0:0:0:
448,192,95011,1,0,0:0:0:0:
64,192,95169,1,0,0:0:0:0:
320,192,95169,1,0,0:0:0:0:
64,192,95485,1,8,0:0:0:0:
192,192,95485,1,0,0:0:0:0:
448,192,95801,1,0,0:0:0:0:
64,192,96116,1,0,0:0:0:0:
448,192,96116,1,0,0:0:0:0:
192,192,96274,1,0,0:0:0:0:
320,192,96432,1,0,0:0:0:0:
64,192,96590,1,0,0:0:0:0:
192,192,96748,1,0,0:0:0:0:
448,192,96748,1,8,0:0:0:0:
320,192,96906,1,0,0:0:0:0:
192,192,97064,1,0,0:0:0:0:
448,192,97064,1,0,0:0:0:0:
64,192,97380,1,0,0:0:0:0:
320,192,97538,1,0,0:0:0:0:
448,192,97538,1,0,0:0:0:0:
64,192,97695,1,0,0:0:0:0:
192,192,97695,1,0,0:0:0:0:
448,192,97853,1,0,0:0:0:0:
320,192,98011,1,8,0:0:0:0:
64,192,98011,1,0,0:0:0:0:
448,192,98169,1,0,0:0:0:0:
192,192,98327,1,0,0:0:0:0:
320,192,98485,1,0,0:0:0:0:
64,192,98643,1,0,0:0:0:0:
192,192,98643,1,0,0:0:0:0:
448,192,98959,1,0,0:0:0:0:
64,192,99116,1,0,0:0:0:0:
320,192,99116,1,0,0:0:0:0:
192,192,99274,1,8,0:0:0:0:
448,192,99274,1,0,0:0:0:0:
64,192,99590,1,0,0:0:0:0:
320,192,99590,1,0,0:0:0:0:
448,192,99906,1,0,0:0:0:0:
64,192,100064,1,0,0:0:0:0:
192,192,100064,1,0,0:0:0:0:
320,192,100222,1,0,0:0:0:0:
448,192,100222,1,0,0:0:0:0:
64,192,100538,1,0,0:0:0:0:
320,192,100538,1,8,0:0:0:0:
192,192,100853,1,0,0:0:0:0:
64,192,101169,1,0,0:0:0:0:
448,192,101169,1,0,0:0:0:0:
192,192,101327,1,0,0:0:0:0:
64,192,101485,1,0,0:0:0:0:
448,192,101643,1,0,0:0:0:0:
320,192,101801,1,0,0:0:0:0:
64,192,101801,1,8,0:0:0:0:
448,192,101959,1,0,0:0:0:0:
320,192,102116,1,0,0:0:0:0:
64,192,102116,1,0,0:0:0:0:
192,192,102432,1,0,0:0:0:0:
64,192,102590,1,0,0:0:0:0:
448,192,102590,1,0,0:0:0:0:
192,192,102748,1,0,0:0:0:0:
320,192,102748,1,0,0:0:0:0:
448,192,102906,1,0,0:0:0:0:
64,192,103064,1,0,0:0:0:0:
192,192,103064,1,8,0:0:0:0:
320,192,103222,1,0,0:0:0:0:
448,192,103380,1,0,0:0:0:0:
192,192,103538,1,0,0:0:0:0:
64,192,103695,1,0,0:0:0:0:
320,192,103695,1,0,0:0:0:0:
192,192,104011,1,0,0:0:0:0:
320,192,104169,1,0,0:0:0:0:
448,192,104169,1,0,0:0:0:0:
64,192,104327,1,0,0:0:0:0:
192,192,104327,1,8,0:0:0:0:
448,192,104643,1,0,0:0:0:0:
64,192,104643,1,0,0:0:0:0:
320,192,104959,1,0,0:0:0:0:
192,192,105116,1,0,0:0:0:0:
448,192,105116,1,0,0:0:0:0:
64,192,105274,1,0,0:0:0:0:
320,192,105274,1,0,0:0:0:0:
64,192,105590,1,8,0:0:0:0:
448,192,105590,1,0,0:0:0:0:
192,192,105906,1,0,0:0:0:0:
448,192,106222,1,0,0:0:0:0:
320,192,106222,1,0,0:0:0:0:
192,192,106380,1,0,0:0:0:0:
64,192,106538,1,0,0:0:0:0:
448,192,106695,1,0,0:0:0:0:
192,192,106853,1,8,0:0:0:0:
64,192,106853,1,0,0:0:0:0:
320,192,107011,1,0,0:0:0:0:
64,192,107169,1,0,0:0:0:0:
448,192,107169,1,0,0:0:0:0:
192,192,107485,1,0,0:0:0:0:
64,192,107643,1,0,0:0:0:0:
320,192,107643,1,0,0:0:0:0:
192,192,107801,1,0,0:0:0:0:
448,192,107801,1,0,0:0:0:0:
320,192,107959,1,0,0:0:0:0:
64,192,108116,1,8,0:0:0:0:
192,192,108116,1,0,0:0:0:0:
448,192,108274,1,0,0:0:0:0:
192,192,108432,1,0,0:0:0:0:
64,192,108590,1,0,0:0:0:0:
320,192,108748,1,0,0:0:0:0:
448,192,108748,1,0,0:0:0:0:
320,192,109064,1,0,0:0:0:0:
192,192,109222,1,0,0:0:0:0:
64,192,109222,1,0,0:0:0:0:
448,192,109380,1,0,0:0:0:0:
320,192,109380,1,8,0:0:0:0:
64,192,109695,1,0,0:0:0:0:
448,192,109695,1,0,0:0:0:0:
448,192,110011,1,0,0:0:0:0:
64,192,110169,1,0,0:0:0:0:
320,192,110169,1,0,0:0:0:0:
448,192,110327,1,0,0:0:0:0:
192,192,110327,1,0,0:0:0:0:
64,192,110643,1,8,0:0:0:0:
192,192,110643,1,0,0:0:0:0:
320,192,110959,1,0,0:0:0:0:
64,192,111274,1,0,0:0:0:0:
448,192,111274,1,0,0:0:0:0:
192,192,111432,1,0,0:0:0:0:
64,192,111590,1,0,0:0:0:0:
320,192,111748,1,0,0:0:0:0:
64,192,111906,1,0,0:0:0:0:
192,192,111906,1,8,0:0:0:0:
320,192,112064,1,0,0:0:0:0:
448,192,112222,1,0,0:0:0:0:
64,192,112222,1,0,0:0:0:0:
448,192,112538,1,0,0:0:0:0:
64,192,112695,1,0,0:0:0:0:
192,192,112695,1,0,0:0:0:0:
320,192,112853,1,0,0:0:0:0:
448,192,112853,1,0,0:0:0:0:
64,192,113011,1,0,0:0:0:0:
192,192,113169,1,8,0:0:0:0:
448,192,113169,1,0,0:0:0:0:
64,192,113327,1,0,0:0:0:0:
320,192,113485,1,0,0:0:0:0:
192,192,113643,1,0,0:0:0:0:
64,192,113801,1,0,0:0:0:0:
448,192,113801,1,0,0:0:0:0:
192,192,113959,1,0,0:0:0:0:
320,192,114116,1,0,0:0:0:0:
64,192,114274,1,0,0:0:0:0:
448,192,114274,1,0,0:0:0:0:
192,192,114432,1,0,0:0:0:0:
320,192,114432,1,8,0:0:0:0:
64,192,114590,1,0,0:0:0:0:
320,192,114748,1,0,0:0:0:0:
448,192,114748,1,0,0:0:0:0:
64,192,115064,1,0,0:0:0:0:
448,192,115222,1,0,0:0:0:0:
192,192,115222,1,0,0:0:0:0:
64,192,115380,1,0,0:0:0:0:
320,192,115380,1,0,0:0:0:0:
448,192,115538,1,0,0:0:0:0:
64,192,115695,1,0,0:0:0:0:
192,192,115695,1,8,0:0:0:0:
320,192,115853,1,0,0:0:0:0:
64,192,116011,1,0,0:0:0:0:
192,192,116169,1,0,0:0:0:0:
320,192,116327,1,0,0:0:0:0:
448,192,116327,1,0,0:0:0:0:
192,192,116485,1,0,0:0:0:0:
64,192,116643,1,0,0:0:0:0:
320,192,116801,1,0,0:0:0:0:
192,192,116959,1,0,0:0:0:0:
64,192,116959,1,8,0:0:0:0:
448,192,117116,1,0,0:0:0:0:
320,192,117274,1,0,0:0:0:0:
64,192,117274,1,0,0:0:0:0:
448,192,117590,1,0,0:0:0:0:
64,192,117748,1,0,0:0:0:0:
192,192,117748,1,0,0:0:0:0:
320,192,117906,1,0,0:0:0:0:
448,192,117906,1,0,0:0:0:0:
64,192,118064,1,0,0:0:0:0:
192,192,118222,1,0,0:0:0:0:
448,192,118222,1,8,0:0:0:0:
320,192,118380,1,0,0:0:0:0:
64,192,118538,1,0,0:0:0:0:
192,192,118695,1,0,0:0:0:0:
64,192,118853,1,0,0:0:0:0:
448,192,118853,128,0,119169:0:0:0:0:
64,192,119169,1,0,0:0:0:0:
192,192,119327,1,0,0:0:0:0:
448,192,119327,1,0,0:0:0:0:
64,192,119485,1,8,0:0:0:0:
320,192,119485,128,0,119801:0:0:0:0:
448,192,119801,1,0,0:0:0:0:
192,192,120116,128,0,120432:0:0:0:0:
448,192,120274,1,0,0:0:0:0:
320,192,120274,1,0,0:0:0:0:
64,192,120432,1,0,0:0:0:0:
64,192,120748,128,0,121064:0:0:0:0:
192,192,120748,1,8,0:0:0:0:
320,192,121064,1,0,0:0:0:0:
192,192,121380,1,0,0:0:0:0:
448,192,121380,1,0,0:0:0:0:
