osu file format v9

[General]
AudioFilename: Otokaze - Mallow Flower (Short Ver.).mp3
AudioLeadIn: 0
PreviewTime: 103129
Countdown: 0
SampleSet: Soft
StackLeniency: 0.5
Mode: 0
LetterboxInBreaks: 0

[Editor]
DistanceSpacing: 0.8
BeatDivisor: 4
GridSize: 4

[Metadata]
Title:Mallow Flower
Artist:Otokaze
Creator:spboxer3
Version:TuHard
Source:
Tags:tutuhaha Snowy Dream

[Difficulty]
HPDrainRate:6
CircleSize:4
OverallDifficulty:6
ApproachRate:7
SliderMultiplier:1.24
SliderTickRate:2

[Events]
//Background and Video events
0,0,"BG.png"
//Break Periods
2,63539,72545
2,73645,82018
//Storyboard Layer 0 (Background)
//Storyboard Layer 1 (Fail)
//Storyboard Layer 2 (Pass)
//Storyboard Layer 3 (Foreground)
//Storyboard Sound Samples
//Background Colour Transformations
3,100,163,162,255

[TimingPoints]
182,315.789473684211,4,2,0,40,1,0
23076,-100,4,2,0,5,0,0
23313,-100,4,2,0,40,0,0
24339,-100,4,2,0,5,0,0
24576,-100,4,2,0,40,0,0
26866,-100,4,2,0,5,0,0
27103,-100,4,2,0,40,0,0
28129,-100,4,2,0,5,0,0
28366,-100,4,2,0,40,0,0
29392,-100,4,2,0,5,0,0
29629,-100,4,2,0,40,0,0
31918,-100,4,2,0,5,0,0
32155,-100,4,2,0,40,0,0
33182,-100,4,2,0,5,0,0
33418,-100,4,2,0,40,0,0
35708,-100,4,2,0,5,0,0
35945,-100,4,2,0,40,0,0
38234,-100,4,2,0,5,0,0
38471,-100,4,2,0,40,0,0
40603,-100,4,2,1,40,0,0
41234,-100,4,2,0,40,0,0
41708,-100,4,2,1,40,0,0
43129,-100,4,2,2,40,0,0
43208,-100,4,2,1,40,0,0
43760,-100,4,2,2,40,0,0
43839,-100,4,2,1,40,0,0
63339,-100,4,2,0,30,0,0
73445,-100,4,2,1,40,0,0
83550,-100,4,2,0,40,0,0
83629,-100,4,2,1,40,0,0
101550,-200,4,2,1,40,0,0
102182,-100,4,2,1,40,0,0
103760,-100,4,2,2,40,0,1
103839,-100,4,2,1,40,0,1
123971,-100,4,2,0,40,0,1
124050,-100,4,2,1,40,0,1
141182,-100,4,2,2,40,0,1
141260,-100,4,2,1,40,0,1
144182,-100,4,2,0,5,0,0

[Colours]
Combo1 : 244,51,17
Combo2 : 103,206,0
Combo3 : 57,170,253
SliderBorder : 255,255,255

[HitObjects]
256,72,22918,2,0,B|204:152|88:148,1,186
44,148,23550,2,0,B|108:272,1,124,2|0
164,336,24182,2,0,B|200:236|312:220,1,186
344,248,24813,2,0,B|424:248,2,62,2|0|0
396,164,25445,5,0
396,164,25760,1,0
356,72,26076,2,0,B|332:48|284:36,1,62,2|0
264,76,26392,2,0,B|236:100|200:104,1,62
188,148,26708,2,0,B|84:132|8:200,1,186,2|2
60,284,27497,1,0
60,284,27971,6,0,B|268:284,1,186
280,320,28603,2,0,B|324:312|352:284,1,62,2|0
384,312,28918,2,0,B|408:264|444:256,1,62
464,236,29234,2,0,B|456:136|348:68,1,186
348,40,29866,2,0,B|276:40,2,62,2|0|0
312,132,30497,5,0
256,216,30813,1,0
176,276,31129,2,0,B|132:272|104:248,1,62,2|0
80,224,31445,2,0,B|72:188|28:168,1,62
40,128,31760,2,0,B|96:56|204:36,1,186,2|2
256,120,32550,1,0
256,120,33024,6,0,B|352:160|356:276,1,186
320,296,33655,1,2
276,316,33813,1,0
228,320,33971,1,0
180,304,34129,1,0
144,272,34287,1,0
4,216,34760,1,0
36,176,34918,1,2
84,160,35076,1,0
132,164,35234,1,0
224,212,35550,6,0,B|332:200|368:80,1,186
412,104,36182,2,0,B|456:120|472:160,1,62,2|0
468,188,36497,2,0,B|460:232|480:264,1,62
464,300,36813,1,2
372,340,37129,1,0
372,340,37287,1,2
276,312,37603,1,0
276,312,38076,6,0,B|236:224|116:208,1,186
104,168,38708,1,2
100,120,38866,1,0
120,76,39024,1,0
160,48,39182,1,0
208,40,39339,1,2
268,176,39813,1,0
260,224,39971,1,2
284,268,40129,1,0
328,292,40287,1,0
428,316,40603,6,0,B|468:264|460:184,1,124
412,112,41234,2,0,B|392:76|352:64,1,62,0|0
316,68,41550,2,0,B|240:68,1,62,2|0
204,72,41866,2,0,B|180:136|112:160,1,124,2|0
68,160,42339,1,2
72,260,42655,1,0
152,316,42971,5,10
152,316,43129,2,0,B|292:316,1,124,4|0
364,272,43760,1,8
396,232,43918,1,0
404,184,44076,1,0
388,136,44234,1,8
352,100,44392,2,0,B|216:100,1,124
136,184,45024,2,0,B|272:184,1,124,8|0
280,228,45497,1,8
272,276,45655,6,0,B|248:324|164:344,1,124
72,340,46287,2,0,B|64:268|112:228,1,124,8|0
136,184,46760,1,8
116,140,46918,2,0,B|192:120|220:56,1,124,8|0
252,40,47392,2,0,B|392:40,1,124,8|0
420,128,48024,5,0
420,128,48182,2,0,B|400:196|320:212,1,124,8|0
308,304,48813,1,8
272,268,48971,1,0
224,252,49129,1,0
176,256,49287,1,0
128,268,49445,2,0,B|64:240|48:156,1,124,8|0
84,80,50076,2,0,B|88:48|112:24,1,62,8|0
160,32,50392,2,0,B|184:100|268:112,1,124
340,68,51024,5,0
320,164,51339,1,8
316,212,51497,1,0
292,256,51655,1,0
252,284,51813,1,8
204,288,51971,2,0,B|192:220|112:180,1,124,8|0
88,216,52445,2,0,B|128:84,1,124,8|0
212,52,53076,5,0
212,52,53234,2,0,B|248:176,1,124,4|0
280,264,53866,1,8
320,292,54024,1,0
368,296,54182,1,0
416,280,54339,1,8
448,240,54497,2,0,B|448:176|384:132,1,124
376,36,55129,1,8
328,48,55287,1,0
300,88,55445,1,0
256,176,55760,6,0,B|172:176|136:108,1,124
84,204,56392,2,0,B|68:236|72:268,1,62,8|0
96,308,56708,2,0,B|132:324|152:348,1,62,0|0
196,356,57024,2,0,B|232:304|308:288,1,124,8|0
328,328,57497,2,0,B|384:208,1,124,8|0
344,124,58129,5,8
344,124,58287,2,0,B|256:216,1,124,0|0
180,276,58918,1,8
132,264,59076,1,0
96,232,59234,1,0
80,184,59392,1,8
92,136,59550,2,0,B|216:136,1,124,8|0
288,68,60182,2,0,B|324:40|364:40,1,62,8|0
392,52,60497,2,0,B|408:88|440:104,1,62,8|0
480,112,60813,6,0,B|432:240,1,124
372,304,61445,1,0
372,304,61603,1,0
372,304,61760,1,8
372,304,61918,1,0
372,304,62076,2,0,B|320:216|184:228,1,186,8|0
184,268,62708,2,0,B|136:204,1,62,8|0
96,224,63024,2,0,B|80:148,1,62,0|8
96,116,63339,5,4
256,192,73445,5,4
480,176,82918,6,0,B|480:216|464:240,1,62
428,268,83234,2,0,B|396:292|352:284,1,62,8|8
336,248,83550,6,0,B|128:248,1,186,4|0
100,248,84182,2,0,B|88:172|136:116,1,124,8|0
164,96,84655,1,8
208,72,84813,2,0,B|236:144|308:164,1,124
336,248,85445,2,0,B|400:280|480:248,1,124,8|0
452,208,85918,1,8
444,160,86076,6,0,B|384:156|344:80,1,124,0|8
332,44,86550,2,0,B|228:120,1,124,0|8
184,112,87024,1,0
144,204,87339,1,0
108,240,87497,1,0
112,288,87655,1,0
148,320,87813,1,0
196,320,87971,1,8
240,232,88287,2,0,B|304:208,1,62,0|8
320,164,88603,6,0,B|368:200|456:196|452:196,1,124
396,104,89234,2,0,B|356:56|268:52,1,124,8|0
240,36,89708,2,0,B|172:152,1,124,8|8
132,164,90182,1,0
152,260,90497,1,8
220,332,90813,2,0,B|240:272,1,62,0|8
288,280,91129,6,0,B|360:284|408:224,1,124,8|0
448,240,91603,2,0,B|388:200|384:124,1,124,8|8
360,96,92076,1,0
276,148,92392,1,0
252,104,92550,1,0
204,88,92708,1,0
156,108,92866,1,0
140,156,93024,1,8
208,224,93339,2,0,B|208:300,1,62,0|8
212,336,93655,6,0,B|256:292|344:292,1,124,0|0
420,268,94287,1,8
452,228,94445,1,0
456,180,94603,1,0
432,136,94760,1,8
384,120,94918,2,0,B|316:136|304:224,1,124
248,288,95550,2,0,B|216:304|176:296,1,62,8|0
152,264,95866,2,0,B|132:232|96:220,1,62,8|8
84,180,96182,6,0,B|152:56,1,124
184,44,96655,2,0,B|200:112|272:132,1,124,8|8
312,112,97129,1,0
288,208,97445,1,0
312,304,97760,1,0
380,380,98076,2,0,B|392:320,1,62,8|0
436,296,98392,2,0,B|424:224,1,62,8|8
456,196,98708,6,0,B|464:136|400:76,1,124
360,84,99182,1,0
328,120,99339,2,0,B|304:184|212:196,1,124,8|0
136,208,99971,2,0,B|140:140|80:84,1,124,8|0
48,116,100445,1,0
20,156,100603,1,8
28,204,100760,1,0
60,240,100918,1,8
108,248,101076,1,8
136,208,101234,6,0,B|172:156|248:152,1,124,0|8
280,120,101708,6,0,B|344:120,1,62
404,188,102339,1,0
404,188,102497,6,0,B|380:260|304:272,2,124,0|0|8
380,28,103445,1,0
380,28,103603,1,0
380,28,103760,6,0,B|236:28,1,124,4|0
188,100,104392,2,0,B|164:168|84:184,1,124,8|0
92,228,104866,1,8
120,268,105024,2,0,B|220:360,1,124
312,364,105655,1,8
356,336,105813,1,0
380,292,105971,1,8
348,196,106287,6,0,B|344:124|400:80,1,124
308,36,106918,2,0,B|268:32|236:44,1,62,8|0
224,84,107234,2,0,B|196:128|160:136,1,62,0|8
132,128,107550,2,0,B|120:200|40:236,1,124,8|0
12,212,108024,2,0,B|88:328,1,124,8|0
172,356,108655,5,0
172,356,108813,2,0,B|196:228,1,124,8|0
272,296,109445,1,8
320,296,109603,1,0
368,280,109760,1,0
400,240,109918,1,8
412,192,110076,1,0
312,192,110392,5,0
264,172,110550,1,0
244,128,110708,1,8
244,80,110866,1,0
272,40,111024,1,0
172,36,111339,6,0,B|68:132,1,124
64,216,111971,2,0,B|100:220|128:244,1,62,8|0
132,288,112287,2,0,B|164:272|216:280,1,62,0|8
216,324,112603,2,0,B|320:256,1,124,8|0
352,292,113076,2,0,B|392:240|384:156,1,124,8|0
336,88,113708,5,0
336,88,113866,2,0,B|268:108|240:180,1,124,4|0
148,180,114497,1,8
136,228,114655,1,0
148,276,114813,1,0
184,308,114971,1,8
232,320,115129,1,0
324,360,115445,5,0
328,312,115603,1,0
364,276,115760,1,8
412,264,115918,1,0
460,276,116076,1,0
460,176,116392,6,0,B|392:64,1,124
332,148,117024,2,0,B|316:120|280:104,1,62,8|0
264,64,117339,2,0,B|228:76|184:64,1,62,0|8
164,40,117655,2,0,B|100:152,1,124,8|0
52,144,118129,2,0,B|112:180|120:260,2,124,8|0|0
28,188,118918,5,0
40,288,119234,1,0
124,340,119550,2,0,B|168:344|208:312,1,62,8|0
228,348,119866,2,0,B|248:312|296:304,1,62,0|8
324,316,120182,2,0,B|416:208,1,124,8|0
352,136,120813,1,8
320,172,120971,1,0
288,208,121129,1,0
192,224,121445,6,0,B|188:144|116:116,1,124
208,60,122076,2,0,B|248:56|272:36,1,62,8|0
316,48,122392,2,0,B|352:52|380:76,1,62,0|8
420,84,122708,2,0,B|368:136|376:216,1,124,8|0
424,204,123182,2,0,B|304:276,2,124,8|0|0
452,244,123971,5,4
444,344,124287,2,0,B|304:344,1,124,0|8
220,348,124918,1,0
216,300,125076,1,8
200,252,125234,2,0,B|176:184|84:168,1,124,0|0
88,76,125866,2,0,B|224:76,1,124,8|0
248,112,126339,1,8
284,148,126497,6,0,B|360:152|412:96,1,124
440,200,127129,1,8
432,248,127287,1,0
408,292,127445,1,0
368,320,127603,1,8
320,328,127760,2,0,B|288:268|212:256,1,124,8|0
192,296,128234,2,0,B|112:192,2,124,8|0|8
156,332,129024,5,0
76,276,129339,2,0,B|-4:172,1,124,0|8
60,100,129971,1,0
92,64,130129,1,8
140,48,130287,2,0,B|220:56|256:120,1,124
240,204,130918,2,0,B|360:128,1,124,8|0
392,152,131392,1,8
424,192,131550,6,0,B|424:260|360:300,1,124
284,348,132182,1,8
248,312,132339,1,0
200,300,132497,1,0
152,312,132655,1,8
120,352,132813,2,0,B|72:296|80:212,1,124,8|0
28,232,133287,2,0,B|88:204|116:120,1,124,8|8
164,60,133918,5,0
164,60,134076,2,0,B|224:176,1,124,4|0
256,264,134708,2,0,B|280:228|324:216,1,62,8|0
348,204,135024,2,0,B|388:200|424:224,1,62,0|8
440,252,135339,2,0,B|424:332|344:360,1,124
272,352,135971,1,8
224,348,136129,1,0
184,320,136287,1,8
168,272,136445,1,0
172,224,136603,6,0,B|156:152|76:132,1,124
132,44,137234,2,0,B|160:32|200:32,1,62,8|0
232,64,137550,2,0,B|244:116|280:128,1,62,0|8
300,148,137866,1,8
392,184,138181,1,0
392,184,138339,1,8
372,280,138655,1,0
280,248,138971,5,0
280,248,139129,2,0,B|252:312|180:312,1,124,8|0
84,292,139760,1,0
76,244,139918,1,0
104,204,140076,1,8
152,192,140234,1,0
196,212,140392,1,8
256,132,140708,6,0,B|312:80,1,62,0|8
348,76,141024,1,8
396,92,141181,1,0
428,132,141339,1,0
428,180,141497,1,8
400,220,141655,1,0
256,192,141734,12,0,144181
