osu file format v9

[General]
AudioFilename: Otokaze - Mallow Flower (Short Ver.).mp3
AudioLeadIn: 0
PreviewTime: 103129
Countdown: 0
SampleSet: Soft
StackLeniency: 0.5
Mode: 0
LetterboxInBreaks: 0

[Editor]
DistanceSpacing: 1
BeatDivisor: 4
GridSize: 4

[Metadata]
Title:Mallow Flower
Artist:Otokaze
Creator:spboxer3
Version:Mallow
Source:
Tags:tutuhaha Snowy Dream

[Difficulty]
HPDrainRate:7
CircleSize:4
OverallDifficulty:7
ApproachRate:9
SliderMultiplier:1.64
SliderTickRate:2

[Events]
//Background and Video events
0,0,"BG.png"
//Break Periods
2,63539,72845
2,73645,82318
//Storyboard Layer 0 (Background)
//Storyboard Layer 1 (Fail)
//Storyboard Layer 2 (Pass)
//Storyboard Layer 3 (Foreground)
//Storyboard Sound Samples
//Background Colour Transformations
3,100,163,162,255

[TimingPoints]
182,315.789473684211,4,2,0,40,1,0
22918,-100,4,2,0,20,0,0
23313,-100,4,2,0,40,0,0
28129,-100,4,2,1,40,0,0
28287,-100,4,2,0,40,0,0
33182,-100,4,2,1,40,0,0
33339,-100,4,2,0,40,0,0
34445,-100,4,2,1,40,0,0
34603,-100,4,2,0,40,0,0
38234,-100,4,2,1,40,0,0
38392,-100,4,2,0,40,0,0
40603,-100,4,2,1,40,0,0
43129,-100,4,2,2,40,0,0
43208,-100,4,2,1,40,0,0
43760,-100,4,2,2,40,0,0
43839,-100,4,2,1,40,0,0
63339,-100,4,2,0,40,0,0
73445,-100,4,2,1,30,0,0
82918,-100,4,2,1,40,0,0
83550,-100,4,2,0,40,0,0
83629,-100,4,2,1,40,0,0
101550,-200,4,2,1,40,0,0
102182,-100,4,2,1,40,0,0
103760,-100,4,2,2,40,0,1
103839,-100,4,2,1,40,0,1
113234,-100,4,2,2,40,0,1
113313,-100,4,2,1,40,0,1
123971,-100,4,2,0,40,0,1
124050,-100,4,2,1,40,0,1
131392,-100,4,2,2,40,0,1
131471,-100,4,2,1,40,0,1
141182,-100,4,2,2,40,0,1
141260,-100,4,2,1,40,0,1
144182,-100,4,2,0,5,0,0

[Colours]
Combo1 : 244,51,17
Combo2 : 103,206,0
Combo3 : 57,170,253
SliderBorder : 255,255,255

[HitObjects]
392,120,22287,2,0,B|350:116|311:75,1,82
194,77,22603,2,0,B|212:42|256:24,1,82,0|0
120,120,22918,2,0,B|88:208|10:235,1,164,2|0
107,384,23550,6,0,B|147:304,1,82
76,358,23866,2,0,B|150:308,1,82
61,316,24182,2,0,B|149:327|217:281,1,164,2|0
248,352,24655,6,0,B|320:312|407:331,1,164,2|2
480,368,25129,2,0,B|504:192,1,164,0|2
448,48,25760,1,0
448,48,26076,5,0
376,88,26234,1,0
296,112,26392,1,2
216,112,26550,1,0
136,88,26708,2,0,B|80:152|96:256,1,164,2|2
56,168,27182,2,0,B|112:232|96:336,1,164,0|2
97,321,27813,1,2
16,336,27971,6,0,B|208:304,1,164,0|0
336,352,28603,2,0,B|368:272,1,82,0|0
312,216,28918,2,0,B|280:296,1,82,2|0
393,198,29234,2,0,B|456:128|408:32,1,164,2|0
336,72,29708,1,2
256,72,29866,2,0,B|224:56|175:62,1,82,2|0
40,144,30182,2,0,B|75:141|114:112,1,82
192,144,30497,6,0,B|192:232|147:299,1,164,2|0
72,330,30971,2,0,B|148:286|228:291,1,164
376,352,31603,1,0
376,352,31760,2,0,B|432:344|448:312|448:312|448:272|459:234,1,164,2|2
376,248,32234,2,0,B|384:200|416:160|416:160|400:80,1,164,0|2
402,93,32866,1,2
472,48,33024,6,0,B|408:104|322:109,1,164
160,72,33655,2,0,B|112:144,1,82,2|0
56,80,33971,2,0,B|8:152,1,82,0|2
72,208,34287,2,0,B|104:256|96:320|96:320|69:328|45:355,1,164,2|0
176,304,34760,2,0,B|264:296|335:331,1,164,2|2
408,376,35234,2,0,B|440:208,1,164,0|2
438,214,35866,1,0
392,56,36182,5,0
336,112,36339,1,0
256,136,36497,1,2
176,112,36655,1,0
120,56,36813,2,0,B|40:120|48:224,1,164,2|2
24,120,37287,2,0,B|104:184|96:288,1,164,0|2
96,261,37918,1,2
22,295,38076,6,0,B|96:240|204:278,1,164
134,339,38550,2,0,B|224:368|290:313,1,164,0|0
312,232,39024,1,2
336,152,39182,1,2
372,300,39339,2,0,B|424:248|423:148,1,164
456,224,39813,2,0,B|455:124|507:72,1,164,2|2
424,64,40287,2,0,B|336:64|264:32,1,164,0|0
256,336,40918,5,0
256,336,41708,1,0
256,256,41866,2,0,B|176:256|176:256|144:280|96:280,2,164,0|0|8
328,296,42655,1,0
400,264,42813,1,8
416,184,42971,1,8
384,112,43129,6,0,B|296:120|230:66,1,164,4|0
296,24,43603,2,0,B|215:61|185:140,1,164,0|0
184,224,44076,1,8
144,296,44234,1,8
72,336,44392,2,0,B|48:248|56:160,1,164,0|8
24,248,44866,2,0,B|32:168|8:72,1,164,0|0
88,64,45339,2,0,B|200:32,1,82,8|8
256,16,45655,5,0
256,368,45971,2,0,B|232:296|280:280|259:206,1,164,0|8
256,16,46603,2,0,B|256:104,1,82
184,144,46918,2,0,B|208:176|256:192|303:176|327:144,1,164,8|0
256,98,47392,2,0,B|256:288,1,164,8|8
256,262,48024,1,8
304,328,48182,6,0,B|400:336|453:273,2,164,0|0|8
224,352,48971,1,0
176,288,49129,1,8
96,272,49287,1,8
64,200,49445,2,0,B|48:112|94:42,1,164,0|8
11,43,49918,2,0,B|99:59|168:12,1,164
208,83,50392,2,0,B|256:163,1,82,8|8
328,192,50708,5,0
16,192,51024,2,0,B|184:192,1,164,0|8
328,192,51655,2,0,B|384:128,1,82
424,200,51971,2,0,B|360:264|367:348,1,164,8|0
448,320,52445,2,0,B|435:282|394:252|344:253|312:275,1,164,8|0
248,328,52918,1,8
168,296,53076,1,8
88,264,53234,6,0,B|96:216|128:192|128:192|128:96,1,164,4|0
56,152,53708,2,0,B|104:144|128:112|128:112|224:112,2,164,8|0|8
48,72,54497,2,0,B|72:40|120:32|120:32|216:32,1,164
272,80,54971,2,0,B|344:120|456:80,1,164,8|0
489,29,55445,2,0,B|418:71|397:188,1,164,8|0
110,162,56076,1,0
256,360,56392,6,0,B|256:272,1,82,8|0
256,278,56866,1,0
256,192,57024,2,0,B|254:109|176:53,1,164,8|8
177,54,57497,2,0,B|235:112|331:98,1,164,0|8
496,192,58129,1,8
496,192,58287,6,0,B|456:208|416:192|416:192|400:248|336:256,1,164
335,171,58760,2,0,B|294:185|275:224|275:224|226:193|173:230,1,164,8|0
136,272,59234,1,8
80,328,59392,1,8
56,248,59550,2,0,B|64:168|16:88,1,164
96,56,60024,2,0,B|168:21|260:38,1,164,8|8
328,72,60497,1,0
256,192,60813,12,4,63339
256,192,73445,5,4
256,240,82918,6,0,B|256:322,1,82
320,192,83234,1,8
192,192,83392,1,8
256,240,83550,5,4
408,64,83866,1,0
384,144,84024,1,0
304,112,84182,2,0,B|208:104|168:32,1,164,8|0
344,32,84655,2,0,B|304:104|208:112,1,164,8|8
256,24,85129,2,0,B|256:216,1,164,0|8
184,228,85603,1,0
256,269,85760,2,0,B|257:188,1,82,8|8
328,232,86076,6,0,B|404:272|410:365,1,164,0|8
411,365,86550,2,0,B|385:282|446:212,1,164,0|0
496,148,87024,1,8
364,48,87339,1,0
200,68,87655,1,0
200,68,87971,5,8
364,76,88129,1,8
364,76,88445,1,8
200,101,88603,1,0
56,168,88918,5,0
64,88,89076,1,0
128,139,89234,2,0,B|144:176|136:224|88:256|40:248,1,164,8|0
56,168,89708,2,0,B|48:201|45:250|45:250|72:280|71:327,1,164,8|8
8,376,90182,2,0,B|56:312|153:318,1,164,0|8
232,328,90655,1,0
154,285,90971,1,8
232,363,91129,6,0,B|328:363|376:291,1,164
402,371,91603,2,0,B|353:287|392:210,1,164,8|0
432,128,92076,1,0
432,128,92392,1,0
432,128,92708,1,0
432,128,93024,1,8
272,88,93182,1,8
464,288,93497,1,8
432,128,93655,6,0,B|248:80,1,164,0|8
352,64,94129,2,0,B|168:114,1,164,0|0
111,107,94603,2,8,B|193:107,1,82,8|8
152,184,94918,2,0,B|96:184|96:184|32:160|32:96,2,164,0|8|0
224,232,95708,2,0,B|208:320|96:344,1,164,0|8
30,339,96182,5,0
30,339,96497,1,8
112,339,96655,1,0
280,320,96971,2,8,B|320:296|360:320,2,82,0|8|8
280,320,97445,6,0,B|320:334|360:320|360:320|448:320,2,164,0|0|8
208,360,98234,2,0,B|152:304|159:208,1,164,8|8
128,288,98708,6,0,B|135:192|79:136,1,164,0|0
32,24,99182,1,0
8,104,99339,2,0,B|87:158|163:137,1,164,8|0
240,104,99813,1,8
320,80,99971,2,0,B|409:74|460:156,1,164
488,72,100445,2,0,B|431:226,1,164,8|8
501,182,100918,2,0,B|431:226,1,82,0|8
392,296,101234,5,0
120,296,101550,2,0,B|128:288|128:288|112:288|112:288|128:280|128:280|112:280|112:280|128:272|128:272|112:272|112:272|128:264|128:264|112:264|112:264|128:256|128:256|120:256|120:256|120:232,1,164
120,168,102339,6,0,B|120:88,1,82,8|0
256,184,102813,1,0
392,88,103129,2,0,B|392:170,1,82,8|0
424,330,103445,2,0,B|424:248,1,82,8|8
336,288,103760,5,4
176,288,103918,1,0
64,176,104076,1,8
239,237,104234,1,0
24,336,104392,2,0,B|48:304|88:285,1,82,8|0
238,237,104708,2,8,B|214:269|175:289,1,82,8|8
320,208,105024,5,0
416,240,105182,1,0
352,112,105339,1,8
448,144,105497,1,0
240,144,105655,1,8
272,48,105813,1,0
144,112,105970,1,8
176,16,106129,1,8
56,152,106287,6,0,B|32:240|104:297,2,164,0|0|8
80,56,107076,1,0
176,16,107234,1,0
144,112,107392,1,8
144,208,107550,2,0,B|176:280|281:276,1,164,8|8
232,192,108024,2,0,B|304:208|320:176|393:186,2,164,0|8|8
288,112,108813,6,0,B|328:88|344:48,1,82
432,96,109129,2,0,B|478:95|512:68,1,82,8|0
488,168,109445,2,0,B|496:224|472:272,1,82,8|8
402,270,109760,2,8,B|482:249,1,82,0|8
320,336,110076,1,0
288,240,110234,1,0
192,272,110392,1,8
224,368,110550,1,0
128,344,110708,6,0,B|64:328|48:272,1,82,0|8
52,219,111024,2,8,B|61:301,1,82,0|8
72,120,111339,5,0
168,136,111497,1,0
304,48,111655,1,0
208,48,111813,1,8
256,184,111971,1,8
344,136,112129,1,8
440,120,112287,2,0,B|432:224,1,82,0|8
472,296,112603,2,0,B|392:296|392:296|360:320|316:327,1,164,0|8
256,248,113076,2,0,B|211:255|179:279|179:279|99:279,1,164,0|0
98,279,113708,1,8
80,184,113866,5,4
256,144,114024,1,0
120,96,114182,1,8
304,56,114339,1,0
208,56,114497,1,8
392,96,114655,1,8
432,8,114813,1,0
432,184,114971,1,8
472,272,115129,6,0,B|456:312|412:325,1,82
264,288,115445,2,0,B|306:290|332:328,1,82,8|0
200,344,115760,2,0,B|120:344,1,82,0|8
56,264,116076,2,0,B|136:264,1,82,0|8
216,197,116392,6,0,B|234:109|163:51,2,164,0|0|8
296,136,117182,1,0
368,72,117339,2,0,B|384:152,1,82,0|8
480,136,117655,2,0,B|469:299,1,164,8|0
400,232,118129,2,0,B|320:240|320:240|296:272|247:278,2,164,8|0|8
328,164,118918,6,0,B|200:52,1,164
48,24,119550,1,8
32,120,119708,1,0
80,208,119866,1,0
56,304,120024,1,8
152,336,120182,2,0,B|248:344|308:298,1,164,8|0
400,336,120655,2,0,B|408:240|463:188,1,164,8|8
408,104,121129,2,0,B|352:24,1,82,0|8
256,56,121445,6,0,B|232:112|280:152|256:216,1,164
256,344,122076,1,8
256,344,122550,1,8
184,280,122708,2,0,B|129:219,1,82,0|8
42,230,123024,2,0,B|152:352,1,164,0|8
256,344,123497,1,0
328,280,123655,2,8,B|382:219,1,82
424,312,123971,6,0,B|462:300|493:260|494:211|472:177,1,164,4|0
432,88,124445,1,0
336,112,124603,2,0,B|248:136,1,82,8|0
176,72,124918,2,0,B|264:48,1,82,8|8
80,104,125234,1,0
48,280,125392,1,0
24,184,125550,1,8
136,328,125708,1,0
311,285,125866,2,0,B|232:304,1,82,8|0
392,344,126182,2,0,B|424:256,1,82,8|8
488,192,126497,6,0,B|416:144|412:48,1,164,0|8
328,104,126971,1,0
240,64,127129,2,0,B|200:48|159:48,1,82,8|0
135,216,127445,2,0,B|148:177|176:144,1,82,0|8
232,224,127760,2,0,B|280:296|368:320,1,164,8|8
392,224,128234,2,0,B|424:128,1,82,0|0
448,48,128550,1,8
448,304,128866,1,8
448,304,129024,6,0,B|352:304|288:360,1,164
232,280,129497,1,0
144,328,129655,2,0,B|64:336,1,82,8|0
24,248,129971,2,8,B|105:239,1,82
192,184,130287,2,0,B|224:152|224:152|216:112|240:64|280:48,1,164,0|8
320,136,130760,1,0
416,104,130918,2,0,B|400:200,1,82,8|0
488,128,131234,2,0,B|459:289,1,164,8|0
256,352,131866,5,0
256,151,132182,2,0,B|256:271,1,82,8|0
176,272,132497,1,0
344,272,132655,1,8
256,232,132813,6,0,B|256:56,1,164,8|8
327,136,133287,2,0,B|303:104|256:88|208:104|184:136,1,164,0|8
80,304,133918,1,8
80,304,134076,6,0,B|48:232|62:141,1,164,4|0
152,192,134550,1,0
112,56,134708,1,8
312,104,134866,1,0
200,104,135024,1,8
400,56,135182,1,8
432,152,135339,6,0,B|472:256,2,82,0|0|8
368,224,135813,1,0
400,320,135971,2,0,B|320:344,1,82,8|8
232,296,136287,2,0,B|312:272,1,82,0|8
144,320,136603,1,0
72,136,136918,1,0
256,72,137234,5,8
288,168,137392,1,0
192,200,137550,1,0
160,104,137708,1,8
257,71,137866,2,0,B|350:63|386:150,1,164,8|8
412,55,138339,2,0,B|358:131|416:206,1,164,0|8
472,288,138813,2,0,B|368:320,1,82,0|0
304,352,139129,6,0,B|208:344|168:272,1,164,8|0
128,184,139603,1,0
224,192,139760,2,0,B|192:112,1,82,8|0
256,40,140076,2,0,B|288:120,1,82,0|8
320,208,140392,2,0,B|376:232|440:208|440:208|424:264,1,164,8|0
403,343,140866,1,0
488,296,141024,2,0,B|312:296,1,164,8|0
256,368,141497,1,8
188,296,141655,1,4
256,192,141734,12,0,144182
