osu file format v14

[General]
AudioFilename: karen.mp3
AudioLeadIn: 2000
PreviewTime: 21323
Countdown: 0
SampleSet: Soft
StackLeniency: 0.7
Mode: 0
LetterboxInBreaks: 0
EpilepsyWarning: 1
WidescreenStoryboard: 0

[Editor]
Bookmarks: 42521,52956,144262
DistanceSpacing: 1.2
BeatDivisor: 2
GridSize: 4
TimelineZoom: 1.5

[Metadata]
Title:Karen feat Rhyzz&Bell&Jas Mace (The 49ers)
TitleUnicode:夏恋 feat Rhyzz&Bell&Jas Mace (The 49ers)
Artist:Otokaze
ArtistUnicode:Otokaze
Creator:Backstep
Version:Normal
Source:
Tags:Save the Flavor Summer Love Natsu Koi Firework Hanabi chill collection vol.3 Xinely
BeatmapID:665055
BeatmapSetID:295711

[Difficulty]
HPDrainRate:4
CircleSize:3
OverallDifficulty:4
ApproachRate:5
SliderMultiplier:1.2
SliderTickRate:1

[Events]
//Background and Video events
0,0,"karen.jpg",0,0
//Break Periods
2,42719,51754
//Storyboard Layer 0 (Background)
//Storyboard Layer 1 (Fail)
//Storyboard Layer 2 (Pass)
//Storyboard Layer 3 (Foreground)
//Storyboard Sound Samples

[TimingPoints]
-524,326.086956521739,4,2,3,50,1,0
4693,-100,4,2,2,50,0,0
5019,-100,4,2,3,50,0,0
15128,-100,4,2,2,50,0,0
15454,-100,4,2,3,50,0,0
19041,-100,4,2,1,20,0,0
19693,-100,4,2,1,30,0,0
20345,-100,4,2,1,40,0,0
20997,-100,4,2,2,50,0,0
21649,-100,4,2,3,70,0,1
21731,-100,4,2,1,80,0,1
26867,-100,4,2,2,80,0,1
27030,-100,4,2,1,80,0,1
37302,-100,4,2,2,80,0,1
37383,-100,4,2,1,80,0,1
41215,-100,4,2,1,50,0,0
41867,-200,4,2,1,50,0,0
42519,-200,4,2,0,50,0,0
52954,-100,4,2,2,50,0,0
60780,-100,4,2,2,20,0,0
61432,-100,4,2,2,30,0,0
62084,-100,4,2,2,40,0,0
62736,-100,4,2,2,50,0,0
73823,-100,4,2,1,50,0,0
73905,-100,4,2,2,50,0,0
81649,-100,4,2,2,20,0,0
82302,-100,4,2,2,30,0,0
82954,-100,4,2,2,40,0,0
83606,-100,4,2,2,50,0,0
84258,-100,4,2,3,70,0,1
84340,-100,4,2,1,80,0,1
89475,-100,4,2,2,80,0,1
89639,-100,4,2,1,80,0,1
99910,-100,4,2,2,80,0,1
99992,-100,4,2,1,80,0,1
103823,-100,4,2,1,50,0,0
105128,-100,4,2,3,70,0,1
105209,-100,4,2,1,80,0,1
110345,-100,4,2,2,80,0,1
110508,-100,4,2,1,80,0,1
120780,-100,4,2,2,80,0,1
120861,-100,4,2,1,80,0,1
124693,-100,4,2,1,50,0,0
125345,-200,4,2,1,50,0,0
125997,-125,4,2,2,40,0,0
131215,-125,4,2,2,40,0,0
145562,-100,4,2,1,40,0,0

[Colours]
Combo1 : 255,217,100
Combo2 : 255,152,102
Combo3 : 255,128,192
Combo4 : 242,24,57
SliderBorder : 222,222,222

[HitObjects]
164,192,128,5,2,0:0:0:0:
132,308,454,2,0,L|60:324,2,60,0|2|0,0:0|0:0|0:0,0:0:0:0:
348,192,1432,5,2,0:0:0:0:
380,308,1758,2,0,L|452:324,2,60,0|2|0,0:0|0:0|0:0,0:0:0:0:
164,192,2736,6,0,P|152:128|172:68,1,120,2|0,0:0|0:0,0:0:0:0:
276,28,3389,1,2,0:0:0:0:
360,112,3715,2,0,P|440:140|496:136,2,120,0|2|0,0:0|0:0|0:0,0:0:0:0:
276,28,4693,6,0,L|152:20,1,120,4|0,0:0|0:0,0:0:0:0:
68,104,5345,1,0,0:0:0:0:
36,220,5671,2,0,L|16:296,2,60,0|2|0,0:0|0:0|0:0,0:0:0:0:
276,232,6649,5,2,0:0:0:0:
380,296,6975,2,0,L|384:360,2,60,0|2|0,0:0|0:0|0:0,0:0:0:0:
476,224,7628,1,0,0:0:0:0:
428,116,7954,2,0,P|364:100|304:124,1,120,2|0,0:0|0:0,0:0:0:0:
196,104,8606,6,0,P|139:120|82:104,2,120,2|2|2,0:0|0:0|0:0,0:0:0:0:
280,20,9584,1,2,0:0:0:0:
324,132,9910,2,0,P|336:200|316:260,1,120,2|0,0:0|0:0,0:0:0:0:
240,336,10562,5,2,0:0:0:0:
124,304,10889,2,0,L|100:364,2,60,0|2|0,0:0|0:0|0:0,0:0:0:0:
8,268,11541,6,0,L|52:152,1,120,0|2,0:0|0:0,0:0:0:0:
116,56,12193,2,0,L|196:36,2,60,0|2|0,0:0|0:0|0:0,0:0:0:0:
172,164,12845,6,0,P|232:196|284:200,1,120,0|2,0:0|0:0,0:0:0:0:
360,292,13497,2,0,P|400:232|400:176,1,120,0|2,0:0|0:0,0:0:0:0:
340,84,14149,5,0,0:0:0:0:
232,32,14475,1,2,0:0:0:0:
152,120,14802,2,0,L|160:184,2,60,0|2|4,0:0|0:0|0:0,0:0:0:0:
40,80,15454,6,0,L|56:204,1,120,0|2,0:0|0:0,0:0:0:0:
12,312,16106,2,0,P|74:318|136:287,1,120,0|2,0:0|0:0,0:0:0:0:
256,92,17084,5,2,0:0:0:0:
256,92,17736,1,2,0:0:0:0:
256,92,18389,2,0,L|256:212,1,120,2|2,0:0|0:0,0:0:0:0:
256,192,19041,12,4,20997,0:0:0:0:
64,144,21649,5,4,1:0:0:0:
168,84,21975,1,0,0:0:0:0:
256,172,22302,1,8,0:0:0:0:
344,84,22628,1,0,0:0:0:0:
448,144,22954,2,0,P|456:216|444:268,1,120
360,344,23606,6,0,P|296:324|232:324,1,120,8|0,0:0|0:0,0:0:0:0:
124,340,24258,2,0,P|76:300|56:240,1,120
88,132,24910,1,8,0:0:0:0:
208,124,25236,2,0,L|232:52,2,60
256,236,25889,2,0,P|316:260|376:248,1,120,0|8,0:0|0:0,0:0:0:0:
460,176,26541,6,0,L|468:112,2,60,0|0|4,0:0|0:0|0:0,0:0:0:0:
448,296,27193,1,0,0:0:0:0:
344,356,27519,1,8,0:0:0:0:
224,356,27845,1,0,0:0:0:0:
120,296,28171,6,0,B|88:244|120:184|120:184|152:120|120:48,2,240,0|8|0,0:0|0:0|0:0,0:0:0:0:
224,356,29802,2,0,L|344:348,1,120,0|8,0:0|0:0,0:0:0:0:
424,260,30454,6,0,L|492:252,2,60
328,188,31106,2,0,L|208:196,1,120,0|8,0:0|0:0,0:0:0:0:
120,116,31758,2,0,L|60:123,2,60,0|0|4,0:0|0:0|0:0,0:0:0:0:
192,20,32410,6,0,L|312:12,1,120,0|8,0:0|0:0,0:0:0:0:
400,92,33062,1,0,0:0:0:0:
328,188,33389,2,0,P|320:252|348:316,1,120
440,364,34041,5,8,0:0:0:0:
338,303,34367,1,0,0:0:0:0:
228,348,34693,1,0,0:0:0:0:
136,272,35019,2,0,L|64:256,2,60,0|0|8,0:0|0:0|0:0,0:0:0:0:
216,184,35671,2,0,P|272:152|352:156,1,120
428,216,36323,2,0,P|448:156|432:92,1,120,0|8,0:0|0:0,0:0:0:0:
336,36,36975,2,0,L|268:28,1,60
220,48,37302,6,0,P|168:84|96:80,1,120,4|0,0:0|0:0,0:0:0:0:
36,180,37954,2,0,P|28:248|44:308,1,120,8|0,0:0|0:0,0:0:0:0:
152,340,38606,2,0,P|253:276|371:280,1,240,0|8,0:0|0:0,0:0:0:0:
468,348,39584,1,0,0:0:0:0:
256,192,39910,12,8,41867,0:0:0:0:
256,192,42519,5,4,0:0:0:0:
100,216,52954,6,0,P|156:240|220:236,1,120
312,308,53606,1,10,0:0:0:0:
428,280,53932,1,0,0:0:0:0:
448,160,54258,2,0,L|504:112,2,60
328,160,54910,1,10,0:0:0:0:
256,64,55236,1,0,0:0:0:0:
148,112,55562,6,0,P|136:180|148:240,1,120,8|0,0:0|0:0,0:0:0:0:
220,324,56215,1,10,0:0:0:0:
340,336,56541,2,0,L|404:344,1,60,8|8,0:0|0:0,0:0:0:0:
460,348,56867,2,0,P|448:288|464:228,1,120
488,116,57519,2,0,L|440:64,1,60,10|0,0:0|0:0,0:0:0:0:
352,144,58008,6,0,L|284:132,1,60,0|2,0:0|0:0,0:0:0:0:
192,68,58497,1,0,0:0:0:0:
92,136,58823,2,0,L|68:264,1,120,10|0,0:0|0:0,0:0:0:0:
0,348,59475,2,0,P|55:369|114:363,1,120,2|0,0:0|0:0,0:0:0:0:
232,336,60128,2,0,L|316:336,1,60,10|0,0:0|0:0,0:0:0:0:
356,236,60617,6,0,L|420:220,1,60,0|2,0:0|0:0,0:0:0:0:
476,120,61106,2,0,P|444:68|384:40,1,120,2|2,0:0|0:0,0:0:0:0:
288,96,61758,2,0,P|234:66|168:72,1,120,2|2,0:0|0:0,0:0:0:0:
125,176,62410,2,0,P|63:177|9:215,1,120,2|4,0:0|0:0,0:0:0:0:
4,326,63062,2,0,L|68:346,1,60,8|8,0:0|0:0,0:0:0:0:
120,360,63389,6,0,P|204:372|260:356,1,120,4|0,1:0|0:0,0:0:0:0:
340,300,64041,1,10,0:0:0:0:
448,352,64367,1,8,0:0:0:0:
504,244,64693,2,0,P|512:176|504:124,1,120,8|0,0:0|0:0,0:0:0:0:
428,32,65345,1,10,0:0:0:0:
328,96,65671,1,8,0:0:0:0:
220,44,65997,6,0,L|88:36,1,120,8|0,0:0|0:0,0:0:0:0:
36,136,66649,2,0,L|155:143,1,120,10|8,0:0|0:0,0:0:0:0:
260,204,67302,2,0,P|260:336|156:364,1,240,8|10,0:0|0:0,0:0:0:0:
64,320,68280,2,0,L|36:264,1,60,8|8,0:0|0:0,0:0:0:0:
20,208,68606,6,0,P|28:140|60:96,1,120,4|0,0:0|0:0,0:0:0:0:
164,48,69258,1,10,0:0:0:0:
268,108,69584,2,0,P|328:128|384:112,1,120,8|8,0:0|0:0,0:0:0:0:
476,40,70236,1,0,0:0:0:0:
496,156,70562,1,10,0:0:0:0:
476,276,70889,2,0,L|456:336,1,60,8|8,0:0|0:0,0:0:0:0:
404,364,71215,6,0,P|340:368|272:360,1,120
200,276,71867,1,10,0:0:0:0:
80,284,72193,2,0,L|4:292,2,60,8|8|0,0:0|0:0|0:0,0:0:0:0:
132,176,72845,2,0,L|264:164,1,120,0|10,0:0|0:0,0:0:0:0:
348,232,73497,2,0,P|360:204|364:172,1,60,8|8,0:0|0:0,0:0:0:0:
356,116,73823,6,0,P|316:64|252:48,2,120,4|0|10,0:0|0:0|0:0,0:0:0:0:
348,232,74802,2,0,L|328:356,1,120,8|8,0:0|0:0,0:0:0:0:
208,356,75454,2,0,L|227:237,1,120,0|10,0:0|0:0,0:0:0:0:
180,128,76106,1,8,0:0:0:0:
88,52,76432,6,0,P|64:116|80:176,1,120,8|0,0:0|0:0,0:0:0:0:
168,240,77084,1,10,0:0:0:0:
288,256,77410,2,0,L|360:264,1,60,8|8,0:0|0:0,0:0:0:0:
408,268,77736,2,0,P|460:248|496:188,1,120
496,76,78389,1,10,0:0:0:0:
388,28,78715,2,0,L|328:24,1,60,8|8,0:0|0:0,0:0:0:0:
288,68,79041,6,0,P|272:136|284:192,1,120,4|0,0:0|0:0,0:0:0:0:
336,292,79693,2,0,P|280:332|208:336,1,120,10|8,0:0|0:0,0:0:0:0:
112,316,80345,2,0,P|60:276|36:216,1,120,8|0,0:0|0:0,0:0:0:0:
48,108,80997,1,10,0:0:0:0:
136,28,81323,1,8,0:0:0:0:
256,12,81649,6,0,L|272:144,1,120,2|2,0:0|0:0,0:0:0:0:
340,228,82302,2,0,P|276:252|220:240,2,120,2|2|2,0:0|0:0|0:0,0:0:0:0:
416,136,83280,1,2,0:0:0:0:
320,60,83606,2,0,L|192:52,1,120,4|0,0:0|0:0,0:0:0:0:
100,120,84258,6,0,P|88:180|104:256,1,120,4|0,1:0|0:0,0:0:0:0:
172,332,84910,1,8,0:0:0:0:
272,264,85236,2,0,P|348:240|408:248,1,120
492,304,85889,1,0,0:0:0:0:
508,184,86215,2,0,P|501:115|482:62,1,120,8|0,0:0|0:0,0:0:0:0:
376,120,86867,6,0,B|296:92|256:116|256:116|216:92|136:116,1,240,0|8,0:0|0:0,0:0:0:0:
80,216,87845,2,0,P|52:192|36:164,2,60,0|8|0,0:0|0:0|0:0,0:0:0:0:
200,228,88497,2,0,P|204:300|196:352,1,120,0|8,0:0|0:0,0:0:0:0:
316,348,89149,2,0,L|308:288,1,60,0|8,0:0|0:0,0:0:0:0:
304,228,89475,6,0,P|304:168|320:108,1,120,4|0,0:0|0:0,0:0:0:0:
440,128,90128,2,0,P|440:188|424:248,1,120,8|0,0:0|0:0,0:0:0:0:
348,336,90780,2,0,P|232:328|188:200,1,240,0|8,0:0|0:0,0:0:0:0:
256,132,91758,1,0,0:0:0:0:
164,56,92084,6,0,P|100:40|48:56,2,120,0|0|8,0:0|0:0|0:0,0:0:0:0:
256,132,93062,2,0,L|256:200,2,60,0|8|0,0:0|0:0|0:0,0:0:0:0:
348,56,93715,2,0,P|412:40|464:56,1,120,0|8,0:0|0:0,0:0:0:0:
496,168,94367,2,0,L|500:228,1,60,0|8,0:0|0:0,0:0:0:0:
472,280,94693,6,0,P|412:320|364:320,1,120,4|0,0:0|0:0,0:0:0:0:
256,276,95345,1,8,0:0:0:0:
144,320,95671,1,0,0:0:0:0:
32,276,95997,2,0,P|-4:160|68:48,1,240,0|8,0:0|0:0,0:0:0:0:
156,116,96975,1,0,0:0:0:0:
256,52,97302,6,0,L|388:36,1,120
456,128,97954,1,8,0:0:0:0:
472,248,98280,2,0,L|480:312,2,60,0|8|0,0:0|0:0|0:0,0:0:0:0:
364,196,98932,2,0,P|296:188|240:208,1,120,0|8,0:0|0:0,0:0:0:0:
157,282,99584,2,0,L|113:326,1,60,0|8,0:0|0:0,0:0:0:0:
72,366,99910,6,0,P|96:306|72:250,1,120,4|0,0:0|0:0,0:0:0:0:
72,136,100562,2,0,P|53:80|77:26,1,120,8|0,0:0|0:0,0:0:0:0:
180,92,101215,2,0,B|240:112|300:92|300:92|364:72|428:92,1,240,0|8,0:0|0:0,0:0:0:0:
488,184,102193,2,0,L|480:244,1,60
440,288,102519,6,0,L|312:304,1,120
232,224,103171,2,0,L|104:240,1,120,8|0,0:0|0:0,0:0:0:0:
48,340,103823,2,0,P|-4:256|64:128,1,240,0|8,0:0|0:0,0:0:0:0:
148,68,104802,1,0,0:0:0:0:
264,96,105128,6,0,P|336:108|404:92,1,120,4|0,1:0|0:0,0:0:0:0:
496,60,105780,1,8,0:0:0:0:
508,180,106106,1,0,0:0:0:0:
392,204,106432,2,0,P|264:212|156:160,1,240,0|8,0:0|0:0,0:0:0:0:
76,84,107410,1,0,0:0:0:0:
28,196,107736,6,0,B|16:256|16:256|32:320,1,120
144,352,108389,1,8,0:0:0:0:
244,284,108715,2,0,L|228:216,2,60,0|8|0,0:0|0:0|0:0,0:0:0:0:
344,348,109367,2,0,P|424:332|452:304,1,120,0|8,0:0|0:0,0:0:0:0:
476,188,110019,2,0,L|480:120,1,60,0|8,0:0|0:0,0:0:0:0:
480,68,110345,6,0,P|448:120|392:144,1,120,4|0,0:0|0:0,0:0:0:0:
276,144,110997,2,0,P|222:119|191:68,1,120,8|0,0:0|0:0,0:0:0:0:
76,32,111649,1,0,0:0:0:0:
44,148,111975,2,0,L|-20:164,2,60,0|0|8,0:0|0:0|0:0,0:0:0:0:
100,256,112628,1,0,0:0:0:0:
220,252,112954,5,0,0:0:0:0:
276,144,113280,2,0,L|312:92,2,60,0|0|8,0:0|0:0|0:0,0:0:0:0:
376,208,113932,2,0,L|448:176,2,60
420,320,114584,2,0,P|360:344|280:344,1,120,0|8,0:0|0:0,0:0:0:0:
184,348,115236,2,0,L|120:336,1,60
64,328,115562,6,0,P|48:264|60:200,1,120,4|0,0:0|0:0,0:0:0:0:
4,104,116215,2,0,P|76:96|132:120,1,120,8|0,0:0|0:0,0:0:0:0:
168,224,116867,2,0,P|300:216|364:136,1,240,0|8,0:0|0:0,0:0:0:0:
404,24,117845,1,0,0:0:0:0:
484,116,118171,6,0,P|500:192|484:248,1,120
408,316,118823,1,8,0:0:0:0:
288,324,119149,2,0,L|272:256,2,60,0|8|0,0:0|0:0|0:0,0:0:0:0:
168,336,119802,2,0,L|36:344,1,120,0|8,0:0|0:0,0:0:0:0:
24,224,120454,2,0,L|96:220,1,60,0|8,0:0|0:0,0:0:0:0:
144,216,120780,6,0,P|212:204|252:164,1,120,4|0,0:0|0:0,0:0:0:0:
180,72,121432,2,0,P|112:84|72:124,1,120,8|0,0:0|0:0,0:0:0:0:
24,224,122084,2,0,P|84:324|212:324,1,240,0|8,0:0|0:0,0:0:0:0:
296,264,123062,1,0,0:0:0:0:
256,192,123389,12,8,125345,0:0:0:0:
52,140,125997,6,0,B|108:140|108:140|188:112|188:112|276:112,1,192,4|2,0:0|0:0,0:0:0:0:
428,248,127302,2,0,B|372:248|372:248|292:276|292:276|204:276,1,192,0|2,0:0|0:0,0:0:0:0:
52,140,128606,6,0,P|108:64|228:60,1,192,10|0,0:0|0:0,0:0:0:0:
340,232,129910,2,0,P|284:308|164:312,1,192,8|8,0:0|0:0,0:0:0:0:
84,284,130889,1,0,0:0:0:0:
120,172,131215,6,0,B|144:112|104:56|104:56|140:16|204:24,1,192,2|0,0:0|0:0,0:0:0:0:
256,92,132193,1,8,0:0:0:0:
348,24,132519,2,0,B|372:16|408:56|408:56|368:112|392:172,1,192,2|8,0:0|0:0,0:0:0:0:
444,272,133497,1,0,0:0:0:0:
352,344,133823,6,0,P|252:376|156:336,1,192,0|2,0:0|0:0,0:0:0:0:
60,148,135128,2,0,P|160:116|256:156,1,192,10|2,0:0|0:0,0:0:0:0:
320,224,136106,6,0,P|344:180|348:128,1,96,2|4,0:0|0:0,0:0:0:0:
76,32,137410,2,0,P|52:76|48:128,1,96,2|0,0:0|0:0,0:0:0:0:
380,220,138715,6,0,B|388:264|388:264|384:320,1,96,0|8,0:0|0:0,0:0:0:0:
100,352,140019,2,0,B|92:308|92:308|96:252,1,96,0|2,0:0|0:0,0:0:0:0:
300,52,141323,6,0,P|360:44|420:60,1,96,0|8,0:0|0:0,0:0:0:0:
288,316,142628,2,0,P|232:324|164:304,2,96,0|8|0,0:0|0:0|0:0,0:0:0:0:
392,360,143606,6,0,P|384:260|304:204,1,192,8|8,0:0|0:0,0:0:0:0:
212,160,144584,2,0,P|148:168|92:156,2,96,0|2|0,0:0|0:0|0:0,0:0:0:0:
256,192,145562,12,2,146867,0:0:0:0:
