osu file format v14

[General]
AudioFilename: karen.mp3
AudioLeadIn: 2000
PreviewTime: 21323
Countdown: 0
SampleSet: Soft
StackLeniency: 0.7
Mode: 0
LetterboxInBreaks: 0
EpilepsyWarning: 1
WidescreenStoryboard: 0

[Editor]
Bookmarks: 42521,52956,144262
DistanceSpacing: 1
BeatDivisor: 2
GridSize: 4
TimelineZoom: 1.5

[Metadata]
Title:Karen feat Rhyzz&Bell&Jas Mace (The 49ers)
TitleUnicode:夏恋 feat Rhyzz&Bell&Jas Mace (The 49ers)
Artist:Otokaze
ArtistUnicode:Otokaze
Creator:Backstep
Version:Easy
Source:
Tags:Save the Flavor Summer Love Natsu Koi Firework Hanabi chill collection vol.3 Xinely
BeatmapID:666172
BeatmapSetID:295711

[Difficulty]
HPDrainRate:2
CircleSize:3
OverallDifficulty:2
ApproachRate:3
SliderMultiplier:0.9
SliderTickRate:1

[Events]
//Background and Video events
0,0,"karen.jpg",0,0
//Break Periods
2,42719,51514
//Storyboard Layer 0 (Background)
//Storyboard Layer 1 (Fail)
//Storyboard Layer 2 (Pass)
//Storyboard Layer 3 (Foreground)
Sprite,Foreground,Centre,"SB/xinely.png",320,240 M,0,0,,119,444 S,0,0,,0.6373332 F,0,0,780,0,1 F,0,780,145562,1,0.9974359 F,0,145562,146867,0.9974359,0
//Storyboard Sound Samples

[TimingPoints]
-524,326.086956521739,4,2,3,50,1,0
19693,-100,4,2,1,60,0,0
20997,-100,4,2,2,50,0,0
21649,-100,4,2,2,70,0,1
21731,-100,4,2,1,80,0,1
41215,-100,4,2,1,80,0,0
52954,-100,4,2,2,50,0,0
60780,-100,4,2,1,65,0,0
63389,-100,4,2,0,70,0,0
63470,-100,4,2,2,65,0,0
73823,-100,4,2,1,65,0,0
73905,-100,4,2,2,65,0,0
81649,-100,4,2,1,65,0,0
84258,-100,4,2,2,90,0,1
84340,-100,4,2,1,80,0,1
103823,-100,4,2,1,70,0,0
105128,-100,4,2,2,90,0,1
105209,-100,4,2,1,80,0,1
124693,-100,4,2,1,60,0,0
125345,-100,4,2,2,60,0,0
125997,-100,4,2,2,60,0,0
146867,-100,4,2,1,40,0,0

[Colours]
Combo1 : 255,217,100
Combo2 : 255,152,102
Combo3 : 255,128,192
Combo4 : 242,24,57
SliderBorder : 222,222,222

[HitObjects]
244,316,780,6,0,P|308:336|400:264,1,180,2|0,0:0|0:0,0:0:0:0:
344,104,2084,2,0,P|280:84|188:156,1,180,2|0,0:0|0:0,0:0:0:0:
324,268,3389,5,2,0:0:0:0:
148,312,4041,1,0,0:0:0:0:
320,360,4693,1,2,0:0:0:0:
196,228,5345,1,0,0:0:0:0:
324,100,5997,6,0,P|412:64|500:120,2,180,2|0|2,0:0|0:0|0:0,0:0:0:0:
248,264,7954,1,0,0:0:0:0:
404,352,8606,6,0,L|404:172,1,180,2|0,0:0|0:0,0:0:0:0:
248,84,9910,2,0,L|248:264,1,180,2|0,0:0|0:0,0:0:0:0:
412,336,11215,5,2,0:0:0:0:
484,172,11867,1,0,0:0:0:0:
340,64,12519,1,2,0:0:0:0:
164,96,13171,1,0,0:0:0:0:
112,268,13823,6,0,P|152:288|212:280,2,90,2|0|2,0:0|0:0|0:0,0:0:0:0:
48,204,14802,1,0,0:0:0:0:
104,132,15128,2,0,P|192:92|288:156,1,180,2|0,0:0|0:0,0:0:0:0:
372,264,16432,5,2,0:0:0:0:
200,312,17084,2,0,L|192:212,2,90,0|0|2,0:0|0:0|0:0,0:0:0:0:
372,264,18389,2,0,P|416:272|472:248,2,90,0|0|2,0:0|0:0|0:0,0:0:0:0:
228,156,19693,5,0,0:0:0:0:
112,296,20345,1,0,0:0:0:0:
288,332,20997,2,0,L|392:332,1,90,8|0,0:0|0:0,0:0:0:0:
452,280,21649,6,0,P|460:232|440:180,1,90,4|0,0:0|0:0,0:0:0:0:
388,124,22302,2,0,P|344:120|280:148,1,90,8|0,0:0|0:0,0:0:0:0:
232,192,22954,1,0,0:0:0:0:
244,280,23280,1,0,0:0:0:0:
180,344,23606,2,0,P|140:352|90:337,1,90,8|0,0:0|0:0,0:0:0:0:
40,268,24258,6,0,L|32:168,2,90,0|0|8,0:0|0:0|0:0,0:0:0:0:
124,244,25236,1,0,0:0:0:0:
208,280,25562,2,0,P|292:304|388:272,1,180,0|8,0:0|0:0,0:0:0:0:
440,208,26541,1,0,0:0:0:0:
384,136,26867,6,0,P|376:88|392:36,2,90,0|0|8,0:0|0:0|0:0,0:0:0:0:
440,208,27845,1,0,0:0:0:0:
380,276,28171,2,0,B|336:276|296:252|296:252|264:284|200:283,2,180,0|8|0,0:0|0:0|0:0,0:0:0:0:
452,328,29802,5,0,0:0:0:0:
488,248,30128,2,0,P|496:200|480:144,1,90,8|0,0:0|0:0,0:0:0:0:
448,80,30780,2,0,P|364:108|256:76,1,180,0|8,0:0|0:0,0:0:0:0:
196,48,31758,1,0,0:0:0:0:
152,128,32084,6,0,L|160:232,1,90,4|0,0:0|0:0,0:0:0:0:
208,296,32736,2,0,L|316:320,1,90,8|0,0:0|0:0,0:0:0:0:
384,292,33389,2,0,P|416:210|380:130,1,180,0|8,0:0|0:0,0:0:0:0:
316,68,34367,1,0,0:0:0:0:
264,140,34693,6,0,P|216:152|174:140,1,90
108,84,35345,2,0,P|88:136|100:188,1,90,8|0,0:0|0:0,0:0:0:0:
148,240,35997,2,0,P|72:212|0:276,1,180,0|8,0:0|0:0,0:0:0:0:
84,308,36975,1,0,0:0:0:0:
172,332,37302,6,0,L|276:324,1,90
292,240,37954,2,0,L|396:228,1,90,8|0,0:0|0:0,0:0:0:0:
468,204,38606,2,0,P|504:124|456:36,1,180,0|8,0:0|0:0,0:0:0:0:
380,32,39584,1,0,0:0:0:0:
328,104,39910,6,0,P|316:152|336:212,1,90
256,248,40562,2,0,P|208:236|148:256,1,90,8|0,0:0|0:0,0:0:0:0:
92,288,41215,2,0,B|56:228|56:228|96:184|81:108,1,180,0|8,0:0|0:0,0:0:0:0:
40,48,42193,1,0,0:0:0:0:
128,36,42519,1,4,0:0:0:0:
92,260,52954,6,0,P|60:184|116:76,1,180,2|8,0:0|0:0,0:0:0:0:
164,40,53932,1,0,0:0:0:0:
236,96,54258,2,0,P|267:177|235:259,1,180,2|8,0:0|0:0,0:0:0:0:
168,320,55236,1,0,0:0:0:0:
248,360,55562,6,0,P|316:336|428:384,1,180,2|8,0:0|0:0,0:0:0:0:
500,348,56541,1,0,0:0:0:0:
448,276,56867,2,0,P|416:200|460:112,2,180,2|8|2,0:0|0:0|0:0,0:0:0:0:
288,360,58823,5,8,0:0:0:0:
200,348,59149,1,0,0:0:0:0:
116,316,59475,2,0,B|88:252|88:252|140:212|120:132,1,180,2|8,0:0|0:0,0:0:0:0:
100,68,60454,1,0,0:0:0:0:
32,124,60780,5,0,0:0:0:0:
248,284,61758,1,0,0:0:0:0:
332,256,62084,1,0,0:0:0:0:
452,124,62736,2,0,P|464:84|452:20,1,90,8|0,0:0|0:0,0:0:0:0:
368,28,63389,6,0,L|278:31,1,90,4|0,0:0|0:0,0:0:0:0:
204,84,64041,2,0,L|88:96,1,90,8|0,0:0|0:0,0:0:0:0:
56,160,64693,2,0,P|28:256|96:340,1,180,2|8,0:0|0:0,0:0:0:0:
148,356,65671,1,0,0:0:0:0:
232,328,65997,6,0,P|252:284|256:228,1,90,2|0,0:0|0:0,0:0:0:0:
168,256,66649,2,0,P|163:207|138:157,1,90,8|0,0:0|0:0,0:0:0:0:
88,100,67302,2,0,P|174:120|256:68,1,180,2|8,0:0|0:0,0:0:0:0:
324,24,68280,1,0,0:0:0:0:
380,92,68606,6,0,P|384:144|360:200,1,90,2|0,0:0|0:0,0:0:0:0:
336,260,69258,1,8,0:0:0:0:
256,300,69584,1,0,0:0:0:0:
168,284,69910,2,0,P|136:224|168:120,2,180,2|8|2,0:0|0:0|0:0,0:0:0:0:
236,344,71541,5,0,0:0:0:0:
312,296,71867,2,0,P|356:292|420:312,1,90,8|0,0:0|0:0,0:0:0:0:
488,328,72519,2,0,P|529:250|506:166,1,180,2|8,0:0|0:0,0:0:0:0:
452,96,73497,1,0,0:0:0:0:
392,164,73823,6,0,P|348:176|302:167,1,90,4|0,0:0|0:0,0:0:0:0:
220,140,74475,2,0,P|176:128|128:144,1,90,8|0,0:0|0:0,0:0:0:0:
68,200,75127,2,0,B|44:272|80:336|80:336|156:332,1,180,2|8,0:0|0:0,0:0:0:0:
208,348,76105,1,0,0:0:0:0:
292,316,76431,6,0,L|396:316,1,90,2|0,0:0|0:0,0:0:0:0:
400,228,77084,2,0,L|310:228,1,90,8|0,0:0|0:0,0:0:0:0:
224,252,77736,2,0,B|180:196|180:196|176:136|236:88,1,180,2|8,0:0|0:0,0:0:0:0:
292,44,78714,1,0,0:0:0:0:
352,112,79040,6,0,P|396:120|440:108,2,90,2|0|8,0:0|0:0|0:0,0:0:0:0:
292,44,80018,1,0,0:0:0:0:
264,132,80345,2,0,B|244:184|256:228|256:228|232:260|232:260|276:328,1,180,2|8,0:0|0:0,0:0:0:0:
332,340,81323,1,0,0:0:0:0:
404,284,81649,5,0,0:0:0:0:
352,112,82302,1,0,0:0:0:0:
280,60,82628,1,0,0:0:0:0:
224,132,82954,2,0,P|180:144|116:132,1,90
52,112,83606,2,0,L|52:216,1,90,8|0,0:0|0:0,0:0:0:0:
48,292,84258,6,0,L|137:284,1,90,4|0,0:0|0:0,0:0:0:0:
216,328,84910,2,0,L|305:320,1,90,8|0,0:0|0:0,0:0:0:0:
380,372,85563,1,0,0:0:0:0:
448,316,85889,1,0,0:0:0:0:
376,264,86215,2,0,P|368:216|384:156,1,90,8|0,0:0|0:0,0:0:0:0:
420,96,86867,6,0,P|376:84|316:100,2,90,0|0|8,0:0|0:0|0:0,0:0:0:0:
464,172,87845,1,0,0:0:0:0:
448,260,88171,2,0,P|360:316|268:292,1,180,0|8,0:0|0:0,0:0:0:0:
204,272,89150,1,0,0:0:0:0:
132,216,89476,6,0,P|128:168|144:116,2,90,0|0|8,0:0|0:0|0:0,0:0:0:0:
204,272,90454,1,0,0:0:0:0:
284,232,90780,2,0,B|320:196|372:204|372:204|404:232|464:212,2,180,0|8|0,0:0|0:0|0:0,0:0:0:0:
204,272,92411,5,0,0:0:0:0:
136,208,92737,2,0,P|128:164|144:112,1,90,8|0,0:0|0:0,0:0:0:0:
200,56,93389,2,0,B|264:72|312:32|312:32|379:59,1,180,0|8,0:0|0:0,0:0:0:0:
448,96,94367,1,0,0:0:0:0:
484,180,94693,6,0,P|492:228|468:296,1,90,4|0,0:0|0:0,0:0:0:0:
392,256,95345,2,0,P|383:212|391:168,1,90,8|0,0:0|0:0,0:0:0:0:
448,96,95998,2,0,P|366:63|286:99,1,180,0|8,0:0|0:0,0:0:0:0:
236,172,96976,1,0,0:0:0:0:
296,240,97302,6,0,B|352:248|352:248|400:240,1,90
360,332,97954,2,0,B|304:324|304:324|256:332,1,90,8|0,0:0|0:0,0:0:0:0:
180,320,98606,2,0,B|152:252|152:252|140:200|196:136,1,180,0|8,0:0|0:0,0:0:0:0:
232,76,99584,1,0,0:0:0:0:
308,124,99911,6,0,B|356:128|356:128|412:116,1,90
400,28,100562,2,0,B|352:24|352:24|296:36,1,90,8|0,0:0|0:0,0:0:0:0:
232,76,101215,2,0,P|195:155|231:235,1,180,0|8,0:0|0:0,0:0:0:0:
300,292,102193,1,0,0:0:0:0:
384,320,102519,6,0,L|456:256,1,90
428,172,103171,2,0,L|356:236,1,90,8|0,0:0|0:0,0:0:0:0:
292,176,103823,2,0,L|428:56,1,180,0|8,0:0|0:0,0:0:0:0:
488,124,104802,1,0,0:0:0:0:
484,212,105128,6,0,P|440:228|388:220,1,90,4|0,0:0|0:0,0:0:0:0:
336,160,105781,2,0,P|312:208|312:264,1,90,8|0,0:0|0:0,0:0:0:0:
348,324,106433,1,0,0:0:0:0:
264,356,106759,1,0,0:0:0:0:
192,300,107085,2,0,L|102:293,1,90,8|0,0:0|0:0,0:0:0:0:
84,204,107736,6,0,L|173:197,2,90,0|0|8,0:0|0:0|0:0,0:0:0:0:
20,140,108715,1,0,0:0:0:0:
76,72,109041,2,0,L|260:52,1,180,0|8,0:0|0:0,0:0:0:0:
340,84,110020,1,0,0:0:0:0:
288,156,110346,6,0,P|280:208|296:264,2,90,0|0|8,0:0|0:0|0:0,0:0:0:0:
340,84,111324,1,0,0:0:0:0:
280,16,111650,2,0,L|100:23,2,180,0|8|0,0:0|0:0|0:0,0:0:0:0:
368,24,113281,5,0,0:0:0:0:
428,92,113607,2,0,L|408:180,1,90,8|0,0:0|0:0,0:0:0:0:
376,264,114259,2,0,P|284:240|192:284,1,180,0|8,0:0|0:0,0:0:0:0:
144,332,115237,1,0,0:0:0:0:
68,280,115563,6,0,P|60:236|68:180,1,90,4|0,0:0|0:0,0:0:0:0:
108,112,116215,2,0,P|152:100|208:112,1,90,8|0,0:0|0:0,0:0:0:0:
272,156,116868,2,0,P|352:184|448:144,1,180,0|8,0:0|0:0,0:0:0:0:
500,88,117846,1,0,0:0:0:0:
420,44,118172,6,0,P|376:36|330:44,1,90
260,96,118823,2,0,P|216:104|170:96,1,90,8|0,0:0|0:0,0:0:0:0:
96,48,119476,2,0,P|140:122|113:205,1,180,0|8,0:0|0:0,0:0:0:0:
52,272,120454,1,0,0:0:0:0:
132,316,120781,6,0,L|236:308,1,90
304,340,121432,2,0,L|408:332,1,90,8|0,0:0|0:0,0:0:0:0:
476,296,122085,2,0,P|440:216|488:128,1,180,0|8,0:0|0:0,0:0:0:0:
492,48,123063,1,0,0:0:0:0:
404,76,123389,6,0,L|288:84,1,90
224,68,124041,2,0,L|108:76,1,90,8|0,0:0|0:0,0:0:0:0:
52,116,124693,2,0,P|40:164|52:212,1,90
92,280,125345,2,0,P|136:268|196:284,1,90,8|0,0:0|0:0,0:0:0:0:
260,320,125998,5,2,0:0:0:0:
480,36,127302,1,2,0:0:0:0:
212,64,128280,1,0,0:0:0:0:
124,76,128606,5,2,0:0:0:0:
380,328,129910,1,2,0:0:0:0:
112,340,130889,1,0,0:0:0:0:
76,256,131215,5,2,0:0:0:0:
396,88,132519,1,2,0:0:0:0:
128,80,133497,1,0,0:0:0:0:
80,156,133823,5,2,0:0:0:0:
236,248,134475,1,0,0:0:0:0:
360,116,135128,1,2,0:0:0:0:
96,136,136106,6,0,P|84:184|96:226,1,90,0|2,0:0|0:0,0:0:0:0:
432,316,137736,1,2,0:0:0:0:
208,164,138715,6,0,P|196:128|204:64,1,90,0|2,0:0|0:0,0:0:0:0:
64,204,139693,2,0,L|78:304,1,90
160,320,140345,2,0,P|243:291|324:324,2,180,2|0|2,0:0|0:0|0:0,0:0:0:0:
384,40,142954,5,2,0:0:0:0:
216,108,143606,1,0,0:0:0:0:
168,184,143932,1,0,0:0:0:0:
180,272,144258,1,2,0:0:0:0:
508,168,145562,6,0,L|372:168,2,135,2|0|0,0:0|0:0|0:0,0:0:0:0:
484,256,146867,1,2,0:0:0:0:
