osu file format v9

[General]
AudioFilename: 06.Otokaze- - Natsu koi (keran) (Short ver.).mp3
AudioLeadIn: 1500
PreviewTime: 84582
Countdown: 0
SampleSet: Normal
StackLeniency: 0.7
Mode: 1
LetterboxInBreaks: 0

[Editor]
Bookmarks: 43169
DistanceSpacing: 0
BeatDivisor: 4
GridSize: 8

[Metadata]
Title:Karen (Short Ver.)
Artist:Otokaze
Creator:spboxer3
Version:Taiko Oni
Source:
Tags:ertyukjh010 sokiyar Chill Collection Vol.3

[Difficulty]
HPDrainRate:5
CircleSize:5
OverallDifficulty:5
ApproachRate:5
SliderMultiplier:1.2
SliderTickRate:1

[Events]
//Background and Video events
0,0,"BG.jpg"
//Break Periods
//Storyboard Layer 0 (Background)
//Storyboard Layer 1 (Fail)
//Storyboard Layer 2 (Pass)
//Storyboard Layer 3 (Foreground)
//Storyboard Sound Samples
//Background Colour Transformations
3,100,163,162,255

[TimingPoints]
126,326.086956521739,4,1,0,80,1,0
20995,-95.2380952380952,4,1,0,80,0,0
21484,-90.9090909090909,4,1,0,80,0,0
21973,-86.9565217391304,4,1,0,80,0,0
22299,-83.3333333333333,4,1,0,80,0,1
42517,-85.4700854700855,4,1,0,80,0,1
42680,-88.4955752212389,4,1,0,80,0,1
42843,-90.9090909090909,4,1,0,80,0,1
43006,-93.4579439252336,4,1,0,80,0,1
43169,-96.1538461538461,4,1,0,80,0,0
43332,-100,4,1,0,80,0,0
82952,-95.2380952380952,4,1,0,80,0,0
83278,-90.9090909090909,4,1,0,80,0,0
83604,-86.9565217391304,4,1,0,80,0,0
83930,-83.3333333333333,4,1,0,80,0,0
84256,-80,4,1,0,80,0,0
84582,-76.9230769230769,4,1,0,80,0,0
84908,-76.9230769230769,4,1,0,80,0,1
126647,-76.9230769230769,4,1,0,80,0,0
126973,-83.3333333333333,4,1,0,80,0,0
127299,-90.9090909090909,4,1,0,80,0,0
127625,-100,4,1,0,80,0,0

[Colours]
Combo1 : 0,128,255
Combo2 : 255,128,128
SliderBorder : 215,213,200

[HitObjects]
256,192,778,1,0
256,192,1104,1,0
256,192,1267,5,8
256,192,1430,5,0
256,192,1756,1,0
256,192,2082,5,8
256,192,2408,5,0
256,192,2571,5,8
256,192,2734,1,8
256,192,3060,5,0
256,192,3386,5,8
256,192,3712,5,0
256,192,4039,1,0
256,192,4528,5,8
256,192,4691,5,0
256,192,5017,1,0
256,192,5343,5,8
256,192,5669,5,0
256,192,5995,5,8
256,192,6321,1,8
256,192,6484,1,8
256,192,6647,5,0
256,192,6973,1,0
256,192,7299,5,8
256,192,7625,5,0
256,192,7789,5,8
256,192,7952,5,0
256,192,8278,1,0
256,192,8604,5,8
256,192,8930,5,0
256,192,9256,1,0
256,192,9745,5,8
256,192,9908,5,0
256,192,10234,1,0
256,192,10560,5,8
256,192,10886,1,8
256,192,11212,1,8
256,192,11375,1,8
256,192,11539,5,0
256,192,11702,5,8
256,192,11865,5,0
256,192,12191,1,0
256,192,12517,5,8
256,192,12843,5,0
256,192,13006,5,8
256,192,13169,5,0
256,192,13495,1,0
256,192,13821,5,8
256,192,14147,5,0
256,192,14473,1,0
256,192,14962,5,8
256,192,15125,5,0
256,192,15452,1,0
256,192,15778,5,8
256,192,16104,5,0
256,192,16430,1,0
256,192,16756,5,8
256,192,17082,1,8
256,192,17734,1,8
256,192,18386,1,8
256,192,19039,1,8
256,192,19365,5,0
256,192,19691,1,0
256,192,20180,1,0
256,192,20343,5,8
256,192,20669,5,0
256,192,20995,1,4
256,192,21484,1,4
256,192,21973,1,4
256,192,22299,1,4
256,192,22462,5,8
256,192,22625,5,0
256,192,22789,1,0
256,192,22952,5,8
256,192,23115,5,0
256,192,23441,5,8
256,192,23604,5,0
256,192,23767,5,8
256,192,23930,5,0
256,192,24093,1,0
256,192,24256,5,8
256,192,24419,5,0
256,192,24582,5,8
256,192,24745,1,8
256,192,24908,5,0
256,192,25071,5,8
256,192,25234,5,0
256,192,25397,1,0
256,192,25560,5,8
256,192,25723,5,0
256,192,26049,5,8
256,192,26212,5,0
256,192,26375,5,8
256,192,26539,5,0
256,192,26702,1,0
256,192,26865,5,8
256,192,27028,5,0
256,192,27191,5,8
256,192,27354,1,8
256,192,27435,5,0
256,192,27517,1,0
256,192,27680,5,8
256,192,27843,5,0
256,192,28006,1,0
256,192,28169,5,8
256,192,28332,5,0
256,192,28658,5,8
256,192,28821,5,0
256,192,28984,5,8
256,192,29147,5,0
256,192,29310,1,0
256,192,29473,5,8
256,192,29636,5,0
256,192,29799,5,8
256,192,29962,1,8
256,192,30125,5,0
256,192,30289,5,8
256,192,30452,5,0
256,192,30615,1,0
256,192,30778,5,8
256,192,31104,5,0
256,192,31185,1,0
256,192,31267,1,0
256,192,31430,1,0
256,192,31593,5,8
256,192,31756,5,0
256,192,31919,1,0
256,192,32082,5,8
256,192,32245,5,0
256,192,32408,5,8
256,192,32571,1,8
256,192,32734,5,4
256,192,32897,5,8
256,192,33060,5,0
256,192,33223,1,0
256,192,33386,5,8
256,192,33549,5,0
256,192,33875,5,8
256,192,34039,5,0
256,192,34202,5,8
256,192,34365,5,0
256,192,34528,1,0
256,192,34691,5,8
256,192,34854,5,0
256,192,35017,5,8
256,192,35180,1,8
256,192,35343,5,0
256,192,35506,5,8
256,192,35669,5,0
256,192,35832,1,0
256,192,35995,5,8
256,192,36158,5,0
256,192,36484,5,8
256,192,36647,5,0
256,192,36810,5,8
256,192,36973,5,0
256,192,37136,1,0
256,192,37299,5,8
256,192,37462,5,0
256,192,37625,5,8
256,192,37789,1,8
256,192,37870,1,8
256,192,37952,5,0
256,192,38115,5,8
256,192,38278,5,0
256,192,38441,1,0
256,192,38604,5,8
256,192,38767,5,0
256,192,38930,5,8
256,192,39093,1,8
256,192,39256,5,0
256,192,39419,1,0
256,192,39500,1,0
256,192,39582,5,8
256,192,39745,1,8
256,192,39908,5,0
256,192,40153,1,0
256,192,40234,5,8
256,192,40397,1,8
256,192,40560,5,0
256,192,40723,5,8
256,192,40886,5,0
256,192,41049,1,0
256,192,41212,5,8
256,192,41539,1,8
256,192,41620,1,8
256,192,41702,1,8
256,192,41865,5,0
256,192,42028,5,8
256,192,42191,5,0
256,192,42354,1,0
256,192,42517,5,12
256,192,42680,1,12
256,192,42843,1,12
256,192,43006,1,12
256,192,43169,5,0
256,192,43495,1,0
256,192,43821,5,8
256,192,44310,5,0
256,192,44473,1,0
256,192,44799,1,0
256,192,45125,5,8
256,192,45452,1,8
256,192,45615,1,8
256,192,45778,5,0
256,192,46104,1,0
256,192,46430,5,8
256,192,46919,1,8
256,192,47082,5,0
256,192,47408,1,0
256,192,47734,5,8
256,192,47897,5,0
256,192,48060,5,8
256,192,48223,1,8
256,192,48386,5,0
256,192,48712,1,0
256,192,49039,5,8
256,192,49528,5,0
256,192,49691,1,0
256,192,50017,1,0
256,192,50343,5,8
256,192,50669,1,8
256,192,50832,1,8
256,192,50995,5,0
256,192,51321,1,0
256,192,51647,5,8
256,192,51973,1,8
256,192,52136,1,8
256,192,52299,5,0
256,192,52625,1,0
256,192,52952,5,8
256,192,53115,5,0
256,192,53278,5,8
256,192,53441,1,8
256,192,53604,5,0
256,192,53930,1,0
256,192,54256,5,8
256,192,54745,5,0
256,192,54908,1,0
256,192,55234,1,0
256,192,55560,5,8
256,192,55886,1,8
256,192,56049,1,8
256,192,56212,5,0
256,192,56539,1,0
256,192,56865,5,8
256,192,57191,1,8
256,192,57354,1,8
256,192,57517,5,0
256,192,57843,1,0
256,192,58169,5,8
256,192,58332,5,0
256,192,58495,5,8
256,192,58658,1,8
256,192,58821,5,0
256,192,59147,1,0
256,192,59473,5,8
256,192,59962,5,0
256,192,60125,1,0
256,192,60452,1,0
256,192,60778,5,8
256,192,61104,1,8
256,192,61267,1,8
256,192,61430,5,4
256,192,62408,5,8
256,192,62734,5,4
256,192,63223,1,4
256,192,63712,1,4
256,192,64039,1,4
256,192,64202,5,8
256,192,64365,5,0
256,192,64528,1,0
256,192,64691,5,8
256,192,65017,5,0
256,192,65180,5,8
256,192,65506,1,8
256,192,65669,5,0
256,192,65995,5,8
256,192,66158,5,0
256,192,66321,5,8
256,192,66484,1,8
256,192,66647,5,0
256,192,66973,1,0
256,192,67299,5,8
256,192,67625,5,0
256,192,67789,5,8
256,192,68115,1,8
256,192,68278,5,0
256,192,68604,5,8
256,192,68767,5,0
256,192,68930,5,8
256,192,69093,1,8
256,192,69256,5,0
256,192,69582,1,0
256,192,69745,1,0
256,192,69908,5,8
256,192,70234,5,0
256,192,70397,5,8
256,192,70723,1,8
256,192,70886,5,0
256,192,71212,5,8
256,192,71539,1,8
256,192,71702,1,8
256,192,71865,5,0
256,192,72028,5,8
256,192,72191,5,0
256,192,72354,1,0
256,192,72517,5,8
256,192,72843,1,8
256,192,73006,5,0
256,192,73332,5,8
256,192,73495,5,0
256,192,73821,5,8
256,192,73984,1,8
256,192,74147,1,8
256,192,74310,1,8
256,192,74473,5,0
256,192,74799,1,0
256,192,74962,1,0
256,192,75125,5,8
256,192,75452,5,0
256,192,75615,5,8
256,192,75941,1,8
256,192,76104,5,0
256,192,76430,5,8
256,192,76593,5,0
256,192,76756,5,8
256,192,76919,1,8
256,192,77082,5,0
256,192,77408,1,0
256,192,77734,5,8
256,192,78060,5,0
256,192,78223,5,8
256,192,78549,1,8
256,192,78712,5,0
256,192,79039,5,8
256,192,79202,5,0
256,192,79528,5,8
256,192,79691,5,0
256,192,80017,1,0
256,192,80343,5,8
256,192,80669,5,0
256,192,80832,1,0
256,192,80995,5,8
256,192,81321,5,0
256,192,81647,5,8
256,192,81973,1,8
256,192,82299,5,0
256,192,82952,5,8
256,192,83278,1,8
256,192,83604,1,8
256,192,83930,1,8
256,192,84256,1,8
256,192,84582,1,8
256,192,84908,5,4
256,192,85071,5,8
256,192,85234,5,0
256,192,85397,1,0
256,192,85560,5,8
256,192,85723,5,0
256,192,85886,5,8
256,192,86049,1,8
256,192,86212,5,0
256,192,86375,5,8
256,192,86539,5,0
256,192,86702,1,0
256,192,86865,5,8
256,192,87028,5,0
256,192,87191,5,8
256,192,87354,1,8
256,192,87517,5,0
256,192,87680,5,8
256,192,87843,5,0
256,192,88006,1,0
256,192,88169,5,8
256,192,88332,5,0
256,192,88495,5,8
256,192,88604,5,0
256,192,88712,1,0
256,192,88821,1,0
256,192,88984,5,8
256,192,89147,5,0
256,192,89310,1,0
256,192,89473,5,8
256,192,89636,5,0
256,192,89799,5,8
256,192,89962,1,8
256,192,90125,5,0
256,192,90288,5,8
256,192,90452,5,0
256,192,90614,1,0
256,192,90777,5,8
256,192,90940,5,0
256,192,91103,5,8
256,192,91266,1,8
256,192,91429,5,0
256,192,91592,5,8
256,192,91756,5,0
256,192,91919,1,0
256,192,92082,5,8
256,192,92245,5,0
256,192,92408,5,8
256,192,92571,1,8
256,192,92734,5,0
256,192,92897,5,8
256,192,93223,1,8
256,192,93305,5,0
256,192,93386,1,0
256,192,93549,5,8
256,192,93712,5,0
256,192,93875,1,0
256,192,94038,5,8
256,192,94201,1,8
256,192,94528,1,8
256,192,94690,5,0
256,192,94853,1,0
256,192,95016,5,8
256,192,95180,5,0
256,192,95343,1,0
256,192,95506,5,8
256,192,95669,5,0
256,192,95832,1,0
256,192,95995,5,8
256,192,96158,5,0
256,192,96321,5,8
256,192,96484,1,8
256,192,96647,5,0
256,192,96810,5,8
256,192,96974,5,0
256,192,97137,1,0
256,192,97300,5,8
256,192,97463,5,0
256,192,97625,5,8
256,192,97789,1,8
256,192,97952,5,0
256,192,98115,5,8
256,192,98278,5,0
256,192,98441,1,0
256,192,98604,5,8
256,192,98767,5,0
256,192,98930,5,8
256,192,99039,5,0
256,192,99147,1,0
256,192,99256,1,0
256,192,99419,5,8
256,192,99582,5,0
256,192,99745,1,0
256,192,99908,5,8
256,192,100071,5,0
256,192,100234,5,8
256,192,100397,1,8
256,192,100560,5,0
256,192,100886,5,8
256,192,101049,5,0
256,192,101212,5,8
256,192,101375,5,0
256,192,101457,1,0
256,192,101539,1,0
256,192,101702,1,0
256,192,101865,5,8
256,192,102028,5,0
256,192,102354,5,8
256,192,102517,5,0
256,192,102680,1,0
256,192,102761,1,0
256,192,102843,5,8
256,192,103006,5,0
256,192,103169,1,0
256,192,103332,5,8
256,192,103658,1,8
256,192,103821,5,0
256,192,104147,5,8
256,192,104310,5,0
256,192,104636,5,8
256,192,104718,1,8
256,192,104799,5,0
256,192,104962,1,0
256,192,105125,5,8
256,192,105370,1,8
256,192,105615,1,8
256,192,105778,5,4
256,192,105941,1,0
256,192,106104,5,8
256,192,106267,5,0
256,192,106430,5,8
256,192,106593,1,8
256,192,106756,5,0
256,192,106919,5,8
256,192,107000,5,0
256,192,107082,1,0
256,192,107245,5,8
256,192,107409,5,0
256,192,107572,1,0
256,192,107735,5,8
256,192,107898,5,0
256,192,108060,5,8
256,192,108224,1,8
256,192,108387,5,0
256,192,108550,1,0
256,192,108712,5,8
256,192,108876,5,0
256,192,109039,1,0
256,192,109202,1,0
256,192,109365,5,8
256,192,109474,5,0
256,192,109582,1,0
256,192,109691,1,0
256,192,109854,5,8
256,192,110017,5,0
256,192,110180,1,0
256,192,110343,5,8
256,192,110506,5,0
256,192,110669,5,8
256,192,110832,1,8
256,192,110995,5,0
256,192,111158,1,0
256,192,111321,5,8
256,192,111484,5,0
256,192,111647,1,0
256,192,111810,5,8
256,192,111973,5,0
256,192,112136,5,8
256,192,112218,1,8
256,192,112299,5,0
256,192,112462,5,8
256,192,112626,5,0
256,192,112789,1,0
256,192,112952,5,8
256,192,113115,1,8
256,192,113278,5,0
256,192,113441,5,8
256,192,113604,5,0
256,192,113767,5,8
256,192,114093,1,8
256,192,114175,5,0
256,192,114256,1,0
256,192,114419,1,0
256,192,114582,5,8
256,192,114745,1,8
256,192,114908,5,0
256,192,115071,5,8
256,192,115398,1,8
256,192,115479,5,0
256,192,115560,1,0
256,192,115723,5,8
256,192,115886,1,8
256,192,116050,1,8
256,192,116213,5,4
256,192,116376,1,0
256,192,116539,5,8
256,192,116702,5,0
256,192,116865,1,0
256,192,117028,5,8
256,192,117191,5,0
256,192,117354,5,8
256,192,117435,5,0
256,192,117517,1,0
256,192,117680,5,8
256,192,117844,5,0
256,192,118007,1,0
256,192,118169,5,8
256,192,118333,5,0
256,192,118496,5,8
256,192,118659,1,8
256,192,118822,5,0
256,192,118985,1,0
256,192,119148,5,8
256,192,119311,5,0
256,192,119474,1,0
256,192,119637,1,0
256,192,119799,5,8
256,192,119909,5,0
256,192,120017,1,0
256,192,120126,1,0
256,192,120289,5,8
256,192,120452,5,0
256,192,120615,1,0
256,192,120778,5,8
256,192,120941,5,0
256,192,121104,5,8
256,192,121267,1,8
256,192,121430,5,0
256,192,121756,5,8
256,192,121919,5,0
256,192,122082,5,8
256,192,122245,5,0
256,192,122327,1,0
256,192,122409,1,0
256,192,122572,1,0
256,192,122735,5,8
256,192,122898,5,0
256,192,123224,5,8
256,192,123386,5,0
256,192,123549,5,8
256,192,123631,5,0
256,192,123713,5,8
256,192,123876,1,8
256,192,124039,5,0
256,192,124202,5,8
256,192,124528,5,0
256,192,124691,5,8
256,192,125017,1,8
256,192,125180,5,0
256,192,125506,5,8
256,192,125588,5,0
256,192,125669,1,0
256,192,125832,5,8
256,192,125995,5,0
256,192,126158,1,0
256,192,126321,5,8
256,192,126485,1,8
256,192,126648,1,12
256,192,126973,5,0
256,192,127299,5,8
256,192,127789,1,8
256,192,127952,5,0
256,192,128278,1,0
256,192,128604,5,8
256,192,128930,5,0
256,192,129093,1,0
256,192,129256,5,8
256,192,129582,5,0
256,192,129908,5,8
256,192,130397,1,8
256,192,130560,5,0
256,192,130886,1,0
256,192,131212,5,8
256,192,131375,5,0
256,192,131539,5,8
256,192,131702,1,8
256,192,131865,5,0
256,192,132191,1,0
256,192,132517,5,8
256,192,133006,1,8
256,192,133169,5,0
256,192,133495,1,0
256,192,133821,5,8
256,192,133984,5,0
256,192,134147,5,8
256,192,134310,5,0
256,192,134473,1,0
256,192,134962,1,0
256,192,135125,5,8
256,192,135615,5,0
256,192,135778,5,8
256,192,136104,1,8
256,192,136430,1,8
256,192,136593,1,8
256,192,136756,1,8
256,192,136919,1,8
256,192,137082,5,0
256,192,137408,1,0
256,192,137734,5,8
256,192,138386,5,0
256,192,138549,1,0
256,192,138875,5,8
256,192,139202,1,8
256,192,139365,5,0
256,192,139528,5,8
256,192,139691,5,0
256,192,140017,1,0
256,192,140343,5,8
256,192,140669,5,0
256,192,140832,5,8
256,192,140995,5,0
256,192,141321,1,0
256,192,141647,5,8
256,192,141973,1,8
256,192,142136,1,8
256,192,142299,5,0
256,192,142789,1,0
256,192,142952,5,8
256,192,143278,1,8
256,192,143604,5,0
256,192,144093,1,0
256,192,144256,5,8
256,192,144582,5,0
256,192,144908,12,0,147517
