osu file format v9

[General]
AudioFilename: 06.Otokaze- - Natsu koi (keran) (Short ver.).mp3
AudioLeadIn: 1500
PreviewTime: 84582
Countdown: 0
SampleSet: Soft
StackLeniency: 0.7
Mode: 0
LetterboxInBreaks: 0

[Editor]
Bookmarks: 43169
DistanceSpacing: 1
BeatDivisor: 4
GridSize: 4

[Metadata]
Title:Karen (Short Ver.)
Artist:Otokaze
Creator:spboxer3
Version:Karen
Source:
Tags:ertyukjh010 sokiyar Chill Collection Vol.3

[Difficulty]
HPDrainRate:4
CircleSize:4
OverallDifficulty:4
ApproachRate:6
SliderMultiplier:1.2
SliderTickRate:1

[Events]
//Background and Video events
0,0,"BG.jpg"
//Break Periods
2,43369,52299
//Storyboard Layer 0 (Background)
Sprite,Background,Centre,"SB\SB.jpg",320,240 F,1,22299,24256,1,0 S,1,22299,24256,1,1.2
Sprite,Background,Centre,"SB\SB2.jpg",320,240 F,1,32734,34365,1,0 S,1,32734,34365,1,1.2
Sprite,Background,Centre,"SB\SB3.jpg",320,240 F,0,43169,43495,0,1 M,0,43495,84908,320,240 F,0,82952,84908,1,0
Sprite,Background,Centre,"SB\SB.jpg",320,240 F,1,84908,86865,1,0 S,1,84908,86865,1,1.2
Sprite,Background,Centre,"SB\SB2.jpg",320,240 F,1,95343,97299,1,0 S,1,95343,97299,1,1.2
Sprite,Background,Centre,"SB\SB4.jpg",320,240 F,1,105778,107734,1,0 S,1,105778,107734,1,1.2
Sprite,Background,Centre,"SB\SB2.jpg",320,240 F,1,116212,118169,1,0 S,1,116212,118169,1,1.2
Sprite,Background,Centre,"SB\black.jpg",320,240 F,0,124039,126647,0,1 M,0,126321,160049,320,240
Sprite,Background,Centre,"SB\SB5.jpg",320,240 F,1,126647,144908,0,1 F,1,144908,147517,1,0
Sprite,Background,Centre,"SB\SB6.jpg",320,240 S,0,147517,156647,1,0.8 R,0,147517,156647,0,1.047 F,0,151430,156647,1,0
//Storyboard Layer 1 (Fail)
//Storyboard Layer 2 (Pass)
//Storyboard Layer 3 (Foreground)
//Storyboard Sound Samples
//Background Colour Transformations
3,100,163,162,255

[TimingPoints]
126,326.086956521739,4,2,0,50,1,0
818,-100,4,2,1,50,0,0
1104,-100,4,2,0,50,0,0
2123,-100,4,2,1,50,0,0
2408,-100,4,2,0,50,0,0
3427,-100,4,2,1,50,0,0
3712,-100,4,2,0,50,0,0
4079,-100,4,2,1,50,0,0
4365,-100,4,2,0,50,0,0
4731,-100,4,2,1,50,0,0
5017,-100,4,2,0,50,0,0
5384,-100,4,2,1,50,0,0
5669,-100,4,2,0,50,0,0
5710,-100,4,2,1,50,0,0
5832,-100,4,2,0,50,0,0
5873,-100,4,2,1,50,0,0
5995,-100,4,2,0,50,0,0
6036,-100,4,2,1,50,0,0
6321,-100,4,2,0,50,0,0
6688,-100,4,2,1,50,0,0
6973,-100,4,2,0,50,0,0
7666,-100,4,2,1,50,0,0
7952,-100,4,2,0,50,0,0
7992,-100,4,2,1,50,0,0
8278,-100,4,2,0,50,0,0
8645,-100,4,2,1,50,0,0
8930,-100,4,2,0,50,0,0
11253,-100,4,2,1,50,0,0
11539,-100,4,2,0,50,0,0
11905,-100,4,2,1,50,0,0
12191,-100,4,2,0,50,0,0
12884,-100,4,2,1,50,0,0
13169,-100,4,2,0,50,0,0
13862,-100,4,2,1,50,0,0
14147,-100,4,2,0,50,0,0
14514,-100,4,2,1,50,0,0
14799,-100,4,2,0,5,0,0
14840,-100,4,2,1,50,0,0
14962,-100,4,2,0,50,0,0
15003,-100,4,2,1,50,0,0
15125,-100,4,2,0,5,0,0
15166,-100,4,2,1,50,0,0
15452,-100,4,2,0,50,0,0
15818,-100,4,2,1,50,0,0
16104,-100,4,2,0,50,0,0
16145,-100,4,2,1,50,0,0
16430,-100,4,2,0,50,0,0
17123,-100,4,2,1,50,0,0
17408,-100,4,2,0,50,0,0
17775,-100,4,2,1,50,0,0
18060,-100,4,2,0,50,0,0
18427,-100,4,2,1,50,0,0
18712,-100,4,2,0,50,0,0
19079,-100,4,2,1,50,0,0
19365,-100,4,2,0,50,0,0
22299,-100,4,2,0,70,0,1
22381,-100,4,2,1,70,0,1
43087,-100,4,2,1,70,0,0
43169,-100,4,2,0,40,0,1
43250,-100,4,2,2,70,0,0
64039,-100,4,2,0,70,0,0
64120,-100,4,2,1,70,0,0
82952,-100,4,2,2,30,0,0
83278,-100,4,2,2,40,0,0
83604,-100,4,2,2,50,0,0
83930,-100,4,2,2,60,0,0
84256,-100,4,2,2,70,0,0
84582,-100,4,2,2,80,0,0
84908,-100,4,2,0,80,0,1
84990,-100,4,2,1,80,0,1
95343,-100,4,2,2,80,0,1
95424,-100,4,2,1,80,0,1
105778,-100,4,2,0,80,0,1
105859,-100,4,2,1,80,0,1
126647,-133.333333333333,4,2,2,80,0,0
144990,-133.333333333333,4,2,1,40,0,0

[Colours]
Combo1 : 255,128,128
Combo2 : 217,160,85
SliderBorder : 215,213,200

[HitObjects]
368,51,778,2,0,B|341:46|304:62|288:99|293:127,1,120
368,192,1430,1,2
144,51,2082,2,0,B|170:46|207:62|223:99|218:127,1,120
144,192,2734,1,2
308,302,3386,2,0,B|293:324|255:339|218:324|202:301,1,120,0|2
102,296,4039,6,0,B|159:260|144:189,1,120,0|2
73,121,4691,2,0,B|83:95|115:70|155:75|175:93,1,120,2|0
256,150,5343,2,0,B|256:332,2,180,2|0|2
338,91,6647,6,0,B|357:75|397:70|429:95|439:121,1,120
376,192,7299,1,2
439,263,7625,2,0,B|429:289|397:314|357:309|338:292,2,120
376,192,8604,2,0,B|256:192,1,120,2|0
192,120,9256,5,0
16,192,9908,1,0
192,264,10560,1,2
16,192,11212,6,0,B|136:192,1,120,0|2
96,280,11865,2,0,B|91:305|106:342|144:358|170:353,1,120
256,304,12517,1,2
341,353,12843,2,0,B|367:358|405:342|420:305|416:280,1,120
432,88,13821,2,0,B|312:88,1,120,2|0
256,168,14473,6,0,B|200:136|112:176|56:144,2,180
312,248,15778,2,0,B|316:273|301:310|263:326|237:321,2,120,2|0|0
352,160,16756,1,0
448,136,17082,6,0,B|452:110|437:73|399:57|373:62,1,120
288,96,17734,2,0,B|160:96,1,120,2|0
82,140,18386,2,0,B|60:154|45:191|60:229|82:244,1,120
160,296,19039,2,0,B|181:281|196:244|181:206|159:191,1,120,2|0
256,192,19691,12,0,21647
205,275,22299,6,0,B|219:296|256:311|294:296|309:274,1,120,4|0
360,192,22952,1,8
316,108,23278,2,0,B|196:108,2,120
411,114,24256,6,0,B|443:136|465:191|443:248|410:271,1,180,8|8
360,272,24908,2,0,B|240:272,1,120,0|0
168,336,25560,2,0,B|140:333|108:308|103:268|114:246,1,120,0|0
80,152,26212,2,0,B|104:163|145:157|169:126|171:101,1,120
256,56,26865,2,0,B|448:56,1,180,8|0
416,104,27517,6,0,B|404:126|410:166|442:191|468:193,1,120
448,288,28169,1,8
360,328,28495,2,0,B|341:347|301:356|267:336|256:313,2,120
336,232,29473,6,0,B|304:176|208:176|178:215,1,180,8|8
136,240,30125,2,0,B|56:144,1,120,0|0
80,56,30778,2,0,B|160:152,1,120,8|0
224,80,31430,2,0,B|264:112|344:120|400:88,1,180,8|0
384,40,32082,2,0,B|416:176,1,120,8|8
456,240,32734,6,0,B|453:267|428:299|388:304|366:293,1,120,4|0
312,216,33386,1,0
280,304,33712,2,0,B|255:292|214:298|190:329|188:354,2,120
312,216,34691,6,0,B|240:216|240:216|176:216|136:144,1,180,8|8
149,117,35343,2,0,B|151:89|176:57|216:52|238:63,1,120
312,120,35995,2,0,B|432:120,1,120,8|0
496,192,36647,2,0,B|408:192|408:192|400:248|431:278,1,180,0|0
464,312,37299,2,0,B|344:312,1,120,8|0
256,352,37952,6,0,B|208:344|192:296|192:296|144:312|96:288,2,180
256,256,39256,2,0,B|304:176|257:83,1,180,8|0
224,48,39908,2,0,B|257:109|335:113,1,120,8|0
416,128,40560,6,0,B|464:248,1,120
408,320,41212,2,0,B|360:200,1,120,8|0
312,288,41865,2,0,B|248:288|248:288|192:264|192:264|136:264,2,180
256,368,43169,1,4
376,139,53604,6,0,B|398:154|413:192|398:229|377:244,1,120
284,232,54256,1,8
316,320,54582,2,0,B|180:320,2,120
412,332,55560,2,0,B|437:329|469:304|475:264|463:240,1,120,8|0
464,144,56212,6,0,B|475:120|469:79|438:55|417:52|417:52|334:53,1,180
328,88,56865,2,0,B|192:88,1,120,8|0
136,152,57517,2,0,B|88:160|64:144|16:152,2,120,0|0|8
176,176,58332,2,0,B|304:176,1,120,0|8
343,176,58821,6,0,B|368:178|400:203|406:243|394:267,1,120
296,248,59473,1,8
328,336,59799,2,0,B|448:336,2,120
232,320,60778,2,0,B|104:320,1,120,8|0
256,192,61430,12,0,63386
256,264,64039,6,0,B|254:289|229:321|189:327|165:314,2,120,0|0|8
352,288,65017,2,0,B|320:160,1,120
384,96,65669,1,0
288,88,65995,2,0,B|265:98|225:93|199:61|199:34,1,120,8|0
104,40,66647,6,0,B|32:40|32:40|16:96|72:152,1,180
80,184,67299,2,0,B|96:256|56:304,1,120,8|0
152,336,67952,1,0
232,280,68278,2,0,B|352:264,1,120,0|8
312,296,68767,2,0,B|432:280,1,120,0|8
424,328,69256,6,0,B|448:208,1,120
464,120,69908,2,0,B|400:120|346:97,1,120,8|0
256,64,70560,2,0,B|200:40|136:32,2,120,0|0|8
272,160,71539,1,0
312,248,71865,6,0,B|326:286|362:304|362:304|319:336|260:322,1,180
216,312,72517,2,0,B|152:296|98:322,1,120,8|0
64,232,73169,2,0,B|127:213|160:163,1,120
128,72,73821,2,0,B|184:32,1,60,8|0
216,64,74147,2,0,B|272:24,1,60,8|8
304,56,74473,6,0,B|360:48|423:55,1,120
472,136,75125,2,0,B|416:144|352:136,1,120,8|0
272,192,75778,1,0
352,247,76104,2,0,B|416:240|472:248,2,120,0|8|0
288,320,77082,6,0,B|240:312|152:304|96:328,1,180
64,344,77734,2,0,B|16:216,1,120,8|0
40,136,78386,1,0
112,200,78712,2,0,B|184:184|195:124,1,120,0|8
144,128,79202,2,0,B|272:120,1,120,0|8
312,120,79691,6,0,B|337:124|374:108|390:71|385:44,2,120,0|0|8
344,208,80669,2,0,B|384:256|392:320,1,120
304,288,81321,2,0,B|264:240|256:176,2,120,0|8|0
256,368,82299,5,0
168,192,82952,1,2
88,136,83278,1,2
176,96,83604,1,2
264,56,83930,1,2
256,152,84256,1,2
248,248,84582,1,2
336,208,84908,6,0,B|376:128|472:80,1,180,4|0
512,72,85560,2,0,B|449:103|383:61,1,120,8|0
304,40,86212,2,0,B|241:37|202:95,1,120
176,184,86865,2,0,B|238:186|277:128,1,120,8|0
344,192,87517,6,0,B|286:278|192:274,1,180
168,232,88169,2,0,B|232:344,1,120,8|0
320,328,88821,2,0,B|392:328|432:368,2,120,0|0|8
296,288,89636,2,0,B|264:232|286:172,1,120,0|8
328,144,90125,6,0,B|200:144,1,120
120,112,90778,2,0,B|136:168|123:231,1,120,8|0
104,272,91267,2,0,B|152:312|216:304,1,120,8|0
264,296,91756,2,0,B|328:288|376:328,2,120,0|8|0
288,200,92734,6,0,B|320:64,1,120
400,40,93386,2,0,B|368:176,1,120,8|0
416,240,94039,2,0,B|408:304|352:336|352:336|289:336,1,180,0|0
240,328,94691,2,0,B|168:320|120:332,1,120,8|8
32,359,95343,6,0,B|48:272|16:272|30:180,1,180,4|0
64,144,95995,2,0,B|104:104|176:96,1,120,8|0
152,192,96647,2,0,B|219:184|259:144,1,120,0|8
296,112,97136,2,0,B|432:112,1,120
432,64,97625,2,0,B|392:184,1,120,8|0
416,272,98278,6,0,B|407:295|375:320|335:315|314:297,1,120
272,272,98767,2,0,B|136:272,1,120,8|8
168,320,99256,2,0,B|120:192,1,120
32,176,99908,2,0,B|80:304,1,120,8|8
168,320,100560,6,0,B|264:320|327:248,1,180
360,216,101212,2,0,B|408:176|464:160,1,120,8|0
440,64,101865,2,0,B|378:74|321:60,1,120
280,152,102517,2,0,B|221:130|179:89,1,120,8|0
256,192,103169,12,0,105125
256,192,105778,6,0,B|240:232|272:320|256:376,1,180,4|0
208,360,106430,2,0,B|144:344|104:296,1,120,8|0
88,208,107082,2,0,B|64:64,2,120,0|0|8
120,248,107897,2,0,B|184:256|240:216,1,120,0|8
280,200,108386,6,0,B|335:173|397:192,1,120
472,256,109039,2,0,B|416:282|354:263,1,120,8|0
288,328,109691,2,0,B|168:328,1,120
88,272,110343,2,0,B|32:232,1,60,8|0
80,208,110669,2,0,B|24:168,1,60,8|8
72,144,110995,6,0,B|16:112|16:112|56:64|119:70,1,180
168,80,111647,2,0,B|232:88|288:56,1,120,8|0
352,128,112299,2,0,B|384:192|368:264,1,120
304,312,112952,2,0,B|272:248|288:176,1,120,8|0
192,208,113604,6,0,B|120:200|72:240|72:240|60:305,1,180
24,328,114256,2,0,B|48:199,1,120,8|0
56,112,114908,2,0,B|120:120|176:80,1,120
256,40,115560,1,8
296,64,115723,2,0,B|344:96|408:104,1,120,0|8
424,56,116212,6,0,B|368:232,1,180,4|0
416,224,116865,2,0,B|376:352,1,120,8|0
288,304,117517,2,0,B|232:280|170:286,1,120
80,320,118169,1,8
64,272,118332,2,0,B|24:160,1,120,0|8
8,112,118821,6,0,B|56:80|123:100,1,120
200,160,119473,2,0,B|267:180|315:148,1,120,8|0
400,96,120125,2,0,B|456:216,2,120,0|0|8
440,64,120941,2,0,B|312:64,1,120,0|8
280,48,121430,6,0,B|208:56|176:40|96:48,1,180
72,88,122082,2,0,B|40:144|56:208,1,120,8|0
112,280,122734,2,0,B|144:224|128:160,2,120,0|0|8
128,376,123712,1,0
256,192,124039,12,0,125995
124,300,126647,6,0,B|204:316|292:212|212:108,1,269.999991953373,6|0
232,23,127952,2,0,B|178:84|224:212|354:195,1,269.999991953373,8|0
416,255,129256,2,0,B|389:177|255:153|205:274,1,269.999991953373,2|0
120,240,130560,2,0,B|24:192,1,89.9999973177911,8|0
32,112,131212,2,0,B|120:160,1,89.9999973177911,8|8
192,192,131865,6,0,B|280:176|342:99,1,179.999994635582,2|0
384,24,132843,1,8
424,104,133169,2,0,B|459:196|429:280,1,179.999994635582,0|0
384,352,134147,1,8
312,296,134473,2,0,B|248:296|248:296|200:288|200:288|128:288,1,179.999994635582,2|8
224,128,135778,2,0,B|160:104|80:104,2,134.999995976687,8|8|8
272,208,137082,6,0,B|360:208|448:160,2,179.999994635582,4|0|8
144,80,139039,1,2
104,256,139691,2,0,B|200:264|280:328,1,179.999994635582,0|0
336,376,140669,1,0
392,304,140995,2,0,B|456:224,1,89.9999973177911,8|0
360,208,141647,2,0,B|424:128,1,89.9999973177911,2|0
327,112,142299,6,0,B|240:112|151:82,1,179.999994635582,0|0
80,32,143278,1,8
72,120,143604,2,0,B|56:299,2,179.999994635582,0|0|2
256,192,144990,12,2,147517
