osu file format v9

[General]
AudioFilename: 06.Otokaze- - Natsu koi (keran) (Short ver.).mp3
AudioLeadIn: 1500
PreviewTime: 84582
Countdown: 0
SampleSet: Soft
StackLeniency: 0.7
Mode: 0
LetterboxInBreaks: 0

[Editor]
Bookmarks: 43169
DistanceSpacing: 1
BeatDivisor: 4
GridSize: 4

[Metadata]
Title:Karen (Short Ver.)
Artist:Otokaze
Creator:spboxer3
Version:Hanabi
Source:
Tags:ertyukjh010 sokiyar Chill Collection Vol.3

[Difficulty]
HPDrainRate:8
CircleSize:4
OverallDifficulty:7
ApproachRate:9
SliderMultiplier:1.6
SliderTickRate:1

[Events]
//Background and Video events
0,0,"BG.jpg"
//Break Periods
2,43369,52299
//Storyboard Layer 0 (Background)
Sprite,Background,Centre,"SB\SB.jpg",320,240 F,1,22299,24256,1,0 S,1,22299,24256,1,1.2
Sprite,Background,Centre,"SB\SB2.jpg",320,240 F,1,32734,34365,1,0 S,1,32734,34365,1,1.2
Sprite,Background,Centre,"SB\SB3.jpg",320,240 F,0,43169,43495,0,1 M,0,43495,84908,320,240 F,0,82952,84908,1,0
Sprite,Background,Centre,"SB\SB.jpg",320,240 F,1,84908,86865,1,0 S,1,84908,86865,1,1.2
Sprite,Background,Centre,"SB\SB2.jpg",320,240 F,1,95343,97299,1,0 S,1,95343,97299,1,1.2
Sprite,Background,Centre,"SB\SB4.jpg",320,240 F,1,105778,107734,1,0 S,1,105778,107734,1,1.2
Sprite,Background,Centre,"SB\SB2.jpg",320,240 F,1,116212,118169,1,0 S,1,116212,118169,1,1.2
Sprite,Background,Centre,"SB\black.jpg",320,240 F,0,124039,126647,0,1 M,0,126321,160049,320,240
Sprite,Background,Centre,"SB\SB5.jpg",320,240 F,1,126647,144908,0,1 F,1,144908,147517,1,0
Sprite,Background,Centre,"SB\SB6.jpg",320,240 S,0,147517,156647,1,0.8 R,0,147517,156647,0,1.047 F,0,151430,156647,1,0
//Storyboard Layer 1 (Fail)
//Storyboard Layer 2 (Pass)
//Storyboard Layer 3 (Foreground)
//Storyboard Sound Samples
//Background Colour Transformations
3,100,163,162,255

[TimingPoints]
126,326.086956521739,4,2,0,50,1,0
818,-100,4,2,1,50,0,0
1104,-100,4,2,0,50,0,0
1471,-100,4,2,1,50,0,0
1756,-100,4,2,0,50,0,0
2123,-100,4,2,1,50,0,0
2408,-100,4,2,0,50,0,0
2775,-100,4,2,1,50,0,0
3060,-100,4,2,0,50,0,0
3427,-100,4,2,1,50,0,0
3712,-100,4,2,0,50,0,0
5343,-200,4,2,2,50,0,0
5995,-100,4,2,0,50,0,0
6688,-100,4,2,1,50,0,0
6973,-100,4,2,0,50,0,0
7340,-100,4,2,1,50,0,0
7625,-100,4,2,0,50,0,0
7992,-100,4,2,1,50,0,0
8278,-100,4,2,0,50,0,0
8318,-100,4,2,1,50,0,0
8604,-100,4,2,0,50,0,0
9297,-100,4,2,1,50,0,0
9582,-100,4,2,0,50,0,0
9949,-100,4,2,1,50,0,0
10234,-100,4,2,0,50,0,0
10560,-200,4,2,0,50,0,0
10886,-200,4,2,0,5,0,0
10968,-200,4,2,0,50,0,0
11212,-100,4,2,0,50,0,0
11905,-100,4,2,1,50,0,0
12191,-100,4,2,0,50,0,0
12558,-100,4,2,1,50,0,0
12843,-100,4,2,0,50,0,0
13210,-100,4,2,1,50,0,0
13495,-100,4,2,0,50,0,0
13862,-100,4,2,1,50,0,0
14147,-100,4,2,0,50,0,0
15778,-200,4,2,2,50,0,0
16104,-200,4,2,2,5,0,0
16185,-200,4,2,2,50,0,0
16430,-100,4,2,0,50,0,0
17123,-100,4,2,1,50,0,0
17408,-100,4,2,0,50,0,0
17775,-100,4,2,1,50,0,0
18060,-100,4,2,0,50,0,0
19079,-100,4,2,1,50,0,0
19365,-100,4,2,0,50,0,0
22299,-100,4,2,0,70,0,1
22381,-100,4,2,1,70,0,1
43087,-100,4,2,1,70,0,0
43169,-100,4,2,0,40,0,1
43250,-100,4,2,2,70,0,0
61756,-100,4,2,2,5,0,0
61837,-100,4,2,2,70,0,0
62408,-100,4,2,2,5,0,0
62490,-100,4,2,2,70,0,0
64039,-100,4,2,0,70,0,0
64120,-100,4,2,1,70,0,0
82299,-100,4,2,1,40,0,0
82952,-100,4,2,2,30,0,0
83278,-100,4,2,2,40,0,0
83604,-100,4,2,2,50,0,0
83930,-100,4,2,2,60,0,0
84256,-100,4,2,2,70,0,0
84582,-100,4,2,2,80,0,0
84908,-100,4,2,0,80,0,1
84990,-100,4,2,1,80,0,1
95343,-100,4,2,2,80,0,1
95424,-100,4,2,1,80,0,1
105778,-100,4,2,0,80,0,1
105859,-100,4,2,1,80,0,1
126647,-133.333333333333,4,2,2,80,0,0
144908,-133.333333333333,4,2,1,40,0,0

[Colours]
Combo1 : 255,128,128
Combo2 : 217,160,85
SliderBorder : 215,213,200

[HitObjects]
416,328,778,2,0,B|372:316|345:285|332:247|344:203,1,160,0|0
411,159,1267,1,2
410,241,1430,2,0,B|378:272|338:280|297:272|266:240,1,160
160,360,2082,2,0,B|171:316|158:277|131:247|88:235,1,160,2|0
160,192,2571,1,2
88,148,2734,2,0,B|131:136|158:106|171:67|160:24,1,160
88,56,3223,1,0
152,104,3386,2,0,B|184:135|224:143|264:135|296:103,1,160,2|0
448,48,4039,5,0
344,264,4365,1,2
480,120,4691,1,0
344,264,5017,1,0
488,200,5343,6,0,B|444:211|405:198|375:171|363:128,1,160,6|0
216,64,6321,1,0
288,96,6484,1,2
280,176,6647,6,0,B|268:219|237:246|199:259|155:248,1,160
312,280,7299,2,0,B|343:248|384:240|424:248|455:280,1,160,2|0
459,359,7789,1,2
390,318,7951,2,0,B|378:274|391:235|418:205|462:193,2,160,0|0|2
256,224,8930,1,0
122,318,9256,2,0,B|133:274|120:235|93:205|49:193,1,160,0|2
72,352,9908,2,0,B|115:340|142:309|155:271|143:227,1,160,2|0
8,352,10560,6,0,B|168:352,1,160,2|0
256,216,11539,1,0
312,272,11702,1,2
336,192,11865,6,0,B|379:180|406:149|419:111|407:67,1,160
256,104,12517,2,0,B|212:115|173:102|143:75|131:32,1,160,2|0
48,24,13006,1,2
40,104,13169,2,0,B|71:135|79:175|71:216|39:247,1,160
120,260,13658,1,0
68,312,13821,2,0,B|79:355|110:382|148:395|192:384,1,160,2|0
320,288,14473,5,0
376,56,14799,1,2
264,232,15125,1,0
376,56,15451,1,0
248,152,15778,6,0,B|273:189|274:229|260:267|222:293,1,160,6|0
208,304,16756,1,0
192,312,17082,6,0,B|149:327|109:317|76:293|61:251,1,160,2|0
320,312,17734,2,0,B|362:327|402:317|435:293|450:251,1,160,2|0
336,144,18386,1,2
176,144,18712,1,0
256,280,19039,2,0,B|256:112,1,160,2|2
256,192,19691,12,2,21647
469,67,22299,5,4
392,120,22462,1,0
309,76,22625,1,0
224,128,22789,1,0
133,85,22952,2,0,B|37:90,1,80,8|0
32,280,23441,6,0,B|127:274,1,80,8|0
136,368,23767,1,0
227,349,23930,1,0
209,258,24093,1,0
300,240,24256,1,8
318,331,24419,1,0
300,240,24582,2,0,B|400:216,1,80,8|8
448,160,24908,6,0,B|412:142|401:96,1,80
312,72,25234,2,0,B|272:74|240:40,1,80,0|0
184,112,25560,1,8
88,128,25723,1,0
184,128,26049,5,8
88,144,26212,1,0
200,224,26375,1,0
104,240,26539,1,0
200,224,26702,1,0
288,112,26865,1,8
304,208,27028,1,0
384,96,27192,1,8
400,192,27355,1,8
464,264,27517,6,0,B|464:312|416:336,1,80,0|0
336,296,27843,2,0,B|294:320|249:290,1,80
244,201,28169,2,0,B|202:177|205:123,1,80,8|0
392,80,28658,5,8
300,47,28821,2,0,B|261:29|224:60,1,80,0|0
142,14,29147,2,0,B|113:45|131:89,1,80
62,154,29473,2,0,B|82:190|130:187,1,80,8|0
173,273,29799,2,0,B|214:264|225:217,1,80,8|8
283,139,30125,6,0,B|323:164|319:206,1,80
384,272,30452,1,8
288,296,30615,1,0
384,272,30778,2,0,B|424:246|420:204,1,80,8|0
472,88,31104,2,0,B|424:89|407:128,1,80,0|8
336,64,31430,1,0
256,8,31593,1,0
176,64,31756,1,8
88,32,31919,1,0
104,128,32082,2,0,B|81:170|106:204,1,80,8|0
216,304,32408,2,0,B|190:263|148:267,1,80,8|8
256,376,32734,5,4
352,352,32897,1,0
392,264,33060,1,0
488,240,33223,1,0
328,200,33386,1,8
232,224,33549,1,0
320,184,33875,5,8
224,208,34038,1,0
128,232,34202,1,0
104,136,34365,1,0
8,160,34528,1,0
84,266,34691,5,8
135,182,34854,1,0
50,131,35017,1,8
0,216,35181,1,8
136,352,35343,5,0
216,296,35506,1,0
256,208,35669,1,0
216,120,35832,1,0
352,224,35995,1,8
448,224,36158,1,0
344,192,36484,5,8
368,96,36647,2,0,B|416:88|464:104,1,80
284,110,36973,2,0,B|277:77|247:39,1,80
152,72,37299,2,0,B|56:104,1,80,8|0
76,177,37625,2,0,B|152:152,1,80,8|8
126,245,37952,6,0,B|175:321,1,80
264,320,38278,2,0,B|220:252,1,80
316,260,38604,2,0,B|365:336,1,80,8|0
455,336,38930,2,0,B|411:268,1,80,8|0
432,176,39256,2,0,B|444:132|431:94|404:63|360:51,1,160
336,144,39745,1,0
256,88,39908,2,0,B|192:88|192:88|168:96|168:96|88:96,1,160,8|0
120,192,40397,1,0
96,288,40560,6,0,B|105:330|145:346,1,80
232,304,40886,2,0,B|261:336|303:330,1,80
357,249,41212,2,0,B|398:262|432:235,1,80,8|8
432,148,41539,2,0,B|398:121|357:135,1,80,0|8
384,280,41865,6,0,B|425:293|459:266,1,80
456,128,42191,2,0,B|422:101|380:114,1,80,8|0
303,53,42517,2,0,B|261:47|232:80,1,80,8|0
145,37,42843,2,0,B|105:53|96:96,1,80,8|8
120,192,43169,5,4
96,296,53604,6,0,B|160:352|248:328,1,160
304,248,54256,1,10
64,64,54582,1,0
128,136,54745,1,0
224,128,54908,2,0,B|328:120|392:64,1,160,0|0
432,264,55560,2,0,B|400:160,1,80,10|0
456,344,56049,6,0,B|379:367,1,80,8|0
256,224,56539,1,0
131,367,56865,1,10
64,184,57191,2,0,B|104:288,1,80,0|0
184,288,57517,2,0,B|144:200|208:136,1,160
392,96,58169,2,0,B|296:96,1,80,10|0
480,192,58658,1,8
392,288,58821,6,0,B|347:299|309:286|278:259|267:215,1,160,0|0
88,280,59473,2,0,B|176:248,1,80,10|0
288,112,59962,1,8
180,144,60125,2,0,B|100:173,2,80
392,136,60778,2,0,B|424:168|416:216,1,80,10|0
458,295,61104,1,8
362,311,61267,1,8
266,327,61430,6,0,B|218:255|130:231,1,160
43,233,61919,1,0
139,233,62082,2,0,B|225:227|290:163,1,160,0|0
378,170,62571,1,0
282,170,62734,2,0,B|195:164|130:100,1,160,0|2
320,40,63386,1,10
416,16,63549,1,0
440,112,63712,1,10
344,136,63875,1,10
464,208,64039,6,0,B|480:248|448:304,1,80,4|0
360,288,64365,2,0,B|316:287|289:321,1,80,0|0
208,272,64691,1,8
157,189,64854,1,0
75,240,65017,1,8
125,322,65180,1,8
72,144,65343,6,0,B|72:104|96:64,1,80
184,40,65669,2,0,B|184:80|160:120,1,80
56,136,65995,2,0,B|56:96|80:56,1,80,8|0
200,48,66321,2,0,B|200:88|176:128,1,80,8|8
232,208,66647,2,0,B|276:219|315:206|345:179|357:136,1,160,0|8
328,232,67136,2,0,B|359:199|367:159|359:119|328:87,1,160,0|0
416,56,67625,2,0,B|496:24,1,80,8|8
472,120,67952,5,0
342,264,68115,1,0
432,208,68278,1,8
248,256,68441,1,0
432,304,68604,1,8
288,172,68767,1,0
432,208,68930,1,8
288,80,69093,1,8
208,128,69256,6,0,B|112:136,1,80
0,216,69582,2,0,B|96:208,1,80,0|0
120,296,69908,1,8
176,224,70071,1,0
232,304,70234,1,8
288,232,70397,1,8
336,320,70560,6,0,B|424:336,1,80
480,120,70886,2,0,B|401:134,1,80,8|0
401,249,71212,2,0,B|480:264,1,80
414,49,71538,2,0,B|336:64,1,80,8|8
256,120,71865,2,0,B|160:112|104:160,1,160,0|8
144,72,72354,2,0,B|89:151|102:223,1,160
64,312,72843,2,0,B|120:376,1,80,8|0
256,248,73169,5,0
176,296,73332,1,0
344,296,73495,1,8
256,152,73658,1,0
256,328,73821,1,8
320,200,73984,1,0
192,200,74147,1,8
256,352,74310,1,8
344,296,74473,6,0,B|392:288|424:240,1,80,4|0
472,96,74799,2,0,B|434:126|430:184,1,80,0|0
352,112,75125,1,8
256,88,75289,1,0
160,112,75452,1,8
256,32,75615,1,8
40,96,75778,6,0,B|77:126|81:184,1,80,0|0
168,296,76104,2,0,B|120:288|88:240,1,80
256,232,76430,1,8
208,384,76593,1,0
344,296,76756,1,8
304,384,76919,1,8
440,280,77082,6,0,B|472:208|443:123,1,160,0|8
382,197,77571,2,0,B|445:150|463:63,1,160,0|0
288,64,78060,2,0,B|368:64,1,80,8|0
192,128,78386,5,0
192,224,78549,1,0
189,102,78712,1,8
141,187,78875,1,0
196,81,79039,1,8
113,131,79202,1,0
215,66,79365,1,8
117,67,79528,1,8
232,56,79691,6,0,B|328:32,1,80
392,152,80017,2,0,B|296:176,1,80,0|0
272,80,80343,2,0,B|368:56,1,80,8|0
432,176,80669,2,0,B|336:200,1,80,8|8
416,272,80995,5,0
344,336,81158,1,0
256,304,81321,1,8
424,384,81484,1,0
248,320,81647,1,8
336,352,81810,1,0
160,288,81973,2,0,B|120:216,1,80,8|8
80,136,82299,1,0
80,120,82952,5,2
256,56,83278,1,2
432,120,83604,1,2
352,296,83930,1,2
160,296,84256,1,2
256,128,84582,1,2
256,336,84908,6,0,B|256:232,1,80,4|0
336,208,85234,1,0
432,232,85397,1,0
461,323,85560,1,8
432,233,85723,1,0
492,156,85886,2,0,B|472:64,1,80,8|8
256,72,86212,6,0,B|344:56,1,80
192,144,86539,2,0,B|104:160,1,80,0|0
72,248,86865,1,8
208,352,87028,1,0
112,336,87191,1,8
272,280,87354,1,8
432,336,87517,6,0,B|328:336,1,80
378,230,87843,2,0,B|456:248,1,80,8|0
452,158,88169,2,0,B|376:136,1,80,0|8
352,48,88495,2,0,B|424:48,2,53.3333333333333,0|0|0
288,112,88821,1,0
104,120,88984,1,8
200,144,89147,1,0
44,242,89310,1,0
39,57,89473,1,8
45,241,89636,1,0
40,88,89799,1,8
46,272,89962,1,8
112,344,90125,6,0,B|192:376|264:324,1,160,0|8
192,264,90615,1,0
320,272,90778,2,0,B|392:220|472:252,1,160,0|8
496,344,91267,1,8
496,160,91430,2,0,B|464:80,1,80
376,64,91756,2,0,B|408:144,1,80,0|0
312,104,92082,2,0,B|224:72,1,80,8|0
152,128,92408,2,0,B|227:155,1,80,8|8
56,160,92734,6,0,B|104:240,1,80
144,312,93060,2,0,B|80:352,2,53.3333333333333,0|0|0
208,328,93386,2,0,B|288:360|361:310,1,160,8|0
448,352,93875,1,8
472,256,94039,5,0
400,80,94202,1,8
224,140,94365,1,0
296,316,94528,1,0
372,138,94691,5,8
288,170,94854,1,0
324,258,95017,1,8
408,226,95180,1,8
304,88,95343,6,0,B|280:56|234:48,1,80,4|0
144,32,95669,1,8
72,96,95832,1,0
136,168,95995,1,8
48,200,96158,1,8
72,296,96321,2,0,B|104:320|113:362,1,80,0|8
184,304,96647,6,0,B|264:304,1,80
408,360,96973,2,0,B|312:360,1,80,8|0
195,345,97299,2,0,B|264:305,1,80,8|0
397,320,97625,2,0,B|328:360,1,80,8|8
448,248,97952,2,0,B|472:168|408:88,1,160,0|8
320,72,98441,1,0
248,128,98604,2,0,B|208:120|174:97,1,80
96,40,98930,2,0,B|40:40,2,53.3333333333333
104,104,99256,6,0,B|112:168|64:208,1,80,0|8
193,365,99582,2,0,B|208:328|250:314,1,80,0|0
50,264,99908,2,0,B|96:264|116:302,1,80,8|0
331,271,100234,2,0,B|286:223|302:163,1,80,8|8
192,120,100560,6,0,B|229:127|269:111,1,80,0|0
352,56,100886,1,8
400,136,101049,1,0
472,192,101212,2,0,B|472:280|384:320,1,160,8|0
312,256,101702,1,8
304,352,101865,2,0,B|264:352|230:324,1,80,8|0
48,216,102191,2,0,B|68:181|108:165,1,80,0|8
136,352,102517,2,0,B|115:317|122:274,1,80,8|0
132,70,102843,2,0,B|172:69|205:97,1,80,8|8
272,168,103169,6,0,B|360:176|422:126,1,160
456,320,103821,2,0,B|440:224,1,80,8|0
360,288,104147,2,0,B|373:366,1,80,0|8
288,328,104473,2,0,B|240:304|176:312,1,80,0|8
128,360,104799,2,0,B|72:184,1,160,0|8
48,16,105452,2,0,B|80:112,1,80,0|8
152,144,105778,5,4
339,95,105941,1,8
235,85,106104,1,0
370,223,106267,1,0
422,39,106430,1,8
360,248,106593,1,0
440,144,106756,1,8
352,272,106919,1,8
272,328,107082,6,0,B|224:328|192:296,1,80,0|8
120,168,107408,2,0,B|144:209|132:253,1,80,0|0
48,208,107734,2,0,B|24:166|35:122,1,80,8|0
120,80,108060,2,0,B|200:32,1,80,8|8
256,104,108386,2,0,B|296:136|368:128,1,80,0|8
456,184,108712,1,0
424,96,108875,1,0
368,216,109039,2,0,B|408:296,1,80,8|0
320,336,109365,2,0,B|288:272,2,53.3333333333333
256,328,109691,6,0,B|216:312|164:328,1,80,0|8
88,352,110017,2,0,B|90:309|59:264,1,80,0|0
16,200,110343,2,0,B|57:189|89:145,1,80,8|0
181,120,110669,2,0,B|142:108|120:72,1,80,8|8
272,128,110995,6,0,B|310:140|336:176|336:176|424:176,1,160,0|8
472,96,111484,1,0
448,264,111647,2,0,B|424:352,1,80,0|8
338,349,111973,2,0,B|360:272,1,80,8|8
264,248,112299,5,0
112,288,112462,1,0
208,168,112625,1,8
200,320,112789,1,0
112,192,112952,1,0
40,72,113115,1,8
16,168,113278,1,8
136,96,113441,1,8
248,72,113604,6,0,B|304:64|352:120|344:184,1,160,0|8
344,80,114093,2,0,B|378:124|354:194|295:219,1,160,0|8
344,304,114582,2,0,B|368:360,2,53.3333333333333
280,304,114908,2,0,B|240:304|200:320,1,80,0|8
112,352,115234,2,0,B|132:317|138:274,1,80
204,243,115560,2,0,B|172:218|152:184,1,80,8|0
97,103,115886,2,0,B|136:88|176:88,1,80,8|8
240,160,116212,6,0,B|260:125|266:82,1,80,4|8
360,72,116539,2,0,B|456:56,1,80
464,152,116865,1,8
392,328,117028,1,0
448,248,117191,1,8
256,248,117354,1,8
296,336,117517,6,0,B|256:328|216:328,1,80,0|8
120,352,117843,2,0,B|106:313|86:279,1,80
24,208,118169,1,8
88,32,118332,1,0
144,208,118495,2,0,B|176:184|216:176,1,80,8|8
392,168,118821,6,0,B|312:168,1,80,0|8
264,88,119147,2,0,B|344:88,1,80
440,88,119473,1,8
480,184,119636,1,0
448,280,119799,2,0,B|480:328,2,53.3333333333333
384,264,120125,2,0,B|344:256|304:260,1,80,0|8
176,328,120452,2,0,B|216:336|255:331,1,80
360,240,120778,2,0,B|320:232|280:236,1,80,8|0
152,352,121104,2,0,B|192:360|231:355,1,80,8|8
64,304,121430,6,0,B|88:272|73:226,1,80,0|8
24,144,121756,2,0,B|112:88,1,80
176,48,122082,1,8
224,136,122245,1,0
304,80,122408,2,0,B|344:88|384:80,1,80,8|8
416,168,122734,2,0,B|404:212|373:239|335:252|291:239,1,160,0|8
288,336,123223,2,0,B|242:338|207:317|183:284|180:239,1,160
112,176,123712,2,0,B|48:120,1,80,8|0
144,88,124039,6,0,B|216:88|240:48|312:48,1,160,0|8
392,24,124528,1,0
368,120,124691,2,0,B|376:168|402:191,1,80,0|8
401,190,125180,5,8
456,272,125343,2,0,B|432:304|384:304,1,80,0|8
224,344,125669,2,0,B|248:312|296:312,1,80
128,208,125995,2,0,B|165:220|180:266,1,80,8|0
224,72,126321,2,0,B|223:111|184:140,1,80,8|8
320,40,126647,6,0,B|353:49|373:72|383:100|374:133,1,119.999996423721,12|0
456,48,127299,1,2
440,224,127789,1,8
400,272,127952,2,0,B|320:240|208:272,1,179.999994635582
112,320,128767,2,0,B|112:248|80:192,1,119.999996423721,0|8
64,144,129256,6,0,B|128:136|168:64,1,119.999996423721,0|0
224,184,129908,1,2
296,16,130397,1,8
352,24,130560,2,0,B|424:32|456:104|440:176,1,179.999994635582
384,264,131375,1,0
288,336,131702,1,8
232,304,131865,6,0,B|184:272|120:264,1,119.999996423721
72,152,132517,2,0,B|40:88,1,59.9999982118607,2|0
136,176,133006,1,8
200,200,133169,2,0,B|264:200|320:168,1,119.999996423721
424,112,133821,2,0,B|488:144,1,59.9999982118607,8|0
472,256,134310,1,8
424,224,134473,6,0,B|352:216|304:264|304:328,1,179.999994635582
360,344,135125,2,0,B|168:288,1,179.999994635582,8|0
136,320,135778,2,0,B|72:312|48:248,1,119.999996423721
80,136,136430,2,0,B|104:64,1,59.9999982118607,8|0
216,64,136919,1,8
200,120,137082,6,0,B|328:120,1,119.999996423721,4|0
432,72,137734,1,2
376,304,138386,2,0,B|312:288|256:320,1,119.999996423721
144,344,139039,1,8
104,304,139202,1,0
160,200,139528,1,8
176,144,139691,6,0,B|200:88|192:16,1,119.999996423721
336,240,140343,2,0,B|312:296|320:368,1,119.999996423721,10|0
136,144,140995,2,0,B|184:107|213:41,1,119.999996423721,0|0
376,240,141647,2,0,B|327:276|298:342,1,119.999996423721,8|0
256,192,142299,5,0
192,296,142625,1,0
320,296,142952,1,10
328,176,143278,2,0,B|408:160,1,59.9999982118607,0|8
448,152,143604,2,0,B|504:104|456:16,1,119.999996423721
352,24,144256,2,0,B|224:8,1,119.999996423721,8|0
256,192,144908,1,0
256,192,145071,12,2,147517
