osu file format v14

[General]
AudioFilename: KaeriMichi.mp3
AudioLeadIn: 0
PreviewTime: 11866
Countdown: 0
SampleSet: Soft
StackLeniency: 0.7
Mode: 0
LetterboxInBreaks: 0
EpilepsyWarning: 1
WidescreenStoryboard: 1

[Editor]
DistanceSpacing: 1.6
BeatDivisor: 8
GridSize: 4
TimelineZoom: 1.6

[Metadata]
Title:KaeriMichi
TitleUnicode:帰路 - KaeriMichi -
Artist:Otokaze
ArtistUnicode:Otokaze
Creator:Narcissu
Version:Sharlo's Insane
Source:
Tags:Sharlo 归路 彩る四季、風と音色。 Jazz
BeatmapID:512128
BeatmapSetID:209841

[Difficulty]
HPDrainRate:7
CircleSize:4
OverallDifficulty:8
ApproachRate:9
SliderMultiplier:2.79999990463257
SliderTickRate:1

[Events]
//Background and Video events
0,0,"BG.jpg",0,0
//Break Periods
//Storyboard Layer 0 (Background)
//Storyboard Layer 1 (Fail)
//Storyboard Layer 2 (Pass)
//Storyboard Layer 3 (Foreground)
//Storyboard Sound Samples

[TimingPoints]
3190,588.235294117647,4,2,1,40,1,0
3190,-125,4,2,1,40,0,0
12601,-100,4,2,2,60,0,1
12895,-100,4,2,1,60,0,1
31425,-125,4,2,1,60,0,0
69072,-100,4,2,2,60,0,1
69366,-100,4,2,1,60,0,1
87307,-125,4,2,1,60,0,1
87895,-90.9090909090909,4,2,1,60,0,0
106719,-100,4,2,1,30,0,0

[Colours]
Combo1 : 183,249,111
Combo2 : 142,247,255
Combo3 : 255,255,255
Combo4 : 124,252,210
SliderBorder : 255,255,255

[HitObjects]
96,116,3190,5,4,0:1:0:0:
96,116,3337,1,0,0:0:0:0:
152,188,3484,2,0,L|208:196,1,55.9999961853028
294,119,3778,2,0,L|184:104,1,111.999992370606,2|2,0:0|0:0,0:0:0:0:
64,200,4219,6,0,P|48:252|60:312,1,111.999992370606,2|0,0:0|0:0,0:0:0:0:
224,284,4660,2,0,L|236:230,1,55.9999961853028,2|0,0:0|0:0,0:0:0:0:
294,119,4954,2,0,L|306:174,1,55.9999961853028,2|0,0:0|0:0,0:0:0:0:
228,60,5248,2,0,L|173:72,1,55.9999961853028,2|0,0:0|0:0,0:0:0:0:
306,174,5542,6,0,P|364:188|424:160,1,111.999992370606,2|0,0:0|0:0,0:0:0:0:
356,96,5984,1,0,0:0:0:0:
228,216,6131,2,0,L|200:332,1,111.999992370606,2|2,0:0|0:0,0:0:0:0:
304,264,6572,6,0,P|359:260|408:285,1,111.999992370606,2|2,0:0|0:0,0:0:0:0:
444,204,7013,2,0,L|432:149,1,55.9999961853028,2|0,0:0|0:0,0:0:0:0:
356,96,7307,1,2,0:0:0:0:
306,174,7454,1,2,0:0:0:0:
384,224,7601,1,2,0:0:0:0:
432,148,7748,1,2,0:0:0:0:
216,168,7895,6,0,L|200:228,2,55.9999961853028,4|0|0,0:1|0:0|0:0,0:0:0:0:
306,174,8337,1,0,0:0:0:0:
252,300,8484,2,0,P|196:312|144:288,1,111.999992370606,2|2,0:0|0:0,0:0:0:0:
29,196,8925,6,0,P|83:185|136:204,1,111.999992370606,2|0,0:0|0:0,0:0:0:0:
181,74,9366,2,0,L|144:116,1,55.9999961853028,2|0,0:0|0:0,0:0:0:0:
268,96,9660,2,0,L|321:79,1,55.9999961853028,2|0,0:0|0:0,0:0:0:0:
446,148,9954,2,0,L|392:136,1,55.9999961853028,2|0,0:0|0:0,0:0:0:0:
306,174,10248,5,6,0:0:0:0:
306,174,10542,1,4,0:0:0:0:
306,174,10837,2,0,L|276:292,1,111.999992370606,2|2,0:0|0:0,0:0:0:0:
204,232,11278,1,2,0:0:0:0:
306,174,11425,5,4,0:0:0:0:
204,232,11572,1,6,0:0:0:0:
108,164,11719,1,2,0:0:0:0:
108,164,12013,5,10,0:0:0:0:
56,240,12160,1,2,0:0:0:0:
128,292,12307,1,6,0:0:0:0:
184,220,12454,1,2,0:0:0:0:
184,220,12528,1,0,0:0:0:0:
184,220,12601,6,0,P|244:188|312:204,1,139.999990463257,6|4,0:0|0:0,0:0:0:0:
344,288,13042,1,0,0:0:0:0:
244,345,13190,2,0,L|256:276,1,69.9999952316285,10|0,0:0|0:0,0:0:0:0:
396,220,13484,1,2,0:0:0:0:
368,136,13631,6,0,L|348:56,1,69.9999952316285,6|4,0:0|0:0,0:0:0:0:
452,152,13925,1,4,0:0:0:0:
216,140,14072,2,0,L|284:124,1,69.9999952316285,2|0,0:0|0:0,0:0:0:0:
144,84,14366,2,0,L|75:98,1,69.9999952316285,10|0,0:0|0:0,0:0:0:0:
72,272,14660,2,0,L|140:256,1,69.9999952316285,2|4,0:0|0:0,0:0:0:0:
156,240,14881,1,0,0:0:0:0:
172,220,14954,6,0,P|164:292|204:348,1,139.999990463257,6|4,0:0|0:0,0:0:0:0:
284,312,15395,1,0,0:0:0:0:
425,371,15542,2,0,L|355:363,1,69.9999952316285,10|0,0:0|0:0,0:0:0:0:
364,272,15837,1,10,0:0:0:0:
284,312,15984,6,0,L|276:240,1,69.9999952316285,2|4,0:0|0:0,0:0:0:0:
444,232,16278,1,6,0:0:0:0:
364,272,16425,2,0,L|356:200,1,69.9999952316285,2|0,0:0|0:0,0:0:0:0:
256,48,16719,1,10,0:0:0:0:
180,100,16866,1,2,0:0:0:0:
308,124,17013,1,6,0:0:0:0:
236,172,17160,1,2,0:0:0:0:
236,172,17234,1,0,0:0:0:0:
236,172,17307,6,0,P|168:192|108:156,1,139.999990463257,4|4,0:1|0:0,0:0:0:0:
180,100,17748,1,0,0:0:0:0:
236,172,17895,2,0,L|224:244,1,69.9999952316285,10|0,0:0|0:0,0:0:0:0:
152,184,18190,1,2,0:0:0:0:
300,288,18337,6,0,L|369:291,1,69.9999952316285,6|4,0:0|0:0,0:0:0:0:
456,268,18631,1,4,0:0:0:0:
388,134,18778,2,0,L|388:204,1,69.9999952316285,2|0,0:0|0:0,0:0:0:0:
480,140,19072,2,0,L|480:70,1,69.9999952316285,10|0,0:0|0:0,0:0:0:0:
304,92,19366,2,0,L|304:162,1,69.9999952316285,2|4,0:0|0:0,0:0:0:0:
236,224,19660,6,0,P|184:272|116:268,1,139.999995231629,6|4,0:0|0:0,0:0:0:0:
32,276,20101,1,0,0:0:0:0:
68,196,20248,2,0,L|52:124,1,69.9999952316285,10|0,0:0|0:0,0:0:0:0:
212,100,20542,1,10,0:0:0:0:
140,148,20690,6,0,L|124:79,1,69.9999952316285,2|4,0:0|0:0,0:0:0:0:
288,52,20984,1,6,0:0:0:0:
296,228,21131,1,2,0:0:0:0:
296,228,21425,5,10,0:0:0:0:
180,304,21572,1,2,0:0:0:0:
296,228,21719,1,6,0:0:0:0:
264,308,21866,1,2,0:0:0:0:
292,140,22013,6,0,P|361:140|416:180,1,139.999990463257,4|4,0:1|0:0,0:0:0:0:
328,244,22454,1,0,0:0:0:0:
264,308,22601,2,0,L|194:304,1,69.9999952316285,10|0,0:0|0:0,0:0:0:0:
348,332,22896,1,2,0:0:0:0:
227,156,23043,6,0,L|244:224,1,69.9999952316285,6|4,0:0|0:0,0:0:0:0:
328,244,23337,1,4,0:0:0:0:
152,104,23484,2,0,P|116:116|84:116,1,69.9999952316285,2|0,0:0|0:0,0:0:0:0:
232,64,23778,2,0,P|264:52|300:52,1,69.9999952316285,10|0,0:0|0:0,0:0:0:0:
244,224,24072,2,0,L|227:156,1,69.9999952316285,2|4,0:0|0:0,0:0:0:0:
144,196,24366,6,0,P|120:260|136:336,1,139.999990463257,6|4,0:0|0:0,0:0:0:0:
220,312,24807,1,0,0:0:0:0:
328,244,24954,2,0,L|336:148,1,69.9999952316285,10|0,0:0|0:0,0:0:0:0:
304,332,25249,1,10,0:0:0:0:
408,208,25395,6,0,L|416:112,1,69.9999952316285,2|4,0:0|0:0,0:0:0:0:
400,300,25690,1,6,0:0:0:0:
244,224,25837,2,0,L|148:240,1,69.9999952316285,2|0,0:0|0:0,0:0:0:0:
308,156,26131,1,10,0:0:0:0:
292,8,26278,1,2,0:0:0:0:
218,136,26425,1,6,0:0:0:0:
352,76,26572,1,2,0:0:0:0:
208,45,26719,6,0,P|148:76|128:144,1,139.999990463257,4|4,0:1|0:0,0:0:0:0:
132,232,27160,1,0,0:0:0:0:
52,188,27307,2,0,P|40:152|40:120,1,69.9999952316285,10|0,0:0|0:0,0:0:0:0:
220,272,27602,1,2,0:0:0:0:
144,324,27748,6,0,L|75:333,1,69.9999952316285,6|4,0:0|0:0,0:0:0:0:
132,232,28043,1,4,0:0:0:0:
208,180,28190,2,0,L|284:172,1,69.9999952316285,2|0,0:0|0:0,0:0:0:0:
381,296,28484,2,0,L|340:240,1,69.9999952316285,10|0,0:0|0:0,0:0:0:0:
368,156,28778,2,0,L|396:92,1,69.9999952316285,2|4,0:0|0:0,0:0:0:0:
328,32,29072,6,0,P|264:60|192:52,1,139.999990463257,6|4,0:0|0:0,0:0:0:0:
132,232,29513,1,0,0:0:0:0:
208,180,29660,1,2,0:0:0:0:
208,180,29954,5,2,0:0:0:0:
128,140,30101,2,0,L|112:68,1,69.9999976158143,2|4,0:0|0:0,0:0:0:0:
216,268,30396,1,6,0:0:0:0:
284,128,30542,2,0,L|300:56,1,69.9999976158143,2|0,0:0|0:0,0:0:0:0:
292,220,30837,1,8,0:0:0:0:
216,268,30984,1,0,0:0:0:0:
368,272,31131,1,4,0:0:0:0:
376,180,31278,1,0,0:0:0:0:
384,88,31425,6,0,P|440:80|492:100,1,111.999992370606,4|4,0:1|0:0,0:0:0:0:
300,64,32013,1,8,0:0:0:0:
300,64,32307,2,0,L|246:46,1,55.9999961853028,0|4,0:0|0:0,0:0:0:0:
176,92,32601,6,0,L|112:104,1,55.9999961853028,4|4,0:0|0:0,0:0:0:0:
44,68,32895,1,0,0:0:0:0:
44,68,33190,2,0,P|68:112|64:172,1,111.999992370606,8|0,0:0|0:0,0:0:0:0:
36,252,33631,1,4,0:0:0:0:
116,280,33778,6,0,B|140:268|170:274|170:274|200:280|228:272,1,111.999992370606,4|4,0:0|0:0,0:0:0:0:
352,160,34366,2,0,L|368:48,1,111.999992370606,8|8,0:0|0:0,0:0:0:0:
340,248,34954,6,0,L|348:280,2,27.9999990463257,6|2|6,0:0|0:0|0:0,0:0:0:0:
256,280,35248,1,2,0:0:0:0:
436,144,35542,2,0,L|452:32,1,111.999992370606,10|6,0:0|0:0,0:0:0:0:
268,188,36131,5,4,0:1:0:0:
268,188,36425,2,0,L|144:200,2,111.999992370606,4|8|0,0:0|0:0|0:0,0:0:0:0:
288,108,37160,1,4,0:0:0:0:
368,88,37307,5,4,0:0:0:0:
268,188,37454,1,4,0:0:0:0:
232,48,37601,2,0,L|108:60,2,111.999992370606,0|8|0,0:0|0:0|0:0,0:0:0:0:
204,344,38484,6,0,L|92:354,1,111.999992370606,4|4,0:0|0:0,0:0:0:0:
240,272,39072,2,0,L|351:261,1,111.999992370606,8|8,0:0|0:0,0:0:0:0:
404,92,39660,6,0,L|432:92,2,27.9999990463257,6|2|6,0:0|0:0|0:0,0:0:0:0:
412,180,39954,1,2,0:0:0:0:
212,123,40248,2,0,P|263:104|318:112,1,111.999992370606,10|6,0:0|0:0,0:0:0:0:
56,152,40837,5,4,0:1:0:0:
56,152,41131,2,0,P|36:100|52:44,2,111.999996185303,4|8|0,0:0|0:0|0:0,0:0:0:0:
140,184,41866,1,4,0:0:0:0:
250,258,42013,6,0,L|196:248,1,55.9999961853028,4|4,0:0|0:0,0:0:0:0:
68,244,42307,1,0,0:0:0:0:
208,340,42601,1,8,0:0:0:0:
236,172,42895,2,0,L|232:108,1,55.9999961853028,0|4,0:0|0:0,0:0:0:0:
216,92,43116,1,0,0:0:0:0:
200,68,43190,6,0,P|256:80|308:60,1,111.999992370606,4|4,0:0|0:0,0:0:0:0:
489,114,43778,2,0,P|436:126|384:108,1,111.999992370606,8|8,0:0|0:0,0:0:0:0:
344,276,44366,6,0,L|372:276,2,27.9999990463257,6|2|6,0:0|0:0|0:0,0:0:0:0:
272,328,44660,1,2,0:0:0:0:
436,340,44954,2,0,P|460:288|452:236,1,111.999992370606,10|6,0:0|0:0,0:0:0:0:
308,212,45542,5,4,0:1:0:0:
264,220,45837,1,4,0:0:0:0:
220,232,46131,1,8,0:0:0:0:
176,244,46425,2,0,L|152:192,1,55.9999961853028,0|4,0:0|0:0,0:0:0:0:
76,168,46719,5,4,0:0:0:0:
68,292,46866,1,4,0:0:0:0:
176,244,47013,2,0,P|232:232|288:260,1,111.999992370606,0|8,0:0|0:0,0:0:0:0:
120,88,47601,1,0,0:0:0:0:
268,40,47895,5,4,0:0:0:0:
320,188,48190,1,4,0:0:0:0:
176,244,48484,1,0,0:0:0:0:
120,88,48778,1,0,0:0:0:0:
348,188,49072,6,0,L|320:188,2,27.9999980926514,6|2|6,0:0|0:0|0:0,0:0:0:0:
428,188,49366,1,2,0:0:0:0:
288,256,49660,2,0,P|337:279|392:270,1,111.999992370606,10|6,0:0|0:0,0:0:0:0:
192,316,50248,6,8,P|140:292|84:304,1,111.999992370606,4|6,0:1|0:0,0:0:0:0:
192,204,50836,1,8,0:0:0:0:
192,204,51130,2,0,L|246:186,1,55.9999961853028,0|4,0:0|0:0,0:0:0:0:
309,86,51424,6,0,L|256:104,1,55.9999961853028,4|4,0:0|0:0,0:0:0:0:
140,96,51718,1,0,0:0:0:0:
140,96,52013,2,0,P|80:108|36:88,1,111.999992370606,8|0,0:0|0:0,0:0:0:0:
92,24,52454,1,4,0:0:0:0:
208,40,52601,6,0,P|228:92|212:148,1,111.999992370606,4|4,0:0|0:0,0:0:0:0:
80,244,53189,2,0,P|136:236|188:268,1,111.999992370606,8|8,0:0|0:0,0:0:0:0:
328,344,53778,6,0,L|316:304,2,27.9999990463257,6|2|6,0:0|0:0|0:0,0:0:0:0:
320,172,54072,1,2,0:0:0:0:
400,140,54365,2,0,P|404:196|368:244,1,111.999996185303,10|6,0:0|0:0,0:0:0:0:
332,88,54954,5,4,0:1:0:0:
332,88,55248,2,0,L|216:68,2,111.999992370606,4|8|0,0:0|0:0|0:0,0:0:0:0:
400,140,55983,1,4,0:0:0:0:
268,148,56130,5,4,0:0:0:0:
221,68,56278,1,4,0:0:0:0:
143,104,56424,2,0,P|127:157|137:211,2,111.999992370606,0|8|0,0:0|0:0|0:0,0:0:0:0:
180,288,57307,6,0,P|125:296|75:271,1,111.999992370606,4|4,0:0|0:0,0:0:0:0:
268,276,57895,2,0,P|322:267|372:292,1,111.999992370606,8|8,0:0|0:0,0:0:0:0:
216,204,58484,6,0,L|224:176,2,27.9999990463257,6|2|6,0:0|0:0|0:0,0:0:0:0:
248,96,58778,1,2,0:0:0:0:
435,60,59071,2,0,P|384:79|329:71,1,111.999992370606,10|6,0:0|0:0,0:0:0:0:
164,44,59660,5,4,0:1:0:0:
164,44,59954,2,0,B|140:56|108:52|108:52|80:44|52:52,2,111.999992370606,4|8|0,0:0|0:0|0:0,0:0:0:0:
184,124,60689,1,4,0:0:0:0:
264,148,60836,6,0,L|304:108,1,55.9999961853028,4|4,0:0|0:0,0:0:0:0:
204,204,61130,1,0,0:0:0:0:
328,300,61424,1,8,0:0:0:0:
408,168,61718,2,0,L|384:108,1,55.9999961853028,0|4,0:0|0:0,0:0:0:0:
396,88,61939,1,0,0:0:0:0:
408,60,62013,6,0,P|348:40|304:56,1,111.999992370606,4|4,0:0|0:0,0:0:0:0:
120,44,62601,2,0,P|171:64|223:48,1,111.999992370606,8|8,0:0|0:0,0:0:0:0:
204,204,63189,6,0,L|160:208,2,27.9999990463257,6|2|6,0:0|0:0|0:0,0:0:0:0:
92,216,63484,1,2,0:0:0:0:
268,264,63778,2,0,L|388:257,1,111.999992370606,8|4,0:0|0:0,0:0:0:0:
288,176,64365,5,4,0:1:0:0:
304,136,64660,1,4,0:0:0:0:
320,96,64954,1,8,0:0:0:0:
336,56,65248,2,0,L|312:4,1,55.9999961853028,0|4,0:0|0:0,0:0:0:0:
288,176,65542,5,4,0:0:0:0:
416,164,65689,1,4,0:0:0:0:
322,266,65836,2,0,P|267:270|219:243,1,111.999992370606,0|8,0:0|0:0,0:0:0:0:
124,120,66424,1,0,0:0:0:0:
64,264,66718,5,4,0:0:0:0:
220,244,67013,1,4,0:0:0:0:
280,96,67307,1,0,0:0:0:0:
124,120,67601,1,0,0:0:0:0:
292,208,67895,6,0,L|300:244,2,27.9999980926514,6|2|6,0:0|0:0|0:0,0:0:0:0:
364,168,68189,1,2,0:0:0:0:
220,244,68483,2,0,P|165:240|125:202,1,111.999992370606,10|6,0:0|0:0,0:0:0:0:
412,100,69072,6,0,P|444:160|420:228,1,139.999990463257,6|4,0:0|0:0,0:0:0:0:
364,284,69513,1,0,0:0:0:0:
280,308,69661,2,0,L|208:324,1,69.9999952316285,10|0,0:0|0:0,0:0:0:0:
300,220,69955,1,2,0:0:0:0:
220,244,70101,6,0,L|168:192,1,69.9999952316285,6|4,0:0|0:0,0:0:0:0:
384,196,70396,1,4,0:0:0:0:
412,100,70542,2,0,L|428:32,1,69.9999952316285,2|0,0:0|0:0,0:0:0:0:
384,196,70837,2,0,L|436:242,1,69.9999952316285,10|0,0:0|0:0,0:0:0:0:
316,120,71131,2,0,L|249:140,1,69.9999952316285,2|4,0:0|0:0,0:0:0:0:
232,128,71352,1,0,0:0:0:0:
216,112,71425,6,0,P|144:132|88:104,1,139.999990463257,6|4,0:0|0:0,0:0:0:0:
156,44,71866,1,0,0:0:0:0:
216,112,72013,2,0,L|212:184,1,69.9999952316285,10|0,0:0|0:0,0:0:0:0:
276,44,72308,1,10,0:0:0:0:
429,51,72455,6,0,L|360:48,1,69.9999952316285,2|4,0:0|0:0,0:0:0:0:
316,120,72749,1,6,0:0:0:0:
445,183,72896,2,0,L|376:180,1,69.9999952316285,2|0,0:0|0:0,0:0:0:0:
296,204,73190,5,10,0:0:0:0:
260,280,73337,1,2,0:0:0:0:
216,112,73484,1,6,0:0:0:0:
180,188,73631,1,2,0:0:0:0:
180,188,73704,1,0,0:0:0:0:
180,188,73778,6,0,P|244:196|296:140,1,139.999990463257,4|4,0:1|0:0,0:0:0:0:
140,80,74219,1,0,0:0:0:0:
104,156,74366,2,0,L|92:228,1,69.9999952316285,10|0,0:0|0:0,0:0:0:0:
140,296,74661,1,2,0:0:0:0:
296,204,74807,6,0,L|284:134,1,69.9999952316285,6|4,0:0|0:0,0:0:0:0:
364,252,75102,1,4,0:0:0:0:
392,172,75249,2,0,L|380:100,1,69.9999952316285,2|0,0:0|0:0,0:0:0:0:
448,264,75543,2,0,L|436:338,1,69.9999952316285,10|0,0:0|0:0,0:0:0:0:
300,308,75837,2,0,L|288:382,1,69.9999952316285,2|4,0:0|0:0,0:0:0:0:
164,272,76131,6,0,L|184:127,1,139.999990463257,6|4,0:0|0:0,0:0:0:0:
104,156,76572,1,0,0:0:0:0:
260,108,76719,2,0,L|332:92,1,69.9999952316285,10|0,0:0|0:0,0:0:0:0:
392,172,77013,1,10,0:0:0:0:
476,156,77161,6,0,L|460:87,1,69.9999952316285,2|4,0:0|0:0,0:0:0:0:
392,40,77455,1,6,0:0:0:0:
260,108,77602,1,2,0:0:0:0:
260,108,77896,5,10,0:0:0:0:
200,48,78042,1,2,0:0:0:0:
120,72,78190,1,6,0:0:0:0:
104,156,78337,1,2,0:0:0:0:
248,192,78484,6,0,B|264:240|240:284|240:284|200:324,1,139.999990463257,4|4,0:1|0:0,0:0:0:0:
124,308,78925,1,0,0:0:0:0:
272,372,79072,2,0,L|324:324,1,69.9999952316285,10|0,0:0|0:0,0:0:0:0:
408,308,79367,1,2,0:0:0:0:
348,248,79514,6,0,L|336:180,1,69.9999952316285,6|4,0:0|0:0,0:0:0:0:
432,224,79808,1,4,0:0:0:0:
248,192,79955,2,0,P|212:204|180:204,1,69.9999952316285,2|0,0:0|0:0,0:0:0:0:
280,112,80249,2,0,P|312:96|352:96,1,69.9999952316285,10|0,0:0|0:0,0:0:0:0:
348,248,80543,2,0,L|331:180,1,69.9999952316285,2|4,0:0|0:0,0:0:0:0:
196,120,80837,6,0,P|128:120|80:72,1,139.999990463257,6|4,0:0|0:0,0:0:0:0:
232,40,81278,1,0,0:0:0:0:
369,30,81425,2,0,L|364:100,1,69.9999952316285,10|0,0:0|0:0,0:0:0:0:
280,112,81720,1,10,0:0:0:0:
447,74,81866,6,0,L|440:144,1,69.9999952316285,2|4,0:0|0:0,0:0:0:0:
420,296,82161,1,6,0:0:0:0:
348,248,82308,2,0,P|312:240|272:248,1,69.9999952316285,2|0,0:0|0:0,0:0:0:0:
196,228,82602,5,10,0:0:0:0:
108,255,82749,1,2,0:0:0:0:
194,136,82896,1,6,0:0:0:0:
53,181,83043,1,2,0:0:0:0:
220,50,83190,2,0,P|152:55|108:107,1,139.999990463257,4|4,0:1|0:0,0:0:0:0:
194,136,83631,1,0,0:0:0:0:
276,120,83778,2,0,P|313:114|345:119,1,69.9999952316285,10|0,0:0|0:0,0:0:0:0:
400,184,84073,1,2,0:0:0:0:
352,316,84219,6,0,P|343:282|347:247,1,69.9999952316285,6|4,0:0|0:0,0:0:0:0:
476,152,84514,1,4,0:0:0:0:
400,184,84660,2,0,P|364:180|336:160,1,69.9999952316285,2|0,0:0|0:0,0:0:0:0:
194,136,84954,2,0,P|230:132|258:112,1,69.9999952316285,10|0,0:0|0:0,0:0:0:0:
340,48,85248,2,0,P|304:44|276:24,1,69.9999952316285,2|4,0:0|0:0,0:0:0:0:
152,52,85543,6,0,B|120:84|120:84|96:132|116:176,1,139.999990463257,6|4,0:0|0:0,0:0:0:0:
188,220,85984,1,0,0:0:0:0:
268,92,86131,1,10,0:0:0:0:
268,92,86425,5,10,0:0:0:0:
336,224,86572,1,0,0:0:0:0:
344,136,86719,1,6,0:0:0:0:
260,260,86867,1,6,0:0:0:0:
264,176,87013,1,2,0:0:0:0:
264,176,87307,6,0,P|208:188|152:168,1,111.999996185303,8|4,0:0|0:0,0:0:0:0:
24,232,87895,6,0,P|52:160|24:92,1,153.99999420929,6|4,0:0|0:0,0:0:0:0:
208,56,88337,1,0,0:0:0:0:
168,192,88484,2,0,L|140:120,1,76.9999971046448,10|0,0:0|0:0,0:0:0:0:
304,68,88778,1,2,0:0:0:0:
338,195,88925,6,0,L|264:175,1,76.9999971046448,6|4,0:0|0:0,0:0:0:0:
248,276,89219,1,4,0:0:0:0:
428,220,89366,2,0,L|448:144,1,76.9999971046448,2|0,0:0|0:0,0:0:0:0:
248,276,89660,2,0,L|264:352,1,76.9999971046448,10|0,0:0|0:0,0:0:0:0:
168,192,89954,2,0,L|92:208,1,76.9999971046448,2|4,0:0|0:0,0:0:0:0:
80,228,90175,1,0,0:0:0:0:
68,248,90248,6,0,P|16:192|28:120,1,153.99999420929,6|4,0:0|0:0,0:0:0:0:
208,104,90689,1,0,0:0:0:0:
352,55,90836,2,0,L|276:44,1,76.9999971046448,10|0,0:0|0:0,0:0:0:0:
260,184,91131,1,10,0:0:0:0:
316,264,91278,6,0,L|392:272,1,76.9999971046448,2|4,0:0|0:0,0:0:0:0:
472,324,91572,1,6,0:0:0:0:
260,184,91719,2,0,L|184:176,1,76.9999971046448,2|0,0:0|0:0,0:0:0:0:
236,316,92013,5,10,0:0:0:0:
344,132,92160,1,2,0:0:0:0:
316,264,92307,1,6,0:0:0:0:
208,104,92454,1,2,0:0:0:0:
208,104,92528,1,0,0:0:0:0:
208,104,92601,6,0,B|176:96|141:100|141:100|96:116|74:154,1,153.999999454498,4|4,0:1|0:0,0:0:0:0:
180,240,93042,1,0,0:0:0:0:
208,104,93189,2,0,L|224:28,1,76.9999971046448,10|0,0:0|0:0,0:0:0:0:
96,236,93484,1,2,0:0:0:0:
292,108,93631,6,0,L|308:28,1,76.9999971046448,6|4,0:0|0:0,0:0:0:0:
424,260,93925,1,4,0:0:0:0:
328,340,94072,2,0,L|316:263,1,76.9999971046448,2|0,0:0|0:0,0:0:0:0:
244,188,94366,2,0,P|200:184|164:200,1,76.9999971046448,10|0,0:0|0:0,0:0:0:0:
364,168,94660,2,0,P|382:128|380:88,1,76.9999971046448,2|4,0:0|0:0,0:0:0:0:
75,64,94954,6,0,P|133:112|208:104,1,153.99999420929,6|4,0:0|0:0,0:0:0:0:
160,24,95395,1,0,0:0:0:0:
100,160,95542,2,0,L|96:236,1,76.9999971046448,10|0,0:0|0:0,0:0:0:0:
184,264,95836,1,10,0:0:0:0:
220,100,95984,6,0,L|216:180,1,76.9999971046448,2|4,0:0|0:0,0:0:0:0:
364,168,96278,1,6,0:0:0:0:
501,119,96425,2,0,P|466:105|428:104,1,76.9999971046448,2|0,0:0|0:0,0:0:0:0:
352,260,96719,5,10,0:0:0:0:
216,176,96866,1,2,0:0:0:0:
236,316,97013,1,6,0:0:0:0:
364,168,97160,1,2,0:0:0:0:
148,112,97307,6,0,P|124:184|164:252,1,153.99999420929,4|4,0:1|0:0,0:0:0:0:
284,116,97748,1,0,0:0:0:0:
80,44,97895,2,0,L|4:52,1,76.9999971046448,10|0,0:0|0:0,0:0:0:0:
216,176,98190,1,2,0:0:0:0:
284,116,98337,6,0,L|300:40,1,76.9999971046448,6|4,0:0|0:0,0:0:0:0:
284,240,98631,1,4,0:0:0:0:
148,112,98778,2,0,L|136:28,1,76.9999971046448,2|0,0:0|0:0,0:0:0:0:
83,231,99072,2,0,P|116:248|156:247,1,76.9999997272492,10|0,0:0|0:0,0:0:0:0:
376,220,99366,2,0,P|376:260|356:296,1,76.9999971046448,2|4,0:0|0:0,0:0:0:0:
156,248,99660,6,0,B|96:256|44:204|44:204|84:184,1,153.999999454498,6|4,0:0|0:0,0:0:0:0:
224,312,100101,1,0,0:0:0:0:
284,240,100248,2,0,L|292:160,1,76.9999971046448,10|0,0:0|0:0,0:0:0:0:
324,324,100543,1,10,0:0:0:0:
216,104,100689,6,0,L|208:28,1,76.9999971046448,0|4,0:0|0:0,0:0:0:0:
384,144,100984,1,6,0:0:0:0:
384,144,101057,1,0,0:0:0:0:
384,144,101131,2,0,L|376:220,1,76.9999971046448,2|0,0:0|0:0,0:0:0:0:
284,240,101425,5,10,0:0:0:0:
308,76,101572,1,2,0:0:0:0:
368,240,101719,1,6,0:0:0:0:
216,104,101866,1,2,0:0:0:0:
384,144,102013,6,0,P|412:68|380:0,1,153.99999420929,4|4,0:1|0:0,0:0:0:0:
308,76,102454,1,0,0:0:0:0:
368,240,102601,2,0,P|408:240|444:224,1,76.9999971046448,10|0,0:0|0:0,0:0:0:0:
296,172,102896,1,2,0:0:0:0:
124,156,103042,6,0,L|48:148,1,76.9999971046448,6|4,0:0|0:0,0:0:0:0:
144,264,103337,1,4,0:0:0:0:
216,104,103484,2,0,L|224:28,1,76.9999971046448,2|0,0:0|0:0,0:0:0:0:
144,264,103778,2,0,L|67:272,1,76.9999971046448,10|0,0:0|0:0,0:3:0:0:
296,324,104072,2,0,L|219:332,1,76.9999971046448,2|4,0:0|0:0,0:3:0:0:
449,156,104366,6,0,L|296:172,1,153.99999420929,6|4,0:0|0:0,0:0:0:0:
144,264,104807,1,0,0:0:0:0:
201,177,104954,2,0,P|216:142|216:104,1,76.9999971046448,10|0,0:0|0:0,0:0:0:0:
124,124,105248,1,10,0:0:0:0:
276,120,105395,6,0,L|352:112,1,76.9999971046448,2|4,0:0|0:0,0:0:0:0:
148,32,105690,1,6,0:0:0:0:
258,287,105837,2,0,L|288:216,1,76.9999971046448,2|0,0:0|0:0,0:0:0:0:
468,160,106131,5,8,0:0:0:0:
201,177,106278,1,0,0:0:0:0:
380,192,106425,1,4,0:0:0:0:
124,124,106572,1,0,0:0:0:0:
288,216,106719,5,4,0:1:0:0:
