osu file format v14

[General]
AudioFilename: KaeriMichi.mp3
AudioLeadIn: 0
PreviewTime: 11866
Countdown: 0
SampleSet: Soft
StackLeniency: 0.7
Mode: 0
LetterboxInBreaks: 0
EpilepsyWarning: 1
WidescreenStoryboard: 1

[Editor]
DistanceSpacing: 1.4
BeatDivisor: 2
GridSize: 4
TimelineZoom: 0.8

[Metadata]
Title:KaeriMichi
TitleUnicode:帰路 - KaeriMichi -
Artist:Otokaze
ArtistUnicode:Otokaze
Creator:Narcissu
Version:Normal
Source:
Tags:Sharlo 归路 彩る四季、風と音色。 Jazz
BeatmapID:495210
BeatmapSetID:209841

[Difficulty]
HPDrainRate:4
CircleSize:3
OverallDifficulty:4
ApproachRate:5
SliderMultiplier:1.4
SliderTickRate:1

[Events]
//Background and Video events
0,0,"BG.jpg",0,0
//Break Periods
//Storyboard Layer 0 (Background)
//Storyboard Layer 1 (Fail)
//Storyboard Layer 2 (Pass)
//Storyboard Layer 3 (Foreground)
//Storyboard Sound Samples

[TimingPoints]
3190,588.235294117647,4,2,1,60,1,0
12601,-100,4,2,0,60,0,1
12895,-100,4,2,1,60,0,0
69072,-100,4,2,0,60,0,1
69366,-100,4,2,1,60,0,0
106719,-100,4,2,1,30,0,0

[Colours]
Combo1 : 255,128,255
Combo2 : 142,247,255
Combo3 : 183,249,111
Combo4 : 124,252,210
SliderBorder : 255,255,255

[HitObjects]
40,92,3190,5,2,0:0:0:0:
216,180,3778,2,0,P|268:175|318:160,2,105,0|0|0,0:0|0:0|0:0,0:0:0:0:
120,172,4954,1,0,0:0:0:0:
64,252,5248,1,0,0:0:0:0:
120,332,5542,2,0,P|187:315|257:319,1,140,2|0,0:0|0:0,0:0:0:0:
348,356,6425,2,0,P|416:368|485:355,1,140,0|0,0:0|0:0,0:0:0:0:
472,260,7307,2,0,L|485:191,1,70
480,92,7895,5,2,0:0:0:0:
296,24,8484,1,0,0:0:0:0:
256,112,8778,2,0,P|193:116|101:76,1,140
24,108,9660,1,0,0:0:0:0:
16,204,9954,1,0,0:0:0:0:
107,235,10248,2,0,P|164:276|198:336,1,140,2|0,0:0|0:0,0:0:0:0:
296,344,11131,2,0,P|364:352|429:327,1,140,0|0,0:0|0:0,0:0:0:0:
420,228,12013,2,0,L|420:158,1,70,8|0,0:0|0:0,0:0:0:0:
460,68,12601,5,4,0:0:0:0:
271,19,13189,2,0,P|220:15|173:37,2,105,8|0|0,0:0|0:0|0:0,0:0:0:0:
240,112,14366,1,8,0:0:0:0:
144,132,14659,1,0,0:0:0:0:
71,200,14953,2,0,P|71:269|99:332,1,140,2|8,0:0|0:0,0:0:0:0:
196,312,15836,2,0,P|264:324|333:311,1,140,8|0,0:0|0:0,0:0:0:0:
396,235,16718,2,0,P|430:235|465:239,1,70,8|0,0:0|0:0,0:0:0:0:
488,336,17306,5,2,0:0:0:0:
480,140,17895,1,8,0:0:0:0:
392,96,18189,2,0,L|377:27,1,70
280,44,18777,1,0,0:0:0:0:
208,108,19071,1,8,0:0:0:0:
120,64,19365,1,0,0:0:0:0:
120,160,19659,2,0,P|102:226|52:274,1,140,2|8,0:0|0:0,0:0:0:0:
99,359,20542,2,0,P|168:368|233:343,1,140,8|0,0:0|0:0,0:0:0:0:
276,256,21424,2,0,L|276:186,1,70,8|0,0:0|0:0,0:0:0:0:
232,96,22012,5,2,0:0:0:0:
412,16,22601,2,0,P|459:35|489:78,2,105,8|0|0,0:0|0:0|0:0,0:0:0:0:
392,112,23777,1,8,0:0:0:0:
432,200,24071,1,0,0:0:0:0:
424,296,24365,2,0,P|372:341|304:352,1,140,2|8,0:0|0:0,0:0:0:0:
224,296,25248,2,0,P|155:283|86:296,1,140,8|0,0:0|0:0,0:0:0:0:
36,212,26130,2,0,L|49:143,1,70,8|0,0:0|0:0,0:0:0:0:
28,48,26718,5,2,0:0:0:0:
152,200,27307,1,8,0:0:0:0:
204,116,27601,2,0,L|204:46,1,70
296,16,28189,1,0,0:0:0:0:
372,76,28483,1,8,0:0:0:0:
460,36,28777,1,0,0:0:0:0:
508,120,29071,2,0,P|498:188|458:245,1,140,2|0,0:0|0:0,0:0:0:0:
440,344,29954,2,0,P|375:369|306:360,1,140,0|0,0:0|0:0,0:0:0:0:
216,324,30836,2,0,L|159:365,1,70,8|0,0:0|0:0,0:0:0:0:
64,344,31425,6,0,L|48:204,1,140,2|8,0:0|0:0,0:0:0:0:
24,108,32307,2,0,P|44:79|73:60,1,70
168,88,32895,1,0,0:0:0:0:
263,112,33189,2,0,P|297:102|328:85,1,70,8|0,0:0|0:0,0:0:0:0:
428,80,33778,2,0,P|474:131|479:199,1,140,2|8,0:0|0:0,0:0:0:0:
384,172,34660,1,8,0:0:0:0:
408,268,34954,2,0,L|415:302,2,35,0|0|0,0:0|0:0|0:0,0:0:0:0:
328,328,35542,2,0,P|270:367|202:379,1,140,8|2,0:0|0:0,0:0:0:0:
104,360,36425,5,0,0:0:0:0:
44,284,36719,1,8,0:0:0:0:
24,188,37013,2,0,P|50:124|105:82,1,140
160,0,37895,2,0,L|216:42,1,70,8|0,0:0|0:0,0:0:0:0:
284,116,38484,2,0,L|315:53,1,70,2|0,0:0|0:0,0:0:0:0:
376,128,39072,2,0,L|407:65,1,70,8|8,0:0|0:0,0:0:0:0:
476,136,39660,2,0,L|490:104,2,35,0|0|0,0:0|0:0|0:0,0:0:0:0:
484,232,40248,2,0,L|457:296,1,70,8|0,0:0|0:0,0:0:0:0:
376,356,40837,6,0,P|309:375|239:373,1,140,2|8,0:0|0:0,0:0:0:0:
148,340,41719,1,0,0:0:0:0:
224,275,42013,2,0,P|228:241|222:206,1,70
156,136,42601,1,8,0:0:0:0:
72,188,42895,1,0,0:0:0:0:
68,92,43189,2,0,P|117:44|186:44,1,140,2|8,0:0|0:0,0:0:0:0:
256,116,44072,1,8,0:0:0:0:
340,64,44366,2,0,L|362:37,2,35,0|0|0,0:0|0:0|0:0,0:0:0:0:
431,95,44954,2,0,P|453:123|470:154,1,70,8|0,0:0|0:0,0:0:0:0:
472,251,45542,6,0,P|443:315|388:356,1,140,2|8,0:0|0:0,0:0:0:0:
300,312,46425,1,0,0:0:0:0:
204,320,46719,2,0,L|147:361,1,70
56,328,47307,1,8,0:0:0:0:
24,236,47601,1,0,0:0:0:0:
103,179,47895,2,0,P|138:121|132:52,1,140,2|8,0:0|0:0,0:0:0:0:
48,100,48778,2,0,L|252:149,1,210,0|8,0:0|0:0,0:0:0:0:
420,48,50248,6,0,L|463:181,1,140,2|8,0:0|0:0,0:0:0:0:
488,276,51130,2,0,P|468:305|439:324,1,70
344,296,51718,1,0,0:0:0:0:
249,272,52012,2,0,P|215:282|184:299,1,70,8|0,0:0|0:0,0:0:0:0:
84,304,52601,2,0,P|38:253|33:185,1,140,2|8,0:0|0:0,0:0:0:0:
128,212,53483,1,8,0:0:0:0:
104,116,53777,2,0,L|97:82,2,35,0|0|0,0:0|0:0|0:0,0:0:0:0:
184,56,54365,2,0,P|242:17|310:5,1,140,8|2,0:0|0:0,0:0:0:0:
408,24,55248,5,0,0:0:0:0:
468,100,55542,1,8,0:0:0:0:
488,196,55836,2,0,P|462:260|407:302,1,140
352,384,56718,2,0,L|296:342,1,70,8|0,0:0|0:0,0:0:0:0:
228,268,57307,2,0,L|197:331,1,70,2|0,0:0|0:0,0:0:0:0:
136,256,57895,2,0,L|105:319,1,70,8|0,0:0|0:0,0:0:0:0:
36,248,58483,2,0,L|22:280,2,35,0|0|0,0:0|0:0|0:0,0:0:0:0:
28,152,59071,2,0,L|55:88,1,70,8|0,0:0|0:0,0:0:0:0:
136,28,59660,6,0,P|202:8|272:10,1,140,2|8,0:0|0:0,0:0:0:0:
364,44,60542,1,0,0:0:0:0:
287,108,60836,2,0,P|283:142|289:177,1,70
356,248,61424,1,8,0:0:0:0:
440,196,61718,1,0,0:0:0:0:
444,292,62012,2,0,P|394:339|325:339,1,140,2|8,0:0|0:0,0:0:0:0:
256,268,62895,1,8,0:0:0:0:
172,320,63189,2,0,L|149:346,2,35,0|0|0,0:0|0:0|0:0,0:0:0:0:
80,288,63777,2,0,P|58:260|41:229,1,70,8|0,0:0|0:0,0:0:0:0:
39,132,64365,6,0,P|68:68|123:27,1,140,2|8,0:0|0:0,0:0:0:0:
212,72,65248,1,0,0:0:0:0:
308,64,65542,2,0,L|364:22,1,70
456,56,66130,1,8,0:0:0:0:
488,148,66424,1,0,0:0:0:0:
408,203,66718,2,0,P|372:262|379:331,1,140,2|0,0:0|0:0,0:0:0:0:
464,284,67601,2,0,L|259:234,1,210
108,356,69072,5,4,0:0:0:0:
24,180,69660,2,0,L|125:205,2,105,8|0|0,0:0|0:0|0:0,0:0:0:0:
20,84,70837,1,8,0:0:0:0:
92,20,71130,1,0,0:0:0:0:
176,72,71424,2,0,P|239:100|308:100,1,140,2|8,0:0|0:0,0:0:0:0:
396,56,72307,2,0,P|444:105|467:171,1,140,8|0,0:0|0:0,0:0:0:0:
468,267,73189,2,0,P|459:301|437:328,1,70,8|0,0:0|0:0,0:0:0:0:
344,364,73777,5,2,0:0:0:0:
148,368,74366,1,8,0:0:0:0:
244,344,74660,2,0,L|247:274,1,70
316,204,75248,1,0,0:0:0:0:
380,132,75542,1,8,0:0:0:0:
336,44,75836,1,0,0:0:0:0:
244,16,76130,2,0,P|178:34|130:84,1,140,2|8,0:0|0:0,0:0:0:0:
56,148,77013,2,0,P|118:176|186:164,1,140,8|0,0:0|0:0,0:0:0:0:
256,236,77895,2,0,L|256:306,1,70,8|0,0:0|0:0,0:0:0:0:
180,368,78483,5,2,0:0:0:0:
376,360,79072,2,0,P|426:350|463:314,2,105,8|0|0,0:0|0:0|0:0,0:0:0:0:
376,264,80248,1,8,0:0:0:0:
460,216,80542,1,0,0:0:0:0:
460,120,80836,2,0,P|408:75|340:64,1,140,2|8,0:0|0:0,0:0:0:0:
256,116,81719,2,0,P|187:129|118:116,1,140,8|0,0:0|0:0,0:0:0:0:
24,92,82601,2,0,L|37:161,1,70,8|0,0:0|0:0,0:0:0:0:
32,260,83189,5,2,0:0:0:0:
204,352,83778,1,8,0:0:0:0:
128,292,84072,2,0,L|175:240,1,70
272,232,84660,1,0,0:0:0:0:
320,316,84954,1,8,0:0:0:0:
416,320,85248,1,0,0:0:0:0:
496,263,85542,2,0,P|500:194|481:127,1,140,2|8,0:0|0:0,0:0:0:0:
384,128,86425,2,0,L|256:69,1,140,8|0,0:0|0:0,0:0:0:0:
180,8,87307,2,0,L|113:30,1,70,8|0,0:0|0:0,0:0:0:0:
132,128,87895,6,0,P|96:187|40:229,1,140,2|8,0:0|0:0,0:0:0:0:
100,308,88777,2,0,L|142:364,1,70
236,340,89365,1,0,0:0:0:0:
328,380,89659,2,0,P|362:370|393:353,1,70,8|0,0:0|0:0,0:0:0:0:
324,284,90248,2,0,P|284:227|292:159,1,140,2|8,0:0|0:0,0:0:0:0:
376,208,91131,2,0,L|442:229,2,70,8|0|0,0:0|0:0|0:0,0:0:0:0:
436,132,92012,2,0,P|416:65|371:12,1,140,8|2,0:0|0:0,0:0:0:0:
272,20,92895,5,0,0:0:0:0:
228,108,93189,1,8,0:0:0:0:
136,76,93483,2,0,P|80:117|54:182,1,140
64,280,94365,2,0,L|120:322,1,70,8|0,0:0|0:0,0:0:0:0:
216,344,94954,2,0,L|247:281,1,70,2|0,0:0|0:0,0:0:0:0:
340,308,95542,2,0,L|371:245,1,70,8|8,0:0|0:0,0:0:0:0:
456,296,96130,2,0,L|423:357,2,70,0|0|8,0:0|0:0|0:0,0:0:0:0:
464,200,97013,1,0,0:0:0:0:
384,144,97307,6,0,L|245:165,1,140,2|8,0:0|0:0,0:0:0:0:
192,248,98189,1,0,0:0:0:0:
96,252,98483,2,0,L|51:197,1,70
24,104,99071,1,8,0:0:0:0:
92,36,99365,1,0,0:0:0:0:
176,84,99659,2,0,P|244:96|311:77,1,140,2|8,0:0|0:0,0:0:0:0:
384,12,100542,2,0,L|453:23,2,70,8|0|0,0:0|0:0|0:0,0:0:0:0:
404,108,101424,2,0,P|426:136|443:167,1,70,8|0,0:0|0:0,0:0:0:0:
480,256,102012,6,0,P|451:320|396:361,1,140,2|8,0:0|0:0,0:0:0:0:
308,320,102895,1,0,0:0:0:0:
256,236,103189,2,0,L|256:166,1,70
256,68,103777,1,8,0:0:0:0:
172,16,104071,1,0,0:0:0:0:
92,72,104365,2,0,L|92:142,1,70,2|0,0:0|0:0,0:0:0:0:
32,220,104954,1,8,0:0:0:0:
76,308,105248,2,0,P|171:351|275:357,1,210,8|8,0:0|0:0,0:0:0:0:
460,288,106719,5,4,0:1:0:0:
