osu file format v14

[General]
AudioFilename: KaeriMichi.mp3
AudioLeadIn: 0
PreviewTime: 11866
Countdown: 0
SampleSet: Soft
StackLeniency: 0.7
Mode: 0
LetterboxInBreaks: 0
EpilepsyWarning: 1
WidescreenStoryboard: 1

[Editor]
DistanceSpacing: 1.6
BeatDivisor: 4
GridSize: 4
TimelineZoom: 0.7

[Metadata]
Title:KaeriMichi
TitleUnicode:帰路 - KaeriMichi -
Artist:Otokaze
ArtistUnicode:Otokaze
Creator:Narcissu
Version:Hard
Source:
Tags:Sharlo 归路 彩る四季、風と音色。 Jazz
BeatmapID:494663
BeatmapSetID:209841

[Difficulty]
HPDrainRate:5
CircleSize:4
OverallDifficulty:6
ApproachRate:7
SliderMultiplier:1.6
SliderTickRate:1

[Events]
//Background and Video events
0,0,"BG.jpg",0,0
//Break Periods
//Storyboard Layer 0 (Background)
//Storyboard Layer 1 (Fail)
//Storyboard Layer 2 (Pass)
//Storyboard Layer 3 (Foreground)
//Storyboard Sound Samples

[TimingPoints]
3190,588.235294117647,4,2,1,60,1,0
12601,-100,4,2,0,60,0,1
12895,-100,4,2,1,60,0,0
69072,-100,4,2,0,60,0,1
69366,-100,4,2,1,60,0,0
106719,-100,4,2,1,30,0,0

[Colours]
Combo1 : 255,128,255
Combo2 : 142,247,255
Combo3 : 183,249,111
Combo4 : 124,252,210
SliderBorder : 255,255,255

[HitObjects]
128,60,3190,6,0,P|95:132|95:211,1,160,2|0,0:0|0:0,0:0:0:0:
152,308,4072,1,0,0:0:0:0:
152,308,4219,1,0,0:0:0:0:
336,252,4660,2,0,P|369:273|391:306,1,80
292,352,5248,1,0,0:0:0:0:
231,255,5542,6,0,P|257:182|326:144,1,160,2|0,0:0|0:0,0:0:0:0:
432,188,6425,2,0,L|467:169,1,40
416,32,6866,2,0,L|380:50,1,40
236,32,7307,2,0,L|236:72,3,40,0|0|0|0,0:0|0:0|0:0|0:0,0:0:0:0:
219,124,7895,6,0,P|163:178|85:183,1,160,2|0,0:0|0:0,0:0:0:0:
120,76,8777,1,0,0:0:0:0:
120,76,8924,1,0,0:0:0:0:
24,268,9365,2,0,P|35:306|56:339,1,80
164,364,9953,1,0,0:0:0:0:
228,272,10248,6,0,P|301:244|379:259,1,160,2|0,0:0|0:0,0:0:0:0:
464,336,11131,1,0,0:0:0:0:
464,336,11278,1,0,0:0:0:0:
312,340,11571,2,0,L|312:380,1,40
228,272,12013,2,0,L|228:232,1,40,8|0,0:0|0:0,0:0:0:0:
188,256,12307,2,0,L|188:216,1,40
148,240,12601,6,0,L|148:80,1,160,4|8,0:0|0:0,0:0:0:0:
264,20,13484,1,0,0:0:0:0:
264,20,13631,2,0,P|322:28|367:67,1,120
260,184,14366,2,0,P|263:144|282:109,1,80,8|0,0:0|0:0,0:0:0:0:
460,88,14954,6,0,P|490:161|486:240,1,160,2|8,0:0|0:0,0:0:0:0:
388,324,15837,1,0,0:0:0:0:
360,340,15984,1,0,0:0:0:0:
356,212,16278,1,0,0:0:0:0:
384,196,16425,1,0,0:0:0:0:
248,284,16719,2,0,L|208:284,1,40,8|0,0:0|0:0,0:0:0:0:
228,240,17013,2,0,L|188:240,1,40
216,200,17307,6,0,L|56:200,1,160,2|8,0:0|0:0,0:0:0:0:
136,120,18189,1,0,0:0:0:0:
136,120,18337,1,0,0:0:0:0:
136,288,18778,2,0,L|136:368,2,80,0|8|0,0:0|0:0|0:0,0:0:0:0:
232,344,19660,6,0,P|310:352|382:320,1,160,2|8,0:0|0:0,0:0:0:0:
468,224,20542,2,0,L|500:201,1,40,8|0,0:0|0:0,0:0:0:0:
444,88,20984,2,0,L|454:49,1,40
328,48,21425,1,8,0:0:0:0:
300,64,21572,1,0,0:0:0:0:
268,76,21719,1,0,0:0:0:0:
236,80,21866,1,0,0:0:0:0:
202,74,22013,6,0,P|125:59|48:78,1,160,2|8,0:0|0:0,0:0:0:0:
128,180,22895,1,0,0:0:0:0:
128,180,23042,2,0,L|96:312,1,120
212,236,23778,2,0,P|251:236|290:245,1,80,8|0,0:0|0:0,0:0:0:0:
396,320,24366,6,0,L|428:163,1,160,2|8,0:0|0:0,0:0:0:0:
384,44,25248,1,8,0:0:0:0:
396,32,25395,1,0,0:0:0:0:
260,72,25689,1,0,0:0:0:0:
272,60,25837,1,0,0:0:0:0:
132,88,26131,2,0,L|144:36,1,40,8|0,0:0|0:0,0:0:0:0:
56,124,26425,2,0,L|40:64,1,40
20,196,26719,5,2,0:0:0:0:
20,196,27307,2,0,P|26:235|41:272,1,80,8|0,0:0|0:0,0:0:0:0:
76,296,27748,2,0,P|135:287|193:298,1,120
340,364,28484,2,0,P|300:371|261:367,1,80,8|0,0:0|0:0,0:0:0:0:
268,239,29072,6,0,P|344:219|419:244,1,160,2|0,0:0|0:0,0:0:0:0:
448,352,29954,1,0,0:0:0:0:
448,352,30101,1,0,0:0:0:0:
512,224,30395,1,0,0:0:0:0:
512,224,30542,1,0,0:0:0:0:
400,160,30837,2,0,L|385:81,1,80,8|0,0:0|0:0,0:0:0:0:
288,24,31425,6,0,P|248:23|208:28,1,80,2|0,0:0|0:0,0:0:0:0:
172,152,32013,2,0,P|211:152|251:147,1,80,8|0,0:0|0:0,0:0:0:0:
128,76,32601,1,0,0:0:0:0:
40,192,32895,2,0,P|32:230|37:270,2,80,0|8|0,0:0|0:0|0:0,0:0:0:0:
140,244,33778,6,0,L|214:273,1,80,2|0,0:0|0:0,0:0:0:0:
300,344,34366,2,0,P|336:327|366:301,1,80,8|8,0:0|0:0,0:0:0:0:
392,192,34954,1,0,0:0:0:0:
400,160,35101,1,0,0:0:0:0:
412,128,35248,2,0,L|474:78,1,80,0|8,0:0|0:0,0:0:0:0:
360,20,35837,1,0,0:0:0:0:
304,116,36131,6,0,P|266:128|226:132,1,80,2|0,0:0|0:0,0:0:0:0:
120,100,36719,2,0,P|91:127|72:162,1,80,8|0,0:0|0:0,0:0:0:0:
104,304,37307,1,0,0:0:0:0:
180,224,37601,2,0,P|217:236|250:259,2,80,0|8|0,0:0|0:0|0:0,0:0:0:0:
204,352,38484,6,0,P|243:359|283:358,1,80,2|0,0:0|0:0,0:0:0:0:
408,379,39072,2,0,P|420:342|424:302,1,80,8|8,0:0|0:0,0:0:0:0:
344,184,39660,2,0,L|328:147,2,40,0|0|0,0:0|0:0|0:0,0:0:0:0:
316,288,40248,1,8,0:0:0:0:
452,200,40543,1,0,0:0:0:0:
383,75,40837,6,0,P|347:60|307:59,1,80,2|0,0:0|0:0,0:0:0:0:
160,116,41425,2,0,P|196:131|236:131,1,80,8|0,0:0|0:0,0:0:0:0:
119,12,42013,2,0,P|59:60|49:138,1,160,0|8,0:0|0:0,0:0:0:0:
128,216,42895,1,0,0:0:0:0:
96,328,43189,6,0,L|28:370,1,80,2|0,0:0|0:0,0:0:0:0:
204,364,43778,2,0,L|271:321,1,80,8|8,0:0|0:0,0:0:0:0:
384,312,44366,1,0,0:0:0:0:
412,296,44513,1,0,0:0:0:0:
440,280,44660,2,0,L|436:200,1,80,0|8,0:0|0:0,0:0:0:0:
492,104,45249,1,0,0:0:0:0:
351,136,45542,6,0,P|312:129|275:113,1,80,2|0,0:0|0:0,0:0:0:0:
168,148,46131,2,0,P|154:110|149:70,1,80,8|0,0:0|0:0,0:0:0:0:
24,48,46719,2,0,P|52:122|53:201,1,160,0|8,0:0|0:0,0:0:0:0:
8,304,47601,1,0,0:0:0:0:
120,308,47895,6,0,L|158:377,1,80,2|0,0:0|0:0,0:0:0:0:
224,268,48484,2,0,L|262:337,1,80,0|0,0:0|0:0,0:0:0:0:
332,228,49072,1,0,0:0:0:0:
332,228,49219,1,0,0:0:0:0:
332,228,49366,1,0,0:0:0:0:
456,191,49660,2,0,P|467:153|467:114,1,80,8|0,0:0|0:0,0:0:0:0:
380,20,50248,6,0,P|357:52|344:90,1,80,2|0,0:0|0:0,0:0:0:0:
252,152,50837,2,0,P|212:159|172:158,1,80,8|0,0:0|0:0,0:0:0:0:
80,100,51425,1,0,0:0:0:0:
40,204,51719,2,0,L|15:280,2,80,0|8|0,0:0|0:0|0:0,0:0:0:0:
152,268,52601,6,0,L|167:346,1,80,2|0,0:0|0:0,0:0:0:0:
296,328,53189,2,0,L|311:249,1,80,8|8,0:0|0:0,0:0:0:0:
416,328,53778,1,0,0:0:0:0:
424,296,53925,1,0,0:0:0:0:
432,264,54072,2,0,L|449:185,1,80,0|8,0:0|0:0,0:0:0:0:
336,132,54660,1,0,0:0:0:0:
408,48,54954,6,0,P|447:44|487:47,1,80,2|0,0:0|0:0,0:0:0:0:
336,132,55542,2,0,P|296:135|256:132,1,80,8|0,0:0|0:0,0:0:0:0:
164,72,56131,1,0,0:0:0:0:
60,108,56425,2,0,P|36:139|22:177,2,80,0|8|0,0:0|0:0|0:0,0:0:0:0:
100,248,57307,6,0,L|89:327,1,80,2|0,0:0|0:0,0:0:0:0:
196,292,57895,2,0,P|235:283|274:282,1,80,8|8,0:0|0:0,0:0:0:0:
360,352,58484,1,0,0:0:0:0:
360,352,58631,2,0,L|399:359,1,40
504,240,59072,1,8,0:0:0:0:
396,264,59366,1,0,0:0:0:0:
427,155,59660,6,0,P|420:116|401:81,1,80,2|0,0:0|0:0,0:0:0:0:
284,32,60248,2,0,P|265:67|259:106,1,80,8|0,0:0|0:0,0:0:0:0:
311,204,60837,2,0,P|241:239|161:245,1,160,0|8,0:0|0:0,0:0:0:0:
64,192,61719,1,0,0:0:0:0:
172,168,62013,6,0,P|176:207|162:244,1,80,2|0,0:0|0:0,0:0:0:0:
54,372,62601,2,0,P|50:333|64:296,1,80,8|0,0:0|0:0,0:0:0:0:
164,348,63189,2,0,L|203:351,2,40,0|0|0,0:0|0:0|0:0,0:0:0:0:
292,356,63778,1,8,0:0:0:0:
404,364,64072,1,0,0:0:0:0:
488,288,64366,6,0,P|492:248|486:208,1,80,2|0,0:0|0:0,0:0:0:0:
416,120,64954,2,0,P|431:83|454:50,1,80,8|0,0:0|0:0,0:0:0:0:
327,76,65542,2,0,P|250:95|172:85,1,160,0|8,0:0|0:0,0:0:0:0:
68,40,66425,1,0,0:0:0:0:
32,144,66719,6,0,L|6:219,1,80,2|0,0:0|0:0,0:0:0:0:
140,168,67307,2,0,L|114:243,1,80,0|0,0:0|0:0,0:0:0:0:
36,324,67895,1,0,0:0:0:0:
68,324,68042,1,0,0:0:0:0:
100,324,68189,1,0,0:0:0:0:
204,360,68484,2,0,L|284:360,1,80
428,380,69072,6,0,P|482:323|502:246,1,160,4|8,0:0|0:0,0:0:0:0:
504,116,69954,1,0,0:0:0:0:
504,116,70101,2,0,P|446:124|401:163,1,120
328,268,70836,2,0,P|325:228|306:193,1,80,8|0,0:0|0:0,0:0:0:0:
168,152,71424,6,0,P|163:72|193:0,1,160,2|8,0:0|0:0,0:0:0:0:
264,88,72307,1,0,0:0:0:0:
292,104,72454,1,0,0:0:0:0:
428,56,72748,1,0,0:0:0:0:
400,44,72895,1,0,0:0:0:0:
388,172,73189,2,0,L|407:206,1,40,8|0,0:0|0:0,0:0:0:0:
376,204,73484,2,0,L|395:238,1,40
364,240,73777,6,0,L|438:381,1,160,2|8,0:0|0:0,0:0:0:0:
480,260,74659,1,0,0:0:0:0:
480,260,74807,1,0,0:0:0:0:
312,352,75248,2,0,P|272:368|224:364,2,80,0|8|0,0:0|0:0|0:0,0:0:0:0:
252,240,76130,6,0,P|179:207|101:215,1,160,2|8,0:0|0:0,0:0:0:0:
164,308,77012,2,0,L|157:347,1,40
24,292,77454,2,0,L|14:253,1,40
52,132,77895,1,8,0:0:0:0:
72,104,78042,1,0,0:0:0:0:
100,84,78189,1,0,0:0:0:0:
132,72,78336,1,0,0:0:0:0:
164,72,78483,6,0,P|241:87|320:74,1,160,2|8,0:0|0:0,0:0:0:0:
432,12,79365,1,0,0:0:0:0:
432,12,79512,2,0,L|464:132,1,120
499,252,80248,2,0,P|477:285|448:311,1,80,8|0,0:0|0:0,0:0:0:0:
384,200,80836,6,0,P|306:180|227:187,1,160,2|8,0:0|0:0,0:0:0:0:
292,280,81718,1,0,0:0:0:0:
304,292,81865,1,0,0:0:0:0:
176,300,82159,1,0,0:0:0:0:
188,312,82307,1,0,0:0:0:0:
60,312,82601,2,0,L|12:344,1,40,8|0,0:0|0:0,0:0:0:0:
64,236,82895,2,0,L|-4:232,1,40
112,168,83189,5,2,0:0:0:0:
112,167,83777,2,0,P|115:128|112:88,1,80,8|0,0:0|0:0,0:0:0:0:
88,56,84218,2,0,L|207:46,1,120
316,16,84954,2,0,P|352:32|381:59,1,80,8|0,0:0|0:0,0:0:0:0:
492,68,85542,6,0,P|502:146|473:220,1,160,2|8,0:0|0:0,0:0:0:0:
364,244,86424,1,0,0:0:0:0:
364,244,86571,1,0,0:0:0:0:
384,356,86865,1,0,0:0:0:0:
384,356,87012,1,0,0:0:0:0:
280,316,87307,2,0,P|240:311|200:317,1,80,8|0,0:0|0:0,0:0:0:0:
76,352,87895,6,0,P|63:314|63:274,1,80,2|0,0:0|0:0,0:0:0:0:
168,200,88483,2,0,P|179:161|180:122,1,80,8|0,0:0|0:0,0:0:0:0:
128,24,89071,1,0,0:0:0:0:
240,4,89365,2,0,P|278:7|315:22,2,80,0|8|0,0:0|0:0|0:0,0:0:0:0:
284,124,90248,6,0,P|315:147|352:163,1,80,2|0,0:0|0:0,0:0:0:0:
480,164,90836,2,0,P|487:203|487:243,1,80,8|0,0:0|0:0,0:0:0:0:
460,276,91278,1,0,0:0:0:0:
356,320,91571,1,0,0:0:0:0:
328,336,91718,2,0,L|248:329,1,80,0|8,0:0|0:0,0:0:0:0:
124,356,92307,1,0,0:0:0:0:
100,336,92454,1,0,0:0:0:0:
76,316,92601,6,0,P|68:272|80:228,1,80,2|0,0:0|0:0,0:0:0:0:
132,104,93189,2,0,P|160:131|179:166,1,80,8|0,0:0|0:0,0:0:0:0:
176,280,93777,1,0,0:0:0:0:
272,172,94071,2,0,P|304:149|342:137,2,80,0|8|0,0:0|0:0|0:0,0:0:0:0:
340,260,94954,6,0,P|339:299|346:339,1,80,2|0,0:0|0:0,0:0:0:0:
484,372,95542,2,0,P|496:335|500:295,1,80,8|0,0:0|0:0,0:0:0:0:
492,256,95984,1,0,0:0:0:0:
412,180,96278,1,0,0:0:0:0:
412,180,96425,1,0,0:0:0:0:
468,48,96719,2,0,L|453:85,1,40,8|0,0:0|0:0,0:0:0:0:
428,44,97013,2,0,L|413:81,1,40
384,40,97307,6,0,L|352:121,1,80,2|0,0:0|0:0,0:0:0:0:
336,224,97895,2,0,P|299:239|259:240,1,80,8|0,0:0|0:0,0:0:0:0:
212,140,98483,2,0,P|146:96|67:98,1,160,0|8,0:0|0:0,0:0:0:0:
116,200,99365,1,0,0:0:0:0:
68,300,99659,6,0,L|0:342,1,80,2|0,0:0|0:0,0:0:0:0:
168,300,100248,2,0,L|236:343,1,80,8|8,0:0|0:0,0:0:0:0:
272,364,100689,1,0,0:0:0:0:
400,352,100983,1,0,0:0:0:0:
428,335,101130,2,0,P|444:299|448:259,1,80,0|8,0:0|0:0,0:0:0:0:
444,228,101572,1,0,0:0:0:0:
432,196,101719,1,0,0:0:0:0:
416,168,101866,1,0,0:0:0:0:
396,144,102012,6,0,P|395:104|403:64,1,80,2|0,0:0|0:0,0:0:0:0:
300,20,102601,2,8,P|294:59|282:97,1,80,8|0,0:0|0:0,0:0:0:0:
172,28,103189,2,0,P|98:58|45:116,1,160,0|8,0:0|0:0,0:0:0:0:
28,228,104071,1,0,0:0:0:0:
128,276,104365,6,0,L|145:354,1,80,2|0,0:0|0:0,0:0:0:0:
240,244,104954,2,0,L|259:321,1,80,8|8,0:0|0:0,0:0:0:0:
272,360,105395,1,0,0:0:0:0:
376,284,105689,1,0,0:0:0:0:
376,284,105836,1,0,0:0:0:0:
480,208,106130,2,0,P|491:170|491:131,2,80,8|0|4,0:0|0:0|0:1,0:0:0:0:
