osu file format v14

[General]
AudioFilename: KaeriMichi.mp3
AudioLeadIn: 0
PreviewTime: 11866
Countdown: 0
SampleSet: Soft
StackLeniency: 0.7
Mode: 0
LetterboxInBreaks: 0
EpilepsyWarning: 1
WidescreenStoryboard: 1

[Editor]
DistanceSpacing: 2
BeatDivisor: 4
GridSize: 4
TimelineZoom: 1.2

[Metadata]
Title:KaeriMichi
TitleUnicode:帰路 - KaeriMichi -
Artist:Otokaze
ArtistUnicode:Otokaze
Creator:Narcissu
Version:Eternal
Source:
Tags:Sharlo 归路 彩る四季、風と音色。 Jazz
BeatmapID:493810
BeatmapSetID:209841

[Difficulty]
HPDrainRate:6
CircleSize:4
OverallDifficulty:8.5
ApproachRate:9
SliderMultiplier:3.2
SliderTickRate:1

[Events]
//Background and Video events
0,0,"BG.jpg",0,0
//Break Periods
//Storyboard Layer 0 (Background)
//Storyboard Layer 1 (Fail)
//Storyboard Layer 2 (Pass)
//Storyboard Layer 3 (Foreground)
//Storyboard Sound Samples

[TimingPoints]
3190,588.235294117647,4,2,1,66,1,0
12601,-80,4,2,0,66,0,1
12895,-100,4,2,1,66,0,0
69072,-80,4,2,0,66,0,1
69366,-100,4,2,1,66,0,0
106719,-100,4,2,1,33,0,0

[Colours]
Combo1 : 255,255,255
Combo2 : 142,247,255
Combo3 : 183,249,111
Combo4 : 124,252,210
Combo5 : 255,128,255
Combo6 : 159,159,255
SliderBorder : 255,255,255

[HitObjects]
444,92,3190,6,0,P|460:169|443:247,1,160,2|0,0:2|0:0,0:0:0:0:
368,308,3631,1,0,0:0:0:0:
284,264,3778,2,0,P|276:224|277:184,1,80,2|0,0:0|0:0,0:0:0:0:
328,32,4072,1,2,0:0:0:0:
100,64,4219,6,0,P|175:91|255:97,1,160,2|0,0:0|0:0,0:0:0:0:
168,192,4660,2,0,L|138:266,1,80,2|0,0:0|0:0,0:0:0:0:
280,344,4954,2,0,L|283:264,1,80,2|0,0:0|0:0,0:0:0:0:
100,64,5248,2,0,L|53:129,1,80,2|0,0:0|0:0,0:0:0:0:
304,175,5542,6,0,P|378:148|455:165,1,160,2|0,0:2|0:0,0:0:0:0:
388,256,5984,1,0,0:0:0:0:
228,100,6131,2,0,L|216:20,1,80,2|0,0:0|0:0,0:0:0:0:
420,60,6425,5,2,0:0:0:0:
304,176,6572,2,0,L|244:229,1,80,2|0,0:0|0:0,0:0:0:0:
444,196,6866,1,2,0:0:0:0:
328,312,7013,2,0,L|268:365,1,80,2|0,0:0|0:0,0:0:0:0:
116,240,7307,5,2,0:0:0:0:
176,344,7454,1,2,0:0:0:0:
172,172,7601,1,2,0:0:0:0:
68,308,7748,1,2,0:0:0:0:
228,99,7895,22,0,P|305:84|384:98,1,160,2|0,0:2|0:0,0:0:0:0:
468,148,8337,1,0,0:0:0:0:
424,316,8484,2,0,L|377:381,1,80,2|0,0:0|0:0,0:0:0:0:
176,344,8778,1,2,0:0:0:0:
380,192,8925,6,0,L|285:320,1,160,2|0,0:0|0:0,0:0:0:0:
64,284,9366,2,0,P|64:245|76:206,1,80,2|0,0:0|0:0,0:0:0:0:
276,240,9660,2,0,P|287:278|287:318,1,80,2|0,0:0|0:0,0:0:0:0:
132,124,9954,2,0,L|83:60,1,80,2|0,0:0|0:0,0:0:0:0:
236,148,10248,6,0,P|315:141|383:100,1,160,2|0,0:0|3:0,0:0:0:0:
424,12,10690,1,0,0:0:0:0:
432,184,10837,2,0,P|455:215|488:238,1,80,2|0,0:0|0:0,0:0:0:0:
476,100,11131,5,2,0:0:0:0:
332,184,11278,2,0,P|336:223|353:259,1,80,2|0,0:0|3:0,0:0:0:0:
384,100,11572,1,2,3:2:0:0:
224,4,11719,2,0,P|192:27|169:60,1,80,2|0,0:0|0:0,0:0:0:0:
272,96,12013,5,10,0:0:0:0:
96,128,12160,1,2,0:0:0:0:
296,216,12307,1,2,3:2:0:0:
168,60,12454,1,2,0:0:0:0:
196,176,12601,6,0,L|16:288,1,200,4|0,1:2|3:0,0:0:0:0:
196,276,13042,5,0,0:0:0:0:
296,216,13189,2,0,P|300:176|294:136,1,80,10|0,0:0|0:0,0:0:0:0:
112,92,13484,1,2,0:0:0:0:
396,124,13631,6,0,P|403:203|389:281,1,160,2|0,3:2|3:0,0:0:0:0:
172,352,14072,2,0,P|179:313|195:277,1,80,2|0,0:0|0:0,0:0:0:0:
112,92,14366,2,0,P|74:104|34:109,1,80,10|0,0:0|0:0,0:0:0:0:
344,64,14660,2,0,P|374:90|397:122,1,80,2|0,3:2|3:0,0:0:0:0:
216,32,14954,6,0,P|222:110|184:180,1,160,2|0,1:2|3:0,0:0:0:0:
104,232,15395,1,0,0:0:0:0:
288,304,15542,2,0,P|291:264|285:224,1,80,10|0,0:0|0:0,0:0:0:0:
112,92,15837,5,10,0:0:0:0:
344,64,15984,2,0,L|416:100,1,80,2|0,0:0|3:0,0:0:0:0:
236,140,16278,1,2,3:2:0:0:
384,232,16425,2,0,L|409:308,1,80,2|0,0:0|0:0,0:0:0:0:
480,148,16719,5,10,0:0:0:0:
436,384,16866,1,2,0:0:0:0:
296,232,17013,1,2,3:2:0:0:
464,232,17160,1,2,0:0:0:0:
315,348,17307,22,0,P|240:372|161:364,1,160,2|0,1:2|3:0,0:0:0:0:
76,320,17748,1,0,0:0:0:0:
288,152,17895,2,0,P|295:191|296:231,1,80,10|0,0:0|0:0,0:0:0:0:
104,232,18190,1,2,0:0:0:0:
140,24,18337,6,0,P|182:90|187:169,1,160,2|0,3:2|3:0,0:0:0:0:
360,92,18778,2,0,L|363:12,1,80,2|0,0:0|0:0,0:0:0:0:
296,232,19072,2,0,L|292:311,1,80,10|0,0:0|0:0,0:0:0:0:
464,164,19366,2,0,L|467:84,1,80,2|0,3:2|3:0,0:0:0:0:
424,376,19660,6,0,P|390:304|390:224,1,160,2|0,1:2|3:0,0:0:0:0:
464,164,20101,1,0,0:0:0:0:
304,344,20248,2,0,P|268:362|230:372,1,80,10|0,0:0|0:0,0:0:0:0:
24,312,20542,5,10,0:0:0:0:
248,200,20689,2,0,P|249:239|240:278,1,80,2|0,0:0|3:0,0:0:0:0:
136,384,20984,1,2,3:2:0:0:
120,156,21131,2,0,P|140:189|152:227,1,80,2|0,0:0|0:0,0:0:0:0:
24,312,21425,5,10,0:0:0:0:
208,120,21572,1,2,0:0:0:0:
20,128,21719,1,2,3:2:0:0:
56,224,21866,1,2,0:0:0:0:
96,52,22013,22,0,P|162:9|241:4,1,160,2|0,1:2|3:0,0:0:0:0:
296,80,22454,1,0,0:0:0:0:
428,172,22601,2,0,L|387:102,1,80,10|0,0:0|0:0,0:0:0:0:
208,120,22895,1,2,0:0:0:0:
352,268,23042,6,0,P|427:291|502:268,1,160,2|0,3:2|3:0,0:0:0:0:
504,92,23484,2,0,L|463:22,1,80,2|0,0:0|0:0,0:0:0:0:
352,268,23778,2,0,L|330:344,1,80,10|0,0:0|0:0,0:0:0:0:
85,184,24072,2,0,L|49:112,1,80,2|0,3:2|3:0,0:0:0:0:
308,164,24366,6,0,P|250:216|172:224,1,160,2|0,1:2|0:3,0:0:0:0:
85,184,24807,1,0,0:0:0:0:
192,40,24954,2,0,L|207:118,1,80,10|0,0:0|0:0,0:0:0:0:
92,280,25248,1,10,0:0:0:0:
292,380,25395,6,0,L|276:301,1,80,2|0,0:0|3:0,0:0:0:0:
468,316,25689,1,2,3:2:0:0:
196,372,25837,2,0,L|180:293,1,80,2|0,0:0|0:0,0:0:0:0:
372,312,26131,5,10,0:0:0:0:
372,72,26278,1,2,0:0:0:0:
280,192,26425,1,2,3:2:0:0:
208,28,26572,1,2,0:0:0:0:
56,228,26719,22,0,P|129:198|178:136,1,160,2|0,1:2|0:3,0:0:0:0:
100,60,27160,1,0,0:0:0:0:
284,112,27307,2,0,P|284:151|281:191,1,80,10|0,0:0|0:0,0:0:0:0:
152,280,27601,1,2,0:0:0:0:
360,232,27748,6,0,P|335:307|278:362,1,160,2|0,3:2|3:0,0:0:0:0:
408,148,28189,2,0,P|434:177|450:214,1,80,2|0,0:0|0:0,0:0:0:0:
152,280,28484,2,0,P|125:250|109:213,1,80,10|0,0:0|0:0,0:0:0:0:
188,28,28778,2,0,L|184:107,1,80,2|0,3:2|3:0,0:0:0:0:
444,32,29072,6,0,P|365:36|299:81,1,160,2|0,1:2|0:0,0:0:0:0:
288,192,29513,1,0,0:0:0:0:
380,252,29660,2,0,L|420:321,1,80,10|0,0:0|0:0,0:0:0:0:
288,192,29954,5,10,0:0:0:0:
125,296,30101,2,0,L|58:339,1,80,2|0,0:0|3:0,0:0:0:0:
288,192,30395,1,2,3:2:0:0:
125,87,30542,2,0,L|58:44,2,80,2|0|8,0:0|0:0|0:0,0:0:0:0:
136,112,31131,21,8,0:0:0:0:
148,136,31425,6,0,P|159:174|167:213,1,80,2|0,1:2|0:0,0:0:0:0:
36,320,31719,2,0,P|24:281|16:242,1,80,2|0,3:2|0:0,0:0:0:0:
288,192,32013,2,0,P|299:230|307:269,1,80,10|0,0:0|0:0,0:0:0:0:
480,343,32307,6,0,P|499:226|459:114,1,240,2|0,3:2|3:0,0:0:0:0:
316,28,32895,2,0,P|323:67|343:101,1,80,2|0,0:0|0:0,0:0:0:0:
384,272,33190,2,0,P|372:310|349:342,1,80,10|0,0:0|0:0,0:0:0:0:
140,352,33484,2,0,L|215:325,1,80,2|0,3:2|3:0,0:0:0:0:
63,243,33778,6,0,P|55:203|54:164,1,80,2|0,1:2|0:0,0:0:0:0:
184,100,34072,2,0,P|186:139|194:179,1,80,2|0,3:2|0:0,0:0:0:0:
323,107,34366,2,0,P|322:67|316:28,1,80,10|0,0:0|0:0,0:0:0:0:
451,48,34660,2,0,P|458:88|460:128,1,80,10|0,0:0|0:0,0:0:0:0:
468,224,34954,5,2,3:2:0:0:
324,108,35101,1,2,3:2:0:0:
292,256,35248,1,2,3:2:0:0:
292,256,35542,2,0,L|326:183,1,80,10|0,0:0|0:0,0:0:0:0:
136,336,35837,2,0,L|170:263,1,80,2|0,3:2|0:0,0:0:0:0:
56,80,36131,38,0,P|48:119|52:158,1,80,2|0,1:2|0:0,0:0:0:0:
276,36,36425,2,0,P|288:73|292:113,1,80,2|0,3:2|0:0,0:0:0:0:
168,264,36719,2,0,P|171:224|184:186,1,80,10|0,0:0|0:0,0:0:0:0:
424,96,37013,6,0,P|481:199|480:318,1,240,2|0,3:2|3:0,0:0:0:0:
324,344,37601,2,0,P|323:304|334:265,1,80,2|0,0:0|0:0,0:0:0:0:
252,144,37895,2,0,P|280:115|315:96,1,80,10|0,0:0|0:0,0:0:0:0:
168,264,38189,2,0,L|103:310,1,80,2|0,3:2|3:0,0:0:0:0:
65,135,38484,6,0,L|92:60,1,80,2|0,1:2|0:0,0:0:0:0:
160,184,38778,2,0,L|168:264,1,80,2|0,3:2|0:0,0:0:0:0:
344,264,39072,2,0,L|352:184,1,80,10|0,0:0|0:0,0:0:0:0:
420,60,39366,2,0,L|446:135,1,80,10|0,0:0|0:0,0:0:0:0:
448,296,39660,5,2,3:2:0:0:
352,156,39807,1,2,3:2:0:0:
216,324,39954,1,2,3:2:0:0:
216,324,40248,2,0,P|176:323|136:331,1,80,10|0,0:0|0:0,0:0:0:0:
160,184,40542,2,0,P|125:203|95:230,1,80,2|0,3:2|0:0,0:0:0:0:
8,24,40837,38,0,P|15:63|31:99,1,80,2|0,1:2|0:0,0:0:0:0:
256,48,41131,2,0,L|176:48,1,80,2|0,3:2|0:0,0:0:0:0:
480,92,41425,2,0,P|495:128|503:167,1,80,10|0,0:0|0:0,0:0:0:0:
336,144,41719,2,0,L|256:144,1,80,2|0,3:2|3:0,0:0:0:0:
502,272,42013,6,0,P|414:349|297:351,1,240,2|0,3:2|0:0,0:0:0:0:
336,144,42601,2,0,P|349:181|355:221,1,80,10|0,0:0|0:0,0:0:0:0:
188,380,42895,2,0,P|174:342|168:302,1,80,2|0,3:2|3:0,0:0:0:0:
232,112,43189,6,0,L|163:70,1,80,2|0,1:2|0:0,0:0:0:0:
124,200,43484,2,0,L|44:206,1,80,2|0,3:2|0:0,0:0:0:0:
204,300,43778,2,0,L|188:378,1,80,10|0,0:0|0:0,0:0:0:0:
348,316,44072,2,0,P|386:323|426:316,1,80,10|0,0:0|0:0,0:0:0:0:
440,84,44366,5,2,3:2:0:0:
508,240,44513,1,2,3:2:0:0:
296,188,44660,1,2,3:2:0:0:
296,188,44954,2,0,L|218:167,1,80,10|0,0:0|0:0,0:0:0:0:
320,44,45248,2,0,L|242:23,1,80,2|0,3:2|0:0,0:0:0:0:
39,56,45542,38,0,P|35:95|42:134,1,80,2|0,1:2|0:0,0:0:0:0:
128,308,45837,2,0,P|132:268|125:229,1,80,2|0,3:2|0:0,0:0:0:0:
320,44,46131,2,0,P|324:83|317:122,1,80,10|0,0:0|0:0,0:0:0:0:
220,288,46425,2,0,P|215:248|222:209,1,80,2|0,3:2|3:0,0:0:0:0:
440,84,46719,6,0,P|486:192|466:309,1,240,2|0,3:2|0:0,0:0:0:0:
220,288,47307,2,0,L|272:348,1,80,10|0,0:0|0:0,0:0:0:0:
340,204,47601,2,0,L|288:144,1,80,2|0,3:2|3:0,0:0:0:0:
35,295,47895,6,0,P|74:290|111:274,1,80,2|0,1:2|0:0,0:0:0:0:
232,52,48189,2,0,P|202:78|182:113,1,80,2|0,3:2|0:0,0:0:0:0:
215,365,48484,2,0,P|223:326|219:286,1,80,10|0,0:0|0:0,0:0:0:0:
45,101,48778,2,0,P|61:137|87:167,1,80,10|0,0:0|0:0,0:0:0:0:
288,144,49072,5,2,3:2:0:0:
440,84,49219,1,2,3:2:0:0:
492,304,49366,1,2,3:2:0:0:
492,304,49660,2,0,L|432:357,1,80,10|0,0:0|0:0,0:0:0:0:
276,312,49954,2,0,L|216:365,1,80,2|0,3:2|0:0,0:0:0:0:
56,364,50248,38,0,P|70:327|74:287,1,80,2|0,1:2|0:0,0:0:0:0:
8,112,50542,2,0,P|11:151|27:188,1,80,2|0,3:2|0:0,0:0:0:0:
196,92,50837,2,0,L|121:121,1,80,10|0,0:0|0:0,0:0:0:0:
280,16,51131,6,0,P|398:7|505:58,1,240,2|0,0:0|3:0,0:0:0:0:
336,116,51719,2,0,P|375:115|412:131,1,80,2|0,0:0|0:0,0:0:0:0:
376,304,52013,2,0,P|355:269|351:230,1,80,10|0,0:0|0:0,0:0:0:0:
512,176,52307,2,0,P|492:210|460:233,1,80,2|0,3:2|3:0,0:0:0:0:
248,284,52601,6,0,L|219:358,1,80,2|0,1:2|0:0,0:0:0:0:
71,198,52895,2,0,L|100:124,1,80,2|0,3:2|0:0,0:0:0:0:
128,292,53189,2,0,L|99:366,1,80,10|0,0:0|0:0,0:0:0:0:
212,160,53484,2,0,L|240:85,1,80,10|0,0:0|0:0,0:0:0:0:
248,284,53778,5,2,3:2:0:0:
348,84,53925,1,2,3:2:0:0:
352,228,54072,1,2,3:2:0:0:
352,228,54366,2,0,L|416:274,1,80,10|0,0:0|0:0,0:0:0:0:
248,284,54660,2,0,L|312:330,1,80,2|0,3:2|0:0,0:0:0:0:
500,319,54954,38,0,P|507:280|504:241,1,80,2|0,1:2|0:0,0:0:0:0:
428,88,55248,2,0,L|389:17,1,80,2|0,3:2|0:0,0:0:0:0:
416,276,55542,2,0,L|347:317,1,80,10|0,0:0|0:0,0:0:0:0:
188,340,55837,6,0,P|94:266|52:155,1,240,2|0,0:0|3:0,0:0:0:0:
268,160,56425,2,0,P|228:161|189:150,1,80,2|0,0:0|0:0,0:0:0:0:
88,56,56719,2,0,P|116:27|151:8,1,80,10|0,0:0|0:0,0:0:0:0:
348,96,57013,2,0,P|387:96|427:89,1,80,2|0,3:2|3:0,0:0:0:0:
236,252,57307,6,0,P|241:291|253:329,1,80,2|0,1:2|0:0,0:0:0:0:
96,160,57601,2,0,P|88:199|88:239,1,80,2|0,3:2|0:0,0:0:0:0:
251,84,57895,2,0,P|252:123|269:159,1,80,10|0,0:0|0:0,0:0:0:0:
440,64,58189,2,8,P|419:29|386:7,1,80,10|0,0:0|0:0,0:0:0:0:
432,224,58484,5,2,3:2:0:0:
268,160,58631,1,2,3:2:0:0:
188,340,58778,1,2,3:2:0:0:
188,340,59072,2,0,L|165:263,1,80,10|0,0:0|0:0,0:0:0:0:
56,380,59366,2,0,L|32:304,1,80,2|0,3:2|0:0,0:0:0:0:
40,88,59660,38,0,P|47:127|63:163,1,80,2|0,1:2|0:0,0:0:0:0:
264,256,59954,2,0,P|256:216|240:180,1,80,2|0,3:2|0:0,0:0:0:0:
136,108,60248,2,0,P|175:104|212:88,1,80,10|0,0:0|0:0,0:0:0:0:
392,24,60542,2,0,P|352:20|312:23,1,80,2|0,3:2|3:0,0:0:0:0:
144,252,60837,6,0,P|194:355|308:372,1,240,2|0,3:2|0:0,0:0:0:0:
328,211,61425,2,0,P|291:227|264:256,1,80,10|0,0:0|0:0,0:0:0:0:
444,240,61719,2,0,P|447:200|436:162,1,80,2|0,3:2|3:0,0:0:0:0:
288,40,62013,6,0,L|332:106,1,80,2|0,1:2|0:0,0:0:0:0:
488,308,62307,2,0,L|443:241,1,80,2|0,3:2|0:0,0:0:0:0:
248,212,62601,2,0,L|328:212,1,80,10|0,0:0|0:0,0:0:0:0:
508,48,62895,2,0,L|428:48,1,80,10|0,0:0|0:0,0:0:0:0:
224,132,63189,5,2,3:2:0:0:
40,88,63337,1,2,3:2:0:0:
4,228,63484,1,2,3:2:0:0:
4,228,63778,2,0,L|28:304,1,80,10|0,0:0|0:0,0:0:0:0:
168,264,64072,2,0,L|192:340,1,80,2|0,3:2|0:0,0:0:0:0:
336,188,64366,38,0,P|375:180|415:178,1,80,2|0,1:2|0:0,0:0:0:0:
508,324,64660,2,0,P|468:316|434:296,1,80,2|0,3:2|0:0,0:0:0:0:
512,144,64954,2,0,P|516:183|509:222,1,80,10|0,0:0|0:0,0:0:0:0:
244,224,65248,2,0,P|239:184|246:145,1,80,2|0,3:2|3:0,0:0:0:0:
344,16,65542,6,0,P|380:128|344:241,1,240,2|0,3:2|0:0,0:0:0:0:
152,96,66131,2,0,P|176:64|209:42,1,80,10|0,0:0|0:0,0:0:0:0:
112,200,66425,2,0,L|35:222,1,80,2|0,3:2|3:0,0:0:0:0:
284,216,66719,6,0,P|310:246|326:282,1,80,2|0,1:2|0:2,0:0:0:0:
152,97,67013,2,0,P|148:57|156:18,1,80,2|0,0:0|0:0,0:0:0:0:
189,271,67307,2,0,P|169:305|139:331,1,80,10|0,0:0|0:0,0:0:0:0:
260,110,67601,2,0,P|296:94|336:88,1,80,10|0,0:0|0:0,0:0:0:0:
504,184,67895,5,2,0:0:0:0:
284,216,68042,1,2,0:0:0:0:
472,304,68189,1,2,3:2:0:0:
472,304,68484,2,0,L|444:378,1,80,10|0,0:0|0:0,0:0:0:0:
376,232,68778,2,0,L|348:306,1,80,2|0,0:0|0:0,0:0:0:0:
152,360,69072,22,0,L|83:172,1,200,4|0,1:2|3:0,0:0:0:0:
120,52,69513,5,0,0:0:0:0:
326,96,69660,2,0,L|324:176,1,80,10|0,0:0|0:0,0:0:0:0:
216,136,69954,1,2,0:0:0:0:
432,44,70101,6,0,L|428:203,1,160,2|0,3:2|3:0,0:0:0:0:
108,176,70542,2,0,L|108:96,1,80,2|0,0:0|0:0,0:0:0:0:
48,264,70837,2,0,P|84:280|124:281,1,80,10|0,0:0|0:0,0:0:0:0:
428,288,71131,2,0,P|391:271|351:270,1,80,2|0,3:2|3:0,0:0:0:0:
192,383,71425,6,0,P|237:319|244:240,1,160,2|0,1:2|3:0,0:0:0:0:
216,136,71866,1,0,0:0:0:0:
448,20,72013,2,0,P|455:59|453:99,1,80,10|0,0:0|0:0,0:0:0:0:
320,168,72307,5,10,0:0:0:0:
120,100,72454,2,0,L|46:68,1,80,2|0,0:0|3:0,0:0:0:0:
296,68,72748,1,2,3:2:0:0:
132,196,72895,2,0,L|67:242,1,80,2|0,0:0|0:0,0:0:0:0:
260,336,73189,5,10,0:0:0:0:
492,304,73337,1,2,0:0:0:0:
320,168,73484,1,2,3:2:0:0:
376,320,73631,1,2,0:0:0:0:
148,352,73778,22,0,P|127:274|132:195,1,160,2|0,1:2|3:0,0:0:0:0:
216,136,74219,1,0,0:0:0:0:
48,132,74366,2,0,P|32:168|28:208,1,80,10|0,0:0|0:0,0:0:0:0:
232,260,74660,1,2,3:2:0:0:
432,184,74807,6,0,P|427:104|385:38,1,160,2|0,3:2|3:0,0:0:0:0:
341,255,75248,2,0,L|364:332,1,80,2|0,0:0|0:0,0:0:0:0:
148,352,75542,2,0,L|125:275,1,80,10|0,0:0|0:0,0:0:0:0:
193,59,75837,2,0,L|216:136,1,80,2|0,3:2|3:0,0:0:0:0:
460,76,76131,6,0,P|387:107|308:108,1,160,2|0,1:2|3:0,0:0:0:0:
192,60,76572,1,0,0:0:0:0:
24,184,76719,2,0,L|12:264,1,80,10|0,0:0|0:0,0:0:0:0:
108,124,77013,5,10,0:0:0:0:
296,196,77160,2,0,P|285:234|258:263,1,80,2|0,0:0|3:0,0:0:0:0:
193,183,77454,1,2,3:2:0:0:
319,340,77601,2,0,P|284:358|245:358,1,80,2|0,0:0|0:0,0:0:0:0:
376,252,77895,5,10,0:0:0:0:
144,272,78042,1,2,0:0:0:0:
252,104,78189,1,2,3:2:0:0:
260,264,78337,1,2,0:0:0:0:
344,52,78484,22,0,P|416:84|463:147,1,160,2|0,1:2|3:0,0:0:0:0:
488,256,78925,1,0,0:0:0:0:
320,344,79072,2,0,L|240:356,1,80,8|0,0:0|0:0,0:0:0:0:
376,252,79366,1,2,3:2:0:0:
251,103,79513,6,0,P|178:76|102:96,1,160,2|0,3:2|3:0,0:0:0:0:
144,272,79954,2,0,L|168:196,1,80,2|0,0:0|0:0,0:0:0:0:
344,52,80248,2,0,L|355:131,1,80,10|0,0:0|0:0,0:0:0:0:
80,172,80542,2,0,L|104:96,1,80,2|0,3:2|3:0,0:0:0:0:
432,4,80837,6,0,L|455:162,1,160,2|0,1:2|3:0,0:0:0:0:
476,272,81278,1,0,0:0:0:0:
280,256,81425,2,0,L|304:179,1,80,10|0,0:0|0:0,0:0:0:0:
344,52,81719,5,10,0:0:0:0:
375,296,81866,2,0,P|354:329|321:351,1,80,2|0,0:0|3:0,0:0:0:0:
384,204,82160,1,2,3:2:0:0:
188,312,82307,2,0,P|172:275|171:235,1,80,2|0,0:0|0:0,0:0:0:0:
244,124,82601,5,10,0:0:0:0:
280,256,82748,1,2,0:0:0:0:
72,212,82895,1,2,3:2:0:0:
216,12,83042,1,2,0:0:0:0:
171,236,83189,22,0,P|127:299|50:309,1,160,2|0,1:2|3:0,0:0:0:0:
72,212,83631,1,0,0:0:0:0:
244,124,83778,2,0,L|311:81,1,80,10|0,0:0|0:0,0:0:0:0:
128,104,84072,1,2,3:2:0:0:
352,168,84219,6,0,P|391:235|379:313,1,160,2|0,3:2|3:0,0:0:0:0:
504,264,84660,2,0,P|494:225|498:185,1,80,2|0,0:0|0:0,0:0:0:0:
280,256,84954,2,0,L|200:266,1,80,10|0,0:0|0:0,0:0:0:0:
36,376,85248,2,0,P|74:368|107:345,1,80,2|0,3:2|3:2,0:0:0:0:
43,91,85542,6,0,P|47:170|92:236,1,160,2|0,1:2|3:0,0:0:0:0:
200,268,85984,1,0,0:0:0:0:
352,168,86131,2,0,L|417:121,1,80,10|0,0:0|0:0,0:0:0:0:
158,176,86425,5,10,0:0:0:0:
352,168,86572,2,0,L|431:164,1,80,2|0,0:0|3:0,0:0:0:0:
179,77,86866,1,2,3:2:0:0:
352,168,87013,2,0,L|422:204,2,80,2|0|8,0:0|0:0|0:0,0:0:0:0:
324,176,87601,21,8,0:0:0:0:
296,184,87895,6,0,L|241:242,1,80,2|0,1:2|0:0,0:0:0:0:
56,288,88189,2,0,P|62:248|80:213,1,80,2|0,3:2|0:0,0:0:0:0:
180,76,88484,2,0,P|180:115|176:155,1,80,10|0,0:0|0:0,0:0:0:0:
160,340,88778,6,0,P|277:335|367:258,1,240,2|0,3:2|3:0,0:0:0:0:
488,152,89366,2,0,P|495:191|495:231,1,80,2|0,0:0|0:0,0:0:0:0:
351,111,89660,2,0,P|351:72|363:33,1,80,10|0,0:0|0:0,0:0:0:0:
180,76,89954,2,0,L|100:76,1,80,2|0,0:0|0:0,0:0:0:0:
92,248,90248,6,0,P|118:218|134:181,1,80,2|0,1:2|0:0,0:0:0:0:
272,256,90542,2,0,P|269:216|255:179,1,80,2|0,3:2|0:0,0:0:0:0:
418,154,90837,2,0,P|388:128|352:112,1,80,10|0,0:0|0:0,0:0:0:0:
300,348,91131,5,10,0:0:0:0:
452,300,91278,2,0,L|506:241,1,80,2|0,0:0|3:0,0:0:0:0:
200,324,91572,1,2,3:2:0:0:
340,199,91719,2,0,P|330:141|292:95,1,120,2|0,0:0|0:0,0:0:0:0:
248,84,92013,6,0,L|282:11,1,80,10|0,0:0|0:0,0:0:0:0:
420,96,92307,2,0,L|454:23,1,80,2|0,3:2|0:0,0:0:0:0:
231,192,92601,22,0,P|196:210|157:219,1,80,2|0,1:2|0:0,0:0:0:0:
64,32,92895,2,0,P|103:31|143:38,1,80,2|0,3:2|0:0,0:0:0:0:
60,160,93189,2,0,P|48:198|44:237,1,80,10|0,0:0|0:0,0:0:0:0:
204,344,93484,6,0,P|318:318|392:226,1,240,2|0,0:0|3:0,0:0:0:0:
345,53,94072,2,0,P|334:92|336:132,1,80,2|0,0:0|0:0,0:0:0:0:
500,240,94366,2,0,P|510:201|509:161,1,80,10|0,0:0|0:0,0:0:0:0:
224,140,94660,2,0,P|233:178|254:212,1,80,2|0,3:2|3:0,0:0:0:0:
120,100,94954,6,0,L|46:68,1,80,2|0,1:2|0:0,0:0:0:0:
136,220,95248,2,0,L|56:220,1,80,2|0,3:2|0:0,0:0:0:0:
212,324,95542,2,0,L|138:355,1,80,10|0,0:0|0:0,0:0:0:0:
356,268,95837,5,2,0:0:0:0:
224,139,95984,2,0,P|255:116|293:101,1,80,2|0,0:0|3:0,0:0:0:0:
428,344,96278,1,2,3:2:0:0:
284,207,96425,2,0,P|336:179|394:187,1,120,2|0,0:0|0:0,0:0:0:0:
436,208,96719,6,0,L|458:131,1,80,10|0,0:0|0:0,0:0:0:0:
296,100,97013,2,0,L|321:24,1,80,2|0,3:2|0:0,0:0:0:0:
80,80,97307,22,0,P|48:103|25:136,1,80,2|0,1:2|0:0,0:0:0:0:
232,271,97601,2,0,P|213:237|187:206,1,80,2|0,3:2|0:0,0:0:0:0:
9,364,97895,2,0,P|48:368|88:364,1,80,10|0,0:0|0:0,0:0:0:0:
233,271,98189,2,0,P|271:264|311:271,1,80,2|0,0:0|3:0,0:0:0:0:
420,364,98484,6,0,P|497:276|499:159,1,240,2|0,3:2|0:0,0:0:0:0:
348,135,99072,2,0,L|339:56,1,80,10|0,0:0|0:0,0:0:0:0:
152,8,99366,2,0,L|132:86,1,80,2|0,3:2|3:0,0:0:0:0:
272,188,99660,6,0,P|303:213|340:227,1,80,2|0,1:2|0:0,0:0:0:0:
100,200,99954,2,0,P|64:216|24:218,1,80,2|0,3:2|0:0,0:0:0:0:
232,296,100248,2,0,L|277:362,1,80,10|0,0:0|0:0,0:0:0:0:
136,288,100542,5,2,0:0:0:0:
368,320,100689,2,0,P|402:300|433:275,1,80,2|0,0:0|3:0,0:0:0:0:
272,188,100984,1,2,3:2:0:0:
484,207,101131,2,0,P|498:150|496:90,1,120,2|0,0:0|0:0,0:0:0:0:
476,48,101425,6,0,L|396:44,1,80,10|0,0:0|0:0,0:0:0:0:
352,192,101719,2,0,L|272:188,1,80,2|0,3:2|0:0,0:0:0:0:
136,288,102013,22,0,P|96:295|57:291,1,80,2|0,1:2|0:0,0:0:0:0:
8,80,102307,2,0,P|47:73|86:77,1,80,2|0,3:2|0:0,0:0:0:0:
308,44,102601,2,0,P|276:67|239:81,1,80,10|0,2:0|0:0,0:0:0:0:
140,208,102895,2,0,P|133:247|138:286,1,80,2|0,0:0|3:0,0:0:0:0:
333,269,103189,6,0,P|353:153|308:44,1,240,2|0,3:2|0:0,0:0:0:0:
240,328,103778,2,0,P|264:352|320:376,1,80,10|0,0:0|0:0,0:0:0:0:
496,264,104072,2,0,P|472:240|416:216,1,80,2|0,3:2|3:0,0:0:0:0:
280,160,104366,6,0,P|263:195|236:225,1,80,2|0,1:2|0:0,0:0:0:0:
0,182,104660,2,0,P|34:163|73:154,1,80,2|0,3:2|0:0,0:0:0:0:
239,328,104954,2,0,P|200:323|163:307,1,80,2|0,0:0|0:0,0:0:0:0:
131,69,105248,5,2,0:0:0:0:
66,342,105395,2,0,P|58:303|62:263,1,80,2|0,0:0|3:0,0:0:0:0:
280,160,105689,1,2,3:2:0:0:
464,220,105837,2,0,P|479:277|469:336,1,120,2|0,0:0|0:0,0:0:0:0:
420,332,106131,6,0,L|352:376,1,80,10|0,0:0|0:0,0:0:0:0:
352,248,106425,2,0,L|284:292,1,80,2|0,3:2|0:0,0:0:0:0:
280,160,106719,5,4,2:1:0:0:
