osu file format v14

[General]
AudioFilename: KaeriMichi.mp3
AudioLeadIn: 0
PreviewTime: 11866
Countdown: 0
SampleSet: Soft
StackLeniency: 0.7
Mode: 0
LetterboxInBreaks: 0
EpilepsyWarning: 1
WidescreenStoryboard: 1

[Editor]
DistanceSpacing: 1.2
BeatDivisor: 2
GridSize: 4
TimelineZoom: 0.3999999

[Metadata]
Title:KaeriMichi
TitleUnicode:帰路 - KaeriMichi -
Artist:Otokaze
ArtistUnicode:Otokaze
Creator:Narcissu
Version:Easy
Source:
Tags:Sharlo 归路 彩る四季、風と音色。 Jazz
BeatmapID:495136
BeatmapSetID:209841

[Difficulty]
HPDrainRate:2
CircleSize:3
OverallDifficulty:2
ApproachRate:3
SliderMultiplier:1
SliderTickRate:1

[Events]
//Background and Video events
0,0,"BG.jpg",0,0
//Break Periods
//Storyboard Layer 0 (Background)
//Storyboard Layer 1 (Fail)
//Storyboard Layer 2 (Pass)
//Storyboard Layer 3 (Foreground)
//Storyboard Sound Samples

[TimingPoints]
3190,588.235294117647,4,2,1,60,1,0
12601,-100,4,2,0,60,0,1
12895,-100,4,2,1,60,0,0
69072,-100,4,2,0,60,0,1
69366,-100,4,2,1,60,0,0
106719,-100,4,2,1,30,0,0

[Colours]
Combo1 : 255,128,255
Combo2 : 142,247,255
Combo3 : 183,249,111
Combo4 : 124,252,210
SliderBorder : 255,255,255

[HitObjects]
140,76,3190,5,2,0:0:0:0:
52,160,3778,2,0,P|48:252|112:344,1,200
224,344,5542,1,2,0:0:0:0:
296,248,6131,2,0,L|260:154,2,100,0|0|0,0:0|0:0|0:0,0:0:0:0:
412,280,7895,5,2,0:0:0:0:
460,171,8484,2,0,P|424:80|343:23,1,200
224,44,10248,1,2,0:0:0:0:
120,104,10837,2,0,L|12:88,2,100,0|0|8,0:0|0:0|0:0,0:0:0:0:
228,156,12601,5,4,0:0:0:0:
116,196,13189,2,0,L|84:290,1,100,8|0,0:0|0:0,0:0:0:0:
180,364,14366,1,8,0:0:0:0:
284,304,14954,1,2,0:0:0:0:
404,288,15542,2,0,L|456:316,1,50,8|8,0:0|0:0,0:0:0:0:
476,132,16719,1,8,0:0:0:0:
380,60,17307,6,0,P|330:51|280:55,1,100,2|8,0:0|0:0,0:0:0:0:
180,116,18484,1,0,0:0:0:0:
60,100,19072,1,8,0:0:0:0:
68,220,19660,2,0,L|44:340,1,100,2|8,0:0|0:0,0:0:0:0:
92,360,20542,1,8,0:0:0:0:
256,288,21425,1,8,0:0:0:0:
364,336,22013,5,2,0:0:0:0:
464,268,22601,2,0,L|492:160,1,100,8|0,0:0|0:0,0:0:0:0:
384,116,23778,2,0,L|368:8,1,100,8|2,0:0|0:0,0:0:0:0:
256,56,24954,2,0,L|236:124,1,50,8|8,0:0|0:0,0:0:0:0:
64,88,26131,1,8,0:0:0:0:
92,204,26719,5,2,0:0:0:0:
212,216,27307,2,0,L|232:328,1,100,8|0,0:0|0:0,0:0:0:0:
344,348,28484,1,8,0:0:0:0:
448,292,29072,1,2,0:0:0:0:
387,187,29660,2,0,P|420:148|428:88,2,100,0|0|8,0:0|0:0|0:0,0:0:0:0:
312,96,31425,6,0,P|225:48|127:55,1,200,2|0,0:0|0:0,0:0:0:0:
24,120,33189,1,8,0:0:0:0:
72,232,33778,1,2,0:0:0:0:
192,240,34366,2,0,L|232:208,1,50,8|8,0:0|0:0,0:0:0:0:
344,348,35542,1,8,0:0:0:0:
448,288,36131,6,0,P|500:204|476:99,1,200,2|0,0:0|0:0,0:0:0:0:
364,104,37895,1,8,0:0:0:0:
280,16,38484,1,2,0:0:0:0:
168,52,39072,2,0,L|84:32,1,50,8|8,0:0|0:0,0:0:0:0:
276,132,40248,1,8,0:0:0:0:
176,196,40837,6,0,P|152:272|212:380,1,200,2|0,0:0|0:0,0:0:0:0:
272,276,42601,1,8,0:0:0:0:
388,308,43189,1,2,0:0:0:0:
460,212,43778,2,0,L|476:152,1,50,8|8,0:0|0:0,0:0:0:0:
336,44,44954,1,8,0:0:0:0:
352,164,45542,6,0,P|256:196|136:168,1,200,2|0,0:0|0:0,0:0:0:0:
72,100,47307,1,8,0:0:0:0:
8,200,47895,2,0,L|40:364,2,150,2|0|8,0:0|0:0|0:0,0:0:0:0:
112,260,50248,6,0,P|199:308|297:301,1,200,2|0,0:0|0:0,0:0:0:0:
376,212,52012,1,8,0:0:0:0:
496,200,52601,1,2,0:0:0:0:
428,104,53189,2,0,L|412:52,1,50,8|8,0:0|0:0,0:0:0:0:
236,28,54365,1,8,0:0:0:0:
116,48,54954,6,0,P|60:132|64:240,1,200,2|0,0:0|0:0,0:0:0:0:
172,272,56719,1,8,0:0:0:0:
256,360,57308,1,2,0:0:0:0:
368,324,57896,2,0,L|452:344,1,50,8|8,0:0|0:0,0:0:0:0:
260,244,59072,1,8,0:0:0:0:
360,180,59661,6,0,P|384:104|324:-4,1,200,2|0,0:0|0:0,0:0:0:0:
268,104,61425,1,8,0:0:0:0:
152,72,62013,1,2,0:0:0:0:
80,168,62602,2,0,L|64:228,1,50,8|8,0:0|0:0,0:0:0:0:
200,332,63778,1,8,0:0:0:0:
316,356,64365,6,0,P|404:292|408:192,1,200,2|0,0:0|0:0,0:0:0:0:
344,108,66130,1,8,0:0:0:0:
232,148,66719,2,0,P|152:128|92:52,2,150,2|0|0,0:0|0:0|0:0,0:0:0:0:
344,108,69072,5,4,0:0:0:0:
428,192,69660,2,0,L|396:286,1,100,8|0,0:0|0:0,0:0:0:0:
308,368,70837,1,8,0:0:0:0:
208,300,71425,1,2,0:0:0:0:
92,268,72013,2,0,L|40:304,1,50,8|8,0:0|0:0,0:0:0:0:
52,116,73190,1,8,0:0:0:0:
152,52,73778,6,0,P|201:48|250:57,1,100,2|8,0:0|0:0,0:0:0:0:
348,128,74955,1,0,0:0:0:0:
448,60,75543,1,8,0:0:0:0:
460,180,76131,2,0,L|464:308,1,100,2|8,0:0|0:0,0:0:0:0:
424,324,77013,1,8,0:0:0:0:
256,256,77896,1,8,0:0:0:0:
156,324,78484,5,2,0:0:0:0:
48,268,79072,2,0,L|20:160,1,100,8|0,0:0|0:0,0:0:0:0:
128,116,80249,2,0,L|144:8,1,100,8|2,0:0|0:0,0:0:0:0:
256,56,81425,2,0,L|272:124,1,50,8|8,0:0|0:0,0:0:0:0:
444,68,82602,1,8,0:0:0:0:
416,184,83190,5,2,0:0:0:0:
300,216,83778,2,0,L|280:328,1,100,8|0,0:0|0:0,0:0:0:0:
168,348,84955,1,8,0:0:0:0:
64,292,85543,1,2,0:0:0:0:
125,187,86131,2,0,P|104:140|68:108,2,100,8|0|8,0:0|0:0|0:0,0:0:0:0:
200,96,87895,6,0,P|287:48|385:55,1,200,2|0,0:0|0:0,0:0:0:0:
488,120,89659,1,8,0:0:0:0:
440,232,90248,1,2,0:0:0:0:
320,228,90836,2,0,L|276:204,1,50,8|8,0:0|0:0,0:0:0:0:
168,348,92012,1,8,0:0:0:0:
64,288,92601,6,0,P|24:197|36:99,1,200,2|0,0:0|0:0,0:0:0:0:
156,112,94366,1,8,0:0:0:0:
240,24,94955,1,2,0:0:0:0:
352,60,95543,2,0,L|436:40,1,50,8|8,0:0|0:0,0:0:0:0:
244,140,96719,1,8,0:0:0:0:
344,204,97308,6,0,P|368:280|308:388,1,200,2|0,0:0|0:0,0:0:0:0:
252,280,99072,1,8,0:0:0:0:
136,312,99660,1,2,0:0:0:0:
64,216,100249,2,0,L|48:156,1,50,8|8,0:0|0:0,0:0:0:0:
184,52,101425,1,8,0:0:0:0:
132,156,102012,6,0,P|180:244|308:276,1,200,2|0,0:0|0:0,0:0:0:0:
388,268,103777,1,8,0:0:0:0:
424,152,104366,1,2,0:0:0:0:
316,96,104954,2,0,L|268:148,1,50,8|8,0:0|0:0,0:0:0:0:
104,152,106131,1,8,0:0:0:0:
140,268,106719,5,4,0:1:0:0:
