osu file format v13

[General]
AudioFilename: Otokaze- - KaeriMichi -.mp3
AudioLeadIn: 0
PreviewTime: 2793
Countdown: 0
SampleSet: Soft
StackLeniency: 0.7
Mode: 0
LetterboxInBreaks: 1
WidescreenStoryboard: 1

[Editor]
DistanceSpacing: 1
BeatDivisor: 8
GridSize: 4
TimelineZoom: 1.4

[Metadata]
Title:KaeriMichi
TitleUnicode:帰路 - KaeriMichi -
Artist:Otokaze
ArtistUnicode:Otokaze
Creator:Guu
Version:Okaeri
Source:
Tags:Otokaze karen saigetsu 归路 音风
BeatmapID:435520
BeatmapSetID:176164

[Difficulty]
HPDrainRate:6
CircleSize:4
OverallDifficulty:8
ApproachRate:9
SliderMultiplier:2.4
SliderTickRate:2

[Events]
//Background and Video events
0,0,"IMG_0144.jpg",0,0
//Break Periods
2,107111,115429
//Storyboard Layer 0 (Background)
//Storyboard Layer 1 (Fail)
//Storyboard Layer 2 (Pass)
//Storyboard Layer 3 (Foreground)
//Storyboard Sound Samples
//Background Colour Transformations
3,100,163,162,255

[TimingPoints]
3088,588.235294117647,4,2,0,20,1,0
3088,-133.333333333333,4,2,0,20,0,0
12058,-100,4,2,0,40,0,0
12499,-100,4,2,0,40,0,1
31323,-133.333333333333,4,2,0,30,0,0
68970,-83.3333333333333,4,2,0,40,0,1
87205,-100,4,2,0,40,0,0
106617,-133.333333333333,4,2,0,20,0,0
116029,-100,4,2,0,20,0,0
134852,-83.3333333333333,4,2,0,40,0,1
152499,-166.666666666667,4,2,0,40,0,0
153087,-200,4,2,0,20,0,0
172499,-83.3333333333333,4,2,0,40,0,0
191323,-100,4,2,0,40,0,0
209558,-100,4,2,0,20,0,0

[Colours]
Combo1 : 255,103,60
Combo2 : 255,159,159
Combo3 : 255,165,64
Combo4 : 255,64,64

[HitObjects]
36,168,3088,6,0,P|80:180|124:168,1,90.0000034332277
204,124,3676,1,0,0:0:0:0:
48,80,3970,1,0,0:0:0:0:
36,168,4117,2,0,P|68:200|112:212,1,90.0000034332277
188,212,4558,1,0,0:0:0:0:
25,255,4852,1,0,0:0:0:0:
176,300,5146,1,0,0:0:0:0:
264,172,5440,5,0,0:0:0:0:
264,172,6029,2,0,P|260:196|248:220,1,45.0000017166138
216,296,6323,1,0,0:0:0:0:
92,348,6470,2,0,P|60:320|36:272,1,90.0000034332277
24,148,6911,2,0,P|64:176|112:184,1,90.0000034332277
244,188,7352,1,0,0:0:0:0:
336,176,7499,2,0,L|380:144,1,45.0000017166138,0|0,0:0|0:0,0:0:0:0:
316,28,7793,6,0,P|266:26|224:32,1,90.0000034332277
56,92,8382,1,0,0:0:0:0:
56,92,8676,1,0,0:0:0:0:
136,144,8823,2,0,P|180:168|208:208,1,90.0000034332277
244,328,9264,1,0,0:0:0:0:
104,288,9558,1,0,0:0:0:0:
204,200,9852,1,0,0:0:0:0:
348,176,10146,5,0,0:0:0:0:
288,304,10440,1,0,0:0:0:0:
396,280,10735,2,0,P|416:296|431:320,1,45.0000017166138
480,372,11029,1,0,0:0:0:0:
484,248,11176,2,0,P|500:208|500:160,1,90.0000034332277
408,188,11617,2,0,P|399:162|396:136,1,45.0000017166138
460,80,11911,5,0,0:0:0:0:
368,40,12058,1,0,0:0:0:0:
260,20,12205,1,0,0:0:0:0:
148,20,12352,1,0,0:0:0:0:
32,44,12499,6,0,P|52:104|108:144,1,120
268,192,12940,1,0,0:0:0:0:
388,212,13087,2,0,P|408:236|424:272,1,60
340,352,13382,1,0,0:0:0:0:
232,296,13529,2,0,L|232:356,2,60,0|0|0,0:0|0:0|0:0,0:0:0:0:
132,244,13970,2,0,L|132:180,1,60,0|0,0:0|0:0,0:0:0:0:
24,180,14264,2,0,L|24:244,1,60,0|0,0:0|0:0,0:0:0:0:
24,60,14558,2,0,L|24:0,1,60,0|0,0:0|0:0,0:0:0:0:
100,120,14852,6,0,P|152:136|216:132,1,120
363,55,15293,1,0,0:0:0:0:
363,55,15440,2,0,P|336:48|300:56,1,60
327,143,15735,1,0,0:0:0:0:
327,143,15882,2,0,P|295:151|263:171,1,60
380,216,16176,1,0,0:0:0:0:
332,296,16323,2,0,P|320:324|295:354,1,60
214,313,16617,1,0,0:0:0:0:
161,205,16764,1,0,0:0:0:0:
247,121,16911,1,0,0:0:0:0:
353,178,17058,1,0,0:0:0:0:
232,200,17205,6,0,P|184:164|168:108,1,120
164,20,17646,1,0,0:0:0:0:
284,24,17793,2,0,P|256:20|224:20,1,60
194,131,18087,1,0,0:0:0:0:
194,131,18235,2,0,P|164:148|142:183,1,60,0|0,0:0|0:0,0:0:0:0:
264,200,18529,1,0,0:0:0:0:
264,200,18676,2,0,P|292:212|309:235,1,60
195,265,18970,2,0,P|163:281|143:317,1,60,0|0,0:0|0:0,0:0:0:0:
256,352,19264,2,0,P|231:374|196:384,1,60
92,228,19558,6,0,P|136:172|188:164,1,120
296,316,19999,1,0,0:0:0:0:
296,316,20146,2,0,P|280:346|259:366,1,60
152,316,20440,2,0,P|136:346|115:366,1,60
0,336,20735,1,0,0:0:0:0:
12,228,20882,1,0,0:0:0:0:
12,228,21029,2,0,P|40:220|60:198,1,60
216,216,21323,2,0,P|196:188|164:168,1,60
232,32,21617,2,0,P|196:24|160:28,1,60
68,32,21911,5,0,0:0:0:0:
68,192,22205,1,0,0:0:0:0:
150,227,22352,1,0,0:0:0:0:
232,192,22499,2,0,P|268:168|280:136,1,60,0|0,0:0|0:0,0:0:0:0:
232,32,22793,1,0,0:0:0:0:
120,80,22940,1,0,0:0:0:0:
68,192,23087,2,0,L|80:260,1,60
178,319,23382,2,0,L|168:260,1,60
232,192,23676,1,0,0:0:0:0:
336,136,23823,2,0,L|400:104,1,60
496,56,24117,1,0,0:0:0:0:
460,188,24264,6,0,B|424:196|424:196|384:184|336:192,1,120
232,192,24705,1,0,0:0:0:0:
344,320,24852,2,0,L|292:264,1,60
164,104,25146,1,0,0:0:0:0:
60,44,25293,1,0,0:0:0:0:
28,160,25440,2,0,L|44:220,1,60
108,328,25735,2,0,L|68:268,1,60
100,160,26029,1,0,0:0:0:0:
156,276,26176,1,0,0:0:0:0:
32,268,26323,1,0,0:0:0:0:
148,208,26470,1,0,0:0:0:0:
264,176,26617,6,0,P|316:152|356:96,1,120
328,24,27058,1,0,0:0:0:0:
260,124,27205,2,0,P|316:148|380:136,1,120
264,88,27646,2,0,P|260:136|296:196,1,120
236,264,28087,2,0,P|264:280|303:277,1,60
284,372,28382,2,0,P|351:346|392:296,1,120
436,224,28823,1,0,0:0:0:0:
432,24,28970,5,0,0:0:0:0:
432,128,29264,1,0,0:0:0:0:
340,76,29558,2,0,L|268:44,1,60
192,12,29852,1,0,0:0:0:0:
84,160,29999,1,0,0:0:0:0:
76,108,30293,1,0,0:0:0:0:
216,224,30440,2,0,B|293:254|328:248|356:204|292:176|276:224|293:254|368:292,1,240
504,268,31323,6,0,P|512:224|504:180,2,90.0000034332277
376,220,32205,2,0,P|292:212|224:140,1,180.000006866455
376,124,32940,1,0,0:0:0:0:
376,220,33087,2,0,P|384:264|372:308,1,90.0000034332277,0|0,0:0|0:0,0:0:0:0:
288,344,33529,1,0,0:0:0:0:
289,217,33676,2,0,P|285:189|292:160,1,45.0000017166138
464,220,33970,2,0,P|474:266|464:308,2,90.0000034332277
288,40,34852,6,0,L|260:24,2,22.5000008583069,0|0|0,0:0|0:0|0:0,0:0:0:0:
236,124,35146,2,0,L|180:148,1,45.0000017166138
300,196,35440,2,0,L|264:232,1,45.0000017166138
320,292,35735,2,0,L|296:348,1,45.0000017166138
172,356,36029,5,0,0:0:0:0:
172,356,36323,2,0,P|128:356|84:336,1,90.0000034332277
16,280,36764,1,0,0:0:0:0:
20,192,36911,2,0,P|32:164|56:140,2,45.0000017166138,0|0|0,0:0|0:0|0:0,0:0:0:0:
16,280,37352,1,0,0:0:0:0:
104,288,37499,2,0,P|128:284|156:268,1,45.0000017166138
208,208,37793,2,0,P|163:186|136:144,1,90.0000034332277
104,72,38235,1,0,0:0:0:0:
48,140,38382,6,0,P|20:104|16:56,2,90.0000034332277
140,240,39264,2,0,P|164:236|184:224,1,45.0000017166138
264,264,39558,6,0,L|264:304,2,22.5000008583069,0|0|0,0:0|0:0|0:0,0:0:0:0:
344,220,39852,2,0,P|366:233|392:240,1,45.0000017166138
404,152,40146,2,0,P|432:148|448:140,1,45.0000017166138
416,56,40440,2,0,P|436:36|448:12,1,45.0000017166138
340,20,40735,6,0,P|296:24|256:48,1,90.0000034332277
116,128,41176,1,0,0:0:0:0:
200,84,41323,2,0,P|248:80|296:100,1,90.0000034332277
440,144,41764,1,0,0:0:0:0:
348,128,41911,2,0,P|300:136|256:172,1,90.0000034332277
124,220,42352,1,0,0:0:0:0:
216,204,42499,2,0,P|264:208|304:232,2,90.0000034332277,0|0|0,0:0|0:0|0:0,0:0:0:0:
124,220,43235,5,0,0:0:0:0:
144,312,43382,2,0,L|164:360,1,45.0000017166138
248,332,43676,2,0,L|300:352,1,45.0000017166138
332,268,43970,2,0,L|380:264,1,45.0000017166138
244,144,44264,2,0,L|220:144,2,22.5000008583069,0|0|0,0:0|0:0|0:0,0:0:0:0:
356,44,44558,2,0,P|374:34|400:32,1,45.0000017166138
416,108,44852,2,0,P|438:106|468:112,1,45.0000017166138
448,188,45146,2,0,P|471:195|492:208,1,45.0000017166138
388,356,45440,5,0,0:0:0:0:
388,356,45735,1,0,0:0:0:0:
300,364,45882,1,0,0:0:0:0:
212,356,46029,2,0,P|168:352|120:332,1,90.0000034332277
300,324,46470,1,0,0:0:0:0:
384,268,46617,2,0,P|412:232|420:172,1,90.0000034332277
424,8,47058,1,0,0:0:0:0:
244,20,47205,1,0,0:0:0:0:
244,20,47499,2,0,L|180:28,1,45.0000017166138
100,80,47793,6,0,P|123:99|136:120,1,45.0000017166138
220,208,48087,2,0,P|196:220|172:240,1,45.0000017166138
76,300,48382,2,0,P|88:316|104:344,1,45.0000017166138
248,268,48676,1,0,0:0:0:0:
256,192,48970,12,0,49852,0:0:0:0:
348,108,50146,6,0,P|304:92|264:108,1,90.0000034332277
304,236,50735,1,0,0:0:0:0:
348,108,51029,2,0,P|352:84|348:60,1,45.0000017166138,0|0,0:0|0:0,0:0:0:0:
244,112,51323,2,0,P|236:160|244:200,1,90.0000034332277
300,272,51764,1,0,0:0:0:0:
388,292,51911,1,0,0:0:0:0:
388,292,52205,1,0,0:0:0:0:
300,272,52352,1,0,0:0:0:0:
224,220,52499,6,0,P|184:192|156:152,1,90.0000034332277
100,40,52940,1,0,0:0:0:0:
244,32,53087,2,0,P|264:36|296:48,1,45.0000017166138
252,176,53382,2,0,P|296:200|320:240,1,90.0000034332277
328,264,53749,1,0,0:0:0:0:
324,296,53823,1,0,0:0:0:0:
196,336,53970,2,0,L|152:356,1,45.0000017166138
84,257,54264,2,0,L|128:268,1,45.0000017166138
104,172,54558,2,0,L|68:128,1,45.0000017166138
140,76,54852,5,0,0:0:0:0:
212,144,55146,2,0,P|220:192|212:246,1,90.0000034332277
188,320,55587,1,0,0:0:0:0:
276,300,55735,2,0,P|300:304|324:300,1,45.0000017166138,0|0,0:0|0:0,0:0:0:0:
408,292,56029,2,0,P|416:252|408:204,1,90.0000034332277
352,136,56470,1,0,0:0:0:0:
352,136,56617,2,0,P|392:128|440:136,1,90.0000034332277
272,136,57058,1,0,0:0:0:0:
272,136,57205,6,0,P|264:112|264:84,1,45.0000017166138
136,52,57499,2,0,P|114:57|95:69,1,45.0000017166138
224,152,57793,2,0,P|216:128|216:100,1,45.0000017166138
88,68,58087,2,0,P|44:88|20:140,1,90.0000034332277
20,156,58455,1,0,0:0:0:0:
20,188,58529,1,0,0:0:0:0:
96,336,58676,2,0,P|120:344|140:340,1,45.0000017166138
140,252,58970,2,0,P|165:244|182:219,1,45.0000017166138
128,156,59264,2,0,P|144:140|152:108,1,45.0000017166138
75,43,59558,6,0,P|75:66|63:84,1,45.0000017166138
24,172,59852,2,0,P|44:228|104:252,2,90.0000034332277
76,44,60587,1,0,0:0:0:0:
168,40,60735,2,0,P|216:48|264:68,1,90.0000034332277
152,172,61176,1,0,0:0:0:0:
240,172,61323,2,0,P|264:176|288:184,1,45.0000017166138
432,284,61617,2,0,P|388:272|340:276,1,90.0000034332277
256,300,62058,5,0,0:0:0:0:
168,320,62205,2,0,L|192:376,1,45.0000017166138
68,328,62499,2,0,L|48:280,1,45.0000017166138
128,176,62793,2,0,L|148:232,1,45.0000017166138
260,268,63087,1,0,0:0:0:0:
289,255,63161,1,0,0:0:0:0:
314,231,63235,1,0,0:0:0:0:
346,98,63382,2,0,L|346:42,1,45.0000017166138
455,99,63676,2,0,L|495:59,1,45.0000017166138
400,192,63970,2,0,L|452:192,1,45.0000017166138
504,264,64264,6,0,P|476:304|424:332,1,90.0000034332277
356,356,64705,1,0,0:0:0:0:
256,320,64852,2,0,P|240:340|204:360,1,45.0000017166138
256,196,65146,2,0,P|276:204|312:196,1,45.0000017166138,0|0,0:0|0:0,0:0:0:0:
210,48,65440,2,0,P|166:55|132:84,1,90.0000034332277
36,180,65882,1,0,0:0:0:0:
180,180,66029,1,0,0:0:0:0:
180,180,66323,1,0,0:0:0:0:
136,236,66470,1,0,0:0:0:0:
156,300,66617,5,0,0:0:0:0:
360,296,66911,2,0,L|312:296,1,45.0000017166138
156,300,67205,2,0,P|176:296|208:280,1,45.0000017166138
360,296,67499,2,0,P|312:296|272:268,1,90.0000034332277
256,244,67867,1,0,0:0:0:0:
256,208,67940,1,0,0:0:0:0:
256,120,68087,2,0,P|278:101|288:80,1,45.0000017166138
188,6,68382,2,0,P|193:28|204:48,1,45.0000017166138
319,8,68676,2,0,P|298:0|276:0,1,45.0000017166138
80,100,68970,6,0,B|64:148|64:148|32:188|52:236,1,143.999995605469
132,308,69411,1,0,0:0:0:0:
152,204,69558,2,0,P|192:140|264:120,1,143.999995605469,0|0,0:0|0:0,0:0:0:0:
256,228,69999,2,0,P|320:260|392:252,1,143.999995605469
392,144,70440,2,0,P|430:124|458:92,1,71.9999978027344
392,12,70735,1,0,0:0:0:0:
176,8,71029,2,0,L|104:20,1,71.9999978027344
188,84,71323,6,0,P|244:124|325:134,1,143.999995605469
420,100,71764,1,0,0:0:0:0:
317,65,71911,2,0,P|310:100|318:136,1,71.9999978027344
368,232,72206,1,0,0:0:0:0:
475,242,72352,2,0,P|439:250|403:242,1,71.9999978027344
299,134,72647,1,0,0:0:0:0:
406,243,72794,2,0,P|370:251|334:243,1,71.9999978027344
158,147,73087,1,0,0:0:0:0:
296,106,73235,1,0,0:0:0:0:
336,244,73382,1,0,0:0:0:0:
198,284,73529,1,0,0:0:0:0:
158,147,73676,6,0,P|180:80|244:48,1,143.999995605469
348,40,74117,1,0,0:0:0:0:
372,144,74264,2,0,P|299:157|231:117,1,143.999995605469
120,32,74705,2,0,P|64:24|100:68,1,143.999995605469
186,92,75147,2,0,P|202:124|234:148,1,71.9999978027344
418,184,75440,2,0,P|382:181|345:197,1,71.9999978027344
222,328,75735,2,0,P|241:298|246:258,1,71.9999978027344
186,92,76029,6,0,P|118:132|86:196,1,143.999995605469
28,276,76470,1,0,0:0:0:0:
28,276,76617,2,0,L|100:236,1,71.9999978027344
188,192,76911,1,0,0:0:0:0:
272,256,77058,2,0,L|348:316,1,71.9999978027344
436,304,77352,1,0,0:0:0:0:
496,168,77499,2,0,L|424:136,1,71.9999978027344
330,97,77793,1,0,0:0:0:0:
164,43,77940,1,0,0:0:0:0:
267,185,78087,1,0,0:0:0:0:
267,10,78235,1,0,0:0:0:0:
164,151,78382,5,0,0:0:0:0:
164,151,78676,2,0,P|134:177|116:212,1,71.9999978027344
68,300,78970,2,0,P|40:276|24:240,1,71.9999978027344
16,136,79264,1,0,0:0:0:0:
64,40,79411,2,0,P|132:24|204:60,1,143.999995605469
276,128,79852,2,0,P|248:156|208:176,1,71.9999978027344
56,200,80146,2,0,P|92:204|132:200,1,71.9999978027344
200,264,80440,2,0,P|216:296|216:340,1,71.9999978027344,0|0,0:0|0:0,0:0:0:0:
116,288,80735,6,0,L|252:224,1,143.999995605469
348,192,81176,1,0,0:0:0:0:
260,44,81323,2,0,P|260:79|276:112,1,71.9999978027344
348,192,81617,1,0,0:0:0:0:
452,220,81764,2,0,P|441:254|417:279,1,71.9999978027344
348,192,82058,1,0,0:0:0:0:
324,296,82205,2,0,P|290:286|265:261,1,71.9999978027344
196,176,82499,1,0,0:0:0:0:
184,68,82646,1,0,0:0:0:0:
284,112,82793,1,0,0:0:0:0:
196,176,82940,1,0,0:0:0:0:
96,132,83088,6,0,B|64:108|64:28|96:0,1,143.999995605469
200,20,83529,1,0,0:0:0:0:
242,121,83676,2,0,P|256:156|284:184,1,71.9999978027344
356,268,83970,1,0,0:0:0:0:
457,230,84117,2,0,P|414:174|348:148,1,143.999995605469
356,268,84558,2,0,P|356:232|340:196,1,71.9999978027344
332,312,84852,2,0,P|288:255|222:229,1,143.999995605469
120,196,85294,1,0,0:0:0:0:
20,24,85440,5,0,0:0:0:0:
20,24,85735,2,0,L|56:88,1,71.9999978027344
231,59,86029,2,0,L|156:44,1,71.9999978027344
20,24,86323,1,0,0:0:0:0:
16,132,86470,2,0,P|24:208|68:276,1,143.999995605469
159,296,86911,2,0,P|132:320|119:352,1,71.9999978027344
208,372,87205,2,0,B|206:384|228:359|245:332|245:332|258:291|300:300|300:300|332:300|352:288,1,180
420,236,87793,6,0,P|457:186|460:129,2,120,0|0|0,0:0|0:0|0:0,0:0:0:0:
348,292,88529,1,0,0:0:0:0:
424,344,88676,2,0,P|468:336|492:312,1,60
479,327,88970,2,0,P|495:271|475:207,1,120
408,148,89411,1,0,0:0:0:0:
344,216,89558,2,0,P|280:220|232:196,1,120
172,128,89999,1,0,0:0:0:0:
96,292,90146,6,0,L|64:356,1,60,0|0,0:0|0:0,0:0:0:0:
216,244,90440,2,0,L|252:172,1,60
168,28,90735,2,0,L|136:80,1,60
308,24,91029,2,0,P|350:137|208:182,1,300
184,100,91911,2,0,P|244:92|296:124,2,120,0|0|0,0:0|0:0|0:0,0:0:0:0:
120,164,92646,5,0,0:0:0:0:
172,240,92793,2,0,P|192:256|228:260,1,60
276,336,93087,2,0,P|340:336|396:300,1,120
472,340,93529,1,0,0:0:0:0:
280,216,93676,2,0,P|305:219|338:205,1,60
418,247,93970,2,0,P|472:212|504:160,1,120
464,84,94411,2,0,P|410:119|378:171,1,120
276,312,94852,6,0,L|208:272,1,60
140,192,95146,2,0,L|188:252,1,60
316,128,95440,2,0,L|288:60,1,60
148,8,95735,2,0,P|24:56|20:212,1,300
92,256,96617,1,0,0:0:0:0:
180,270,96764,1,0,0:0:0:0:
194,181,96911,1,0,0:0:0:0:
106,167,97058,1,0,0:0:0:0:
92,256,97205,6,0,P|140:280|212:272,1,120
276,220,97646,1,0,0:0:0:0:
328,148,97793,2,0,P|384:188|408:248,1,120
328,256,98235,1,0,0:0:0:0:
250,232,98382,2,0,P|277:179|327:147,1,120
396,200,98823,1,0,0:0:0:0:
368,280,98970,2,0,P|324:328|260:344,2,120,0|0|0,0:0|0:0|0:0,0:0:0:0:
396,200,99705,5,0,0:0:0:0:
412,112,99852,2,0,L|452:56,1,60
304,56,100146,2,0,L|256:112,1,60
184,20,100440,2,0,P|56:68|20:220,1,300
80,328,101323,1,0,0:0:0:0:
192,344,101470,1,0,0:0:0:0:
132,256,101617,1,0,0:0:0:0:
264,352,101764,1,0,0:0:0:0:
184,180,101911,6,0,P|216:128|268:104,1,120
272,192,102352,1,0,0:0:0:0:
272,192,102499,2,0,P|304:192|336:204,1,60
340,292,102793,2,0,P|344:324|356:348,1,60
416,236,103087,2,0,P|470:208|498:141,1,120
484,68,103529,1,0,0:0:0:0:
308,32,103676,2,0,L|248:28,1,60
204,108,103970,1,0,0:0:0:0:
120,76,104117,1,0,0:0:0:0:
40,40,104264,1,0,0:0:0:0:
40,40,104558,6,0,L|44:108,1,60
160,132,104852,2,0,L|164:200,1,60
60,204,105146,1,0,0:0:0:0:
60,204,105293,2,0,P|68:264|120:304,1,120,0|0,0:0|0:0,0:0:0:0:
228,328,105735,1,0,0:0:0:0:
49,310,106029,1,0,0:0:0:0:
228,328,106323,1,0,0:0:0:0:
154,164,106617,6,0,L|164:108,2,45.0000017166138,0|0|0,0:0|0:0|0:0,0:0:0:0:
256,176,116029,5,0,0:0:0:0:
256,176,116323,1,0,0:0:0:0:
84,192,117058,1,0,0:0:0:0:
84,124,117205,1,0,0:0:0:0:
124,68,117352,1,0,0:0:0:0:
428,124,118235,1,0,0:0:0:0:
388,68,118382,1,0,0:0:0:0:
428,192,118676,1,0,0:0:0:0:
328,32,119558,6,0,L|360:8,2,30,0|0|0,0:0|0:0|0:0,0:0:0:0:
260,132,119852,1,0,0:0:0:0:
192,232,120146,1,0,0:0:0:0:
120,328,120440,1,0,0:0:0:0:
120,328,120735,5,0,0:0:0:0:
120,128,121029,1,0,0:0:0:0:
120,128,121764,1,0,0:0:0:0:
176,152,121911,1,0,0:0:0:0:
240,152,122058,1,0,0:0:0:0:
240,152,122940,1,0,0:0:0:0:
222,240,123087,1,0,0:0:0:0:
329,141,123382,1,0,0:0:0:0:
301,283,124264,6,0,L|277:311,2,22.5000008583069,0|0|0,0:0|0:0|0:0,0:0:0:0:
367,222,124558,1,0,0:0:0:0:
240,152,124852,1,0,0:0:0:0:
324,32,125146,1,0,0:0:0:0:
240,152,125440,5,0,0:0:0:0:
156,32,125735,1,0,0:0:0:0:
76,152,126029,1,0,0:0:0:0:
76,152,126323,2,0,L|108:220,1,60
196,296,126617,2,0,P|148:340|84:344,1,120
96,344,127058,1,0,0:0:0:0:
32,208,127205,1,0,0:0:0:0:
196,296,127499,2,0,L|264:336,1,60
428,316,127793,6,0,L|315:251,1,120
416,208,128235,1,0,0:0:0:0:
480,128,128382,2,0,L|444:64,1,60
328,176,128676,2,0,L|268:152,1,60
220,40,128970,1,0,0:0:0:0:
180,32,129043,1,0,0:0:0:0:
144,44,129117,1,0,0:0:0:0:
96,192,129264,2,0,L|64:240,1,60
24,80,129558,2,0,L|104:48,1,60
228,112,129852,2,0,L|224:180,1,60
116,288,130146,6,0,L|172:336,1,60
296,268,130440,2,0,L|368:240,1,60
480,200,130735,1,0,0:0:0:0:
456,352,131029,2,0,L|396:320,1,60
352,292,131323,1,0,0:0:0:0:
304,256,131470,1,0,0:0:0:0:
284,200,131617,1,0,0:0:0:0:
284,140,131764,1,0,0:0:0:0:
296,80,131911,2,0,P|340:32|396:16,1,120
452,16,132352,1,0,0:0:0:0:
452,160,132499,5,0,0:0:0:0:
452,16,132793,1,0,0:0:0:0:
336,120,133088,2,0,L|288:176,1,60
336,232,133382,2,0,L|292:304,1,60
216,324,133676,1,0,0:0:0:0:
180,320,133749,1,0,0:0:0:0:
144,296,133823,1,0,0:0:0:0:
84,208,133970,2,0,P|116:200|156:184,1,60
224,116,134264,1,0,0:0:0:0:
224,68,134558,1,0,0:0:0:0:
