osu file format v12

[General]
AudioFilename: -insturmental version- Otokaze.mp3
AudioLeadIn: 2000
PreviewTime: 10238
Countdown: 0
SampleSet: Soft
StackLeniency: 0.7
Mode: 0
LetterboxInBreaks: 0
EpilepsyWarning: 1
WidescreenStoryboard: 0

[Editor]
DistanceSpacing: 0.9
BeatDivisor: 4
GridSize: 4

[Metadata]
Title:Ame Michi
TitleUnicode:雨道
Artist:Otokaze
ArtistUnicode:Otokaze
Creator:Flower
Version:Normal
Source:
Tags:in the rain insturmental instrumental jazz hiphop spboxer3 DangYang_shushu
BeatmapID:289359
BeatmapSetID:65545

[Difficulty]
HPDrainRate:3
CircleSize:3
OverallDifficulty:3
ApproachRate:4
SliderMultiplier:0.96
SliderTickRate:2

[Events]
//Background and Video events
0,0,"rain.jpg",0,0
//Break Periods
//Storyboard Layer 0 (Background)
//Storyboard Layer 1 (Fail)
//Storyboard Layer 2 (Pass)
//Storyboard Layer 3 (Foreground)
Sprite,Foreground,Centre,"rain1.png",320,240 L,-2000,6 F,0,0,1263,0.40728 M,0,0,1894,431,-375,186,891 F,0,1263,1894,0.40728,0 S,0,-2000,,1.15
Sprite,Foreground,Centre,"rain1.png",320,240 L,-1053,6 F,0,0,1263,0.40728 M,0,0,1894,431,-375,186,891 F,0,1263,1894,0.40728,0 S,0,-1053,,1.15
Sprite,Foreground,Centre,"sb1\1.png",320,240 F,0,10853,12116,0,1 M,0,10854,,320,240
Sprite,Foreground,Centre,"sb1\2.png",320,240 F,0,11169,12116,0,1 F,0,12116,13063,1,0
Sprite,Foreground,Centre,"sb1\3.png",320,240 F,0,11485,12117,0,0.6666667 F,0,12117,13380,0.6666667,0
Sprite,Foreground,Centre,"sb1\4.png",320,240 F,0,11801,12433,0,0.58528 F,0,12433,13064,0.58528,0 M,0,121226,,320,240
Sprite,Foreground,Centre,"rain-blur.jpg",320,240 F,0,10222,11170,1,0
Sprite,Foreground,Centre,"rain-blur.jpg",320,240 F,0,15274,15906,1,0
Sprite,Foreground,Centre,"rain-blur.jpg",320,240 F,0,20327,20959,1,0
Sprite,Foreground,Centre,"rain-blur.jpg",320,240 F,0,25380,26012,1,0
Sprite,Foreground,Centre,"rain-blur.jpg",320,240 F,0,30432,31064,1,0
Sprite,Foreground,Centre,"rain-blur.jpg",320,240 F,0,35485,36117,1,0
Sprite,Foreground,Centre,"rain-blur.jpg",320,240 F,0,40538,41170,1,0
Sprite,Foreground,Centre,"rain-blur.jpg",320,240 F,0,45590,46222,1,0
Sprite,Foreground,Centre,"rain-blur.jpg",320,240 F,0,55695,56327,1,0
Sprite,Foreground,Centre,"rain-blur.jpg",320,240 F,0,60748,61380,1,0
Sprite,Foreground,Centre,"rain-blur.jpg",320,240 F,0,65801,66433,1,0
Sprite,Foreground,Centre,"rain-blur.jpg",320,240 F,0,91064,91696,1,0
Sprite,Foreground,Centre,"rain-blur.jpg",320,240 F,0,96116,96748,1,0
Sprite,Foreground,Centre,"rain-blur.jpg",320,240 F,0,101169,101801,1,0
Sprite,Foreground,Centre,"rain-blur.jpg",320,240 F,0,106222,106854,1,0
Sprite,Foreground,Centre,"rain-blur.jpg",320,240 F,0,116327,116959,1,0
Sprite,Foreground,Centre,"rain-blur.jpg",320,240 F,0,111274,111906,1,0
Sprite,Foreground,Centre,"rain-blur.jpg",320,240 F,0,70853,71485,1,0
Sprite,Foreground,Centre,"rain-blur.jpg",320,240 F,0,121380,122012,1,0
Sprite,Foreground,Centre,"rain-blur.jpg",320,240 F,0,50643,51275,1,0
Sprite,Foreground,Centre,"rain-blur.jpg",320,240 F,0,75906,76538,1,0
Sprite,Foreground,Centre,"rain-blur.jpg",320,240 F,0,80959,81591,1,0
Sprite,Foreground,Centre,"rain-blur.jpg",320,240 F,0,86011,86643,1,0
Sprite,Foreground,Centre,"white.jpg",320,240 F,0,70222,70849,0,0.3123199 F,0,70222,70853,0.04824761,0.1654402 F,0,70849,70853,0.3123199,0.5699201 F,0,70853,71485,1,0
Sprite,Foreground,Centre,"rain1.png",320,240 L,71922,26 F,0,0,1263,0.40728 M,0,0,1894,431,-375,186,891 F,0,1263,1894,0.40728,0 S,0,71922,,1.15
Sprite,Foreground,Centre,"rain1.png",320,240 L,70975,26 F,0,0,1263,0.40728 M,0,0,1894,431,-375,186,891 F,0,1263,1894,0.40728,0 S,0,70975,,1.15
Sprite,Foreground,Centre,"white.jpg",320,240 F,0,80959,,1 F,0,80959,81590,1,0
Sprite,Foreground,Centre,"white.jpg",320,240 F,0,91064,,1 F,0,91064,91695,1,0
Sprite,Foreground,Centre,"white.jpg",320,240 F,0,101169,,1 F,0,101169,101800,1,0
Sprite,Foreground,Centre,"white.jpg",320,240 F,0,111274,,1 F,0,111274,111905,1,0
Sprite,Foreground,Centre,"white.jpg",320,240 F,0,121380,122010,0.8,0.2 F,0,122010,123026,0.2,0
Sprite,Foreground,Centre,"white.jpg",320,240 F,0,9590,10217,0,0.2 F,0,10221,10853,0.6,0
Sprite,Foreground,Centre,"white.jpg",320,240 F,0,50011,50642,0,0.2 F,0,50642,51274,0.63,0
Sprite,Foreground,Centre,"sb1\1.png",320,240 M,0,121068,,320,240 F,0,121380,122022,0,1 F,0,122022,122843,1,0
Sprite,Foreground,Centre,"sb1\2.png",320,240 F,0,121380,122327,0,1 F,0,122327,123274,1,0
Sprite,Foreground,Centre,"sb1\3.png",320,240 F,0,121695,122327,0,0.8 F,0,122327,123890,0.8,0
Sprite,Foreground,Centre,"sb1\4.png",320,240 F,0,122011,122843,0,0.58528 F,0,122843,123619,0.58528,0
//Storyboard Sound Samples
//Background Colour Transformations
3,100,163,162,255

[TimingPoints]
117,631.578947368421,4,2,1,50,1,0
10222,-66.6666666666667,4,2,1,55,0,0
50643,-66.6666666666667,4,2,1,60,0,1
50722,-66.6666666666667,4,2,1,60,0,0
68327,-66.6666666666667,4,2,1,50,0,0
70853,-66.6666666666667,4,2,1,60,0,1
121380,-66.6666666666667,4,2,1,60,0,0

[Colours]
Combo1 : 250,95,207
Combo2 : 45,247,181
Combo3 : 115,41,252
Combo4 : 253,214,57
SliderBorder : 255,255,255

[HitObjects]
417,317,117,2,0,P|449:252|444:177,2,144,0|0|0,0:0|0:0|0:0,0:0:0:0:
332,333,2643,2,0,L|226:312,1,96,0|0,0:0|0:0,0:0:0:0:
155,288,3906,2,0,L|55:305,1,96,0|0,0:0|0:0,0:0:0:0:
19,228,5169,6,0,P|31:191|3:93,2,144,0|0|0,0:0|0:0|0:0,0:0:0:0:
104,242,7695,2,0,L|198:225,1,96,0|0,0:0|0:0,0:0:0:0:
256,161,8959,1,0,0:0:0:0:
318,220,9590,2,0,L|375:228,1,48,0|0,0:0|0:0,0:0:0:0:
425,250,10222,6,0,P|463:225|463:61,1,216.000008239746,4|8,0:0|0:0,0:0:0:0:
350,89,11801,2,0,L|270:75,1,72.0000027465821,8|8,0:0|0:0,0:0:0:0:
215,87,12432,1,0,0:0:0:0:
151,102,12748,6,0,L|44:75,2,108.000004119873,8|8|8,0:0|0:0|0:0,0:0:0:0:
264,164,14327,2,0,P|275:208|267:240,1,72.0000027465821,8|8,0:0|0:0,0:0:0:0:
190,336,15274,6,0,P|138:353|13:264,1,216.000008239746,4|8,0:0|0:0,0:0:0:0:
96,169,16853,2,0,L|170:163,1,72.0000027465821,8|8,0:0|0:0,0:0:0:0:
228,187,17485,1,0,0:0:0:0:
288,210,17801,6,0,P|337:208|390:172,2,108.000004119873,8|8|8,0:0|0:0|0:0,0:0:0:0:
236,90,19380,2,0,L|320:100,1,72.0000027465821,8|8,0:0|0:0,0:0:0:0:
430,57,20327,6,0,B|502:82|507:165|507:165|480:240,1,216.000008239746,4|8,0:0|0:0,0:0:0:0:
393,329,21906,2,0,P|349:338|312:328,1,72.0000027465821,8|8,0:0|0:0,0:0:0:0:
263,305,22538,1,0,0:0:0:0:
204,277,22853,6,0,P|150:275|85:305,2,108.000004119873,8|8|8,0:0|0:0|0:0,0:0:0:0:
304,194,24432,2,0,L|321:114,1,72.0000027465821,8|8,0:0|0:0,0:0:0:0:
265,85,25064,1,0,0:0:0:0:
212,46,25380,6,0,B|154:93|79:49|79:49|64:136,1,216.000008239746,4|8,0:0|0:0,0:0:0:0:
10,236,26959,2,0,L|49:303,1,72.0000027465821,8|0,0:0|0:0,0:0:0:0:
175,294,27906,6,0,P|195:326|265:353,2,108.000004119873,8|8|0,0:0|0:0|0:0,0:0:0:0:
202,235,29169,1,0,0:0:0:0:
236,180,29485,2,0,L|257:108,2,72.0000027465821,8|8|0,0:0|0:0|0:0,0:0:0:0:
277,229,30432,6,0,P|322:252|418:235,1,144.000005493164,4|8,0:0|0:0,0:0:0:0:
462,200,31380,1,8,0:0:0:0:
434,73,32011,1,8,0:0:0:0:
371,90,32327,2,0,L|294:79,1,72.0000027465821,0|0,0:0|0:0,0:0:0:0:
238,56,32959,6,0,P|248:102|216:164,2,108.000004119873,8|8|8,0:0|0:0|0:0,0:0:0:0:
173,46,34222,2,0,B|135:55|106:35|106:35|100:73|57:88,1,144.000005493164,8|0,0:0|0:0,0:0:0:0:
51,216,35485,6,0,P|37:255|75:354,1,144.000005493164,4|8,0:0|0:0,0:0:0:0:
133,354,36432,1,8,0:0:0:0:
231,270,37064,2,0,L|310:263,1,72.0000027465821,8|8,0:0|0:0,0:0:0:0:
352,305,37695,1,8,0:0:0:0:
404,342,38011,6,0,P|459:352|514:330,2,108.000004119873,8|8|8,0:0|0:0|0:0,0:0:0:0:
450,220,39590,2,0,L|466:127,1,72.0000027465821,8|0,0:0|0:0,0:0:0:0:
377,50,40538,6,0,L|227:39,1,144.000005493164,4|8,0:0|0:0,0:0:0:0:
171,57,41485,2,0,P|188:90|148:193,1,144.000005493164,8|8,0:0|0:0,0:0:0:0:
106,225,42432,1,8,0:0:0:0:
201,312,43064,6,0,P|163:347|104:350,2,108.000004119873,8|8|8,0:0|0:0|0:0,0:0:0:0:
227,252,44327,1,0,0:0:0:0:
290,266,44643,2,0,L|378:256,1,72.0000027465821,8|0,0:0|0:0,0:0:0:0:
458,344,45590,6,0,P|487:300|474:193,1,144.000005493164,4|8,0:0|0:0,0:0:0:0:
448,156,46538,1,8,0:0:0:0:
352,68,47169,2,0,L|282:55,1,72.0000027465821,8|8,0:0|0:0,0:0:0:0:
221,79,47801,1,0,0:0:0:0:
159,98,48117,6,0,P|101:99|43:67,2,108.000004119873,8|8|8,0:0|0:0|0:0,0:0:0:0:
174,190,49538,2,0,P|232:189|290:221,1,108.000004119873,8|8,0:0|0:0,0:0:0:0:
316,264,50327,1,0,0:0:0:0:
337,325,50643,6,0,L|414:339,1,72.0000027465821,4|2,0:0|0:0,0:0:0:0:
488,236,51590,2,0,L|411:222,1,72.0000027465821,2|2,0:0|0:0,0:0:0:0:
362,187,52222,2,0,P|321:150|312:62,1,144.000005493164,8|8,0:0|0:0,0:0:0:0:
250,45,53169,6,0,L|165:55,1,72.0000027465821,8|0,0:0|0:0,0:0:0:0:
83,142,54117,1,0,0:0:0:0:
133,182,54432,2,0,L|204:173,1,72.0000027465821,8|0,0:0|0:0,0:0:0:0:
306,253,55380,1,0,0:0:0:0:
264,302,55695,5,4,0:0:0:0:
223,352,56011,2,0,P|140:365|72:332,1,144.000005493164,2|2,0:0|0:0,0:0:0:0:
32,224,57274,2,0,L|114:215,1,72.0000027465821,10|0,0:0|0:0,0:0:0:0:
160,185,57906,1,0,0:0:0:0:
219,210,58222,6,0,P|272:222|330:199,2,108.000004119873,8|8|0,0:0|0:0|0:0,0:0:0:0:
273,92,59801,2,0,L|365:102,1,72.0000027465821,8|0,0:0|0:0,0:0:0:0:
393,142,60432,1,8,0:0:0:0:
447,177,60748,6,0,L|463:247,1,72.0000027465821,4|2,0:0|0:0,0:0:0:0:
341,293,61695,2,0,L|325:363,1,72.0000027465821,2|2,0:0|0:0,0:0:0:0:
233,271,62643,2,0,L|217:201,1,72.0000027465821,8|8,0:0|0:0,0:0:0:0:
171,155,63274,6,0,P|125:173|40:140,1,144.000005493164,8|8,0:0|0:0,0:0:0:0:
4,86,64222,1,0,0:0:0:0:
125,42,64853,2,0,L|206:50,1,72.0000027465821,8|8,0:0|0:0,0:0:0:0:
250,85,65485,1,0,0:0:0:0:
301,123,65801,6,0,P|346:143|444:116,1,144.000005493164,4|8,0:0|0:0,0:0:0:0:
485,82,66748,1,2,0:0:0:0:
499,210,67380,2,0,L|506:289,1,72.0000027465821,10|8,0:0|0:0,0:0:0:0:
256,192,68327,12,8,70222,0:0:0:0:
351,115,70853,6,0,P|309:143|196:135,1,144.000005493164,4|8,0:0|0:0,0:0:0:0:
163,109,71801,1,0,0:0:0:0:
98,102,72117,2,0,P|62:110|29:130,1,72.0000027465821,0|8,0:0|0:0,0:0:0:0:
50,189,72748,2,0,P|30:220|21:257,1,72.0000027465821,8|0,0:0|0:0,0:0:0:0:
71,295,73380,6,0,P|98:333|194:360,1,144.000005493164,8|8,0:0|0:0,0:0:0:0:
251,351,74327,1,2,0:0:0:0:
379,334,74959,2,0,L|453:354,1,72.0000027465821,8|10,0:0|0:0,0:0:0:0:
383,240,75906,6,0,P|368:194|400:106,1,144.000005493164,4|8,0:0|0:0,0:0:0:0:
450,68,76853,1,8,0:0:0:0:
323,40,77485,2,0,L|238:33,2,72.0000027465821,0|8|0,0:0|0:0|0:0,0:0:0:0:
300,100,78432,6,0,P|321:138|305:235,1,144.000005493164,8|0,0:0|0:0,0:0:0:0:
245,256,79380,1,10,0:0:0:0:
199,301,79695,2,0,L|115:319,1,72.0000027465821,10|0,0:0|0:0,0:0:0:0:
102,256,80327,2,0,L|21:246,1,72.0000027465821,10|0,0:0|0:0,0:0:0:0:
30,182,80959,6,0,P|13:132|51:49,1,144.000005493164,4|8,0:0|0:0,0:0:0:0:
112,47,81906,1,8,0:0:0:0:
161,89,82222,2,0,L|235:100,1,72.0000027465821,8|0,0:0|0:0,0:0:0:0:
290,71,82853,2,0,L|364:82,1,72.0000027465821,8|0,0:0|0:0,0:0:0:0:
425,73,83485,6,0,P|400:118|423:208,1,144.000005493164,8|8,0:0|0:0,0:0:0:0:
476,236,84432,1,2,0:0:0:0:
391,334,85064,2,0,L|307:343,1,72.0000027465821,0|2,0:0|0:0,0:0:0:0:
195,303,86011,6,0,P|235:263|245:174,1,144.000005493164,4|8,0:0|0:0,0:0:0:0:
191,144,86959,2,0,L|116:126,1,72.0000027465821,8|8,0:0|0:0,0:0:0:0:
214,37,87906,2,0,L|289:55,1,72.0000027465821,8|0,0:0|0:0,0:0:0:0:
338,90,88538,6,0,L|453:76,2,108.000004119873,8|10|10,0:0|0:0|0:0,0:0:0:0:
314,150,89801,2,0,B|322:189|296:218|296:218|375:240,1,144.000005493164,8|2,0:0|0:0,0:0:0:0:
491,263,91064,6,0,P|478:315|391:363,1,144.000005493164,4|8,0:0|0:0,0:0:0:0:
342,346,92011,1,8,0:0:0:0:
220,300,92643,2,0,L|142:313,1,72.0000027465821,0|8,0:0|0:0,0:0:0:0:
20,328,93590,6,0,P|61:271|56:197,1,144.000005493164,8|8,0:0|0:0,0:0:0:0:
26,142,94538,1,2,0:0:0:0:
61,87,94853,2,0,L|146:77,1,72.0000027465821,0|8,0:0|0:0,0:0:0:0:
190,109,95485,2,0,L|275:99,1,72.0000027465821,10|0,0:0|0:0,0:0:0:0:
312,140,96117,6,0,P|336:103|439:69,1,144.000005493164,4|8,0:0|0:0,0:0:0:0:
485,94,97064,1,8,0:0:0:0:
453,219,97695,2,0,L|471:292,1,72.0000027465821,8|8,0:0|0:0,0:0:0:0:
342,264,98643,6,0,L|325:374,2,108.000004119873,8|10|10,0:0|0:0|0:0,0:0:0:0:
282,238,99906,1,8,0:0:0:0:
261,110,100538,1,2,0:0:0:0:
154,36,101169,6,0,P|101:36|41:105,1,144.000005493164,4|0,0:0|0:0,0:0:0:0:
39,164,102117,2,0,L|60:312,1,144.000005493164,8|0,0:0|0:0,0:0:0:0:
119,331,103064,2,0,P|163:322|201:331,1,72.0000027465821,8|0,0:0|0:0,0:0:0:0:
251,345,103695,6,0,P|308:361|392:341,1,144.000005493164,8|10,0:0|0:0,0:0:0:0:
444,308,104643,1,8,0:0:0:0:
492,187,105274,2,0,L|476:106,1,72.0000027465821,10|8,0:0|0:0,0:0:0:0:
348,118,106222,6,0,P|324:154|222:180,1,144.000005493164,4|8,0:0|0:0,0:0:0:0:
167,171,107169,1,8,0:0:0:0:
61,96,107801,2,0,L|44:4,2,72.0000027465821,8|8|8,0:0|0:0|0:0,0:0:0:0:
35,155,108748,6,0,L|49:234,1,72.0000027465821,8|2,0:0|0:0,0:0:0:0:
134,321,109695,2,0,L|148:242,1,72.0000027465821,2|8,0:0|0:0,0:0:0:0:
257,183,110643,2,0,L|269:253,1,72.0000027465821,10|0,0:0|0:0,0:0:0:0:
310,303,111274,6,0,P|349:321|450:304,1,144.000005493164,4|8,0:0|0:0,0:0:0:0:
494,263,112222,1,8,0:0:0:0:
460,137,112853,2,0,L|475:57,1,72.0000027465821,0|8,0:0|0:0,0:0:0:0:
354,119,113801,6,0,P|320:138|207:115,1,144.000005493164,8|8,0:0|0:0,0:0:0:0:
171,82,114748,2,0,P|114:66|34:89,1,144.000005493164,2|2,0:0|0:0,0:0:0:0:
9,148,115695,2,0,L|29:219,1,72.0000027465821,8|0,0:0|0:0,0:0:0:0:
92,226,116327,6,0,P|84:263|89:302,1,72.0000027465821,4|0,0:0|0:0,0:0:0:0:
152,290,116959,2,0,P|166:324|193:353,1,72.0000027465821,8|8,0:0|0:0,0:0:0:0:
245,319,117590,2,0,P|277:339|315:347,1,72.0000027465821,8|0,0:0|0:0,0:0:0:0:
352,298,118222,2,0,P|389:296|426:281,1,72.0000027465821,8|8,0:0|0:0,0:0:0:0:
471,242,118853,6,0,P|477:203|446:132,2,108.000004119873,8|10|2,0:0|0:0|0:0,0:0:0:0:
349,197,120432,2,0,L|287:159,1,72.0000027465821,8|2,0:0|0:0,0:0:0:0:
225,177,121064,2,0,L|153:192,1,72.0000027465821,0|4,0:0|0:0,0:0:0:0:
