osu file format v12

[General]
AudioFilename: -insturmental version- Otokaze.mp3
AudioLeadIn: 2000
PreviewTime: 10238
Countdown: 0
SampleSet: Soft
StackLeniency: 0.7
Mode: 0
LetterboxInBreaks: 0
EpilepsyWarning: 1
WidescreenStoryboard: 0

[Editor]
DistanceSpacing: 1.2
BeatDivisor: 8
GridSize: 8

[Metadata]
Title:Ame Michi
TitleUnicode:雨道
Artist:Otokaze
ArtistUnicode:Otokaze
Creator:Flower
Version:Insane
Source:
Tags:in the rain insturmental instrumental jazz hiphop spboxer3 DangYang_shushu
BeatmapID:191942
BeatmapSetID:65545

[Difficulty]
HPDrainRate:6
CircleSize:4
OverallDifficulty:8
ApproachRate:9
SliderMultiplier:1.82
SliderTickRate:2

[Events]
//Background and Video events
0,0,"rain.jpg",0,0
//Break Periods
//Storyboard Layer 0 (Background)
//Storyboard Layer 1 (Fail)
//Storyboard Layer 2 (Pass)
//Storyboard Layer 3 (Foreground)
Sprite,Foreground,Centre,"rain1.png",320,240 L,-2000,6 F,0,0,1263,0.40728 M,0,0,1894,431,-375,186,891 F,0,1263,1894,0.40728,0 S,0,-2000,,1.15
Sprite,Foreground,Centre,"rain1.png",320,240 L,-1053,6 F,0,0,1263,0.40728 M,0,0,1894,431,-375,186,891 F,0,1263,1894,0.40728,0 S,0,-1053,,1.15
Sprite,Foreground,Centre,"sb1\1.png",320,240 F,0,10853,12116,0,1 M,0,10854,,320,240
Sprite,Foreground,Centre,"sb1\2.png",320,240 F,0,11169,12116,0,1 F,0,12116,13063,1,0
Sprite,Foreground,Centre,"sb1\3.png",320,240 F,0,11485,12117,0,0.6666667 F,0,12117,13380,0.6666667,0
Sprite,Foreground,Centre,"sb1\4.png",320,240 F,0,11801,12433,0,0.58528 F,0,12433,13064,0.58528,0 M,0,121226,,320,240
Sprite,Foreground,Centre,"rain-blur.jpg",320,240 F,0,10222,11170,1,0
Sprite,Foreground,Centre,"rain-blur.jpg",320,240 F,0,15274,15906,1,0
Sprite,Foreground,Centre,"rain-blur.jpg",320,240 F,0,20327,20959,1,0
Sprite,Foreground,Centre,"rain-blur.jpg",320,240 F,0,25380,26012,1,0
Sprite,Foreground,Centre,"rain-blur.jpg",320,240 F,0,30432,31064,1,0
Sprite,Foreground,Centre,"rain-blur.jpg",320,240 F,0,35485,36117,1,0
Sprite,Foreground,Centre,"rain-blur.jpg",320,240 F,0,40538,41170,1,0
Sprite,Foreground,Centre,"rain-blur.jpg",320,240 F,0,45590,46222,1,0
Sprite,Foreground,Centre,"rain-blur.jpg",320,240 F,0,55695,56327,1,0
Sprite,Foreground,Centre,"rain-blur.jpg",320,240 F,0,60748,61380,1,0
Sprite,Foreground,Centre,"rain-blur.jpg",320,240 F,0,65801,66433,1,0
Sprite,Foreground,Centre,"rain-blur.jpg",320,240 F,0,91064,91696,1,0
Sprite,Foreground,Centre,"rain-blur.jpg",320,240 F,0,96116,96748,1,0
Sprite,Foreground,Centre,"rain-blur.jpg",320,240 F,0,101169,101801,1,0
Sprite,Foreground,Centre,"rain-blur.jpg",320,240 F,0,106222,106854,1,0
Sprite,Foreground,Centre,"rain-blur.jpg",320,240 F,0,116327,116959,1,0
Sprite,Foreground,Centre,"rain-blur.jpg",320,240 F,0,111274,111906,1,0
Sprite,Foreground,Centre,"rain-blur.jpg",320,240 F,0,70853,71485,1,0
Sprite,Foreground,Centre,"rain-blur.jpg",320,240 F,0,121380,122012,1,0
Sprite,Foreground,Centre,"rain-blur.jpg",320,240 F,0,50643,51275,1,0
Sprite,Foreground,Centre,"rain-blur.jpg",320,240 F,0,75906,76538,1,0
Sprite,Foreground,Centre,"rain-blur.jpg",320,240 F,0,80959,81591,1,0
Sprite,Foreground,Centre,"rain-blur.jpg",320,240 F,0,86011,86643,1,0
Sprite,Foreground,Centre,"white.jpg",320,240 F,0,70222,70849,0,0.3123199 F,0,70222,70853,0.04824761,0.1654402 F,0,70849,70853,0.3123199,0.5699201 F,0,70853,71485,1,0
Sprite,Foreground,Centre,"rain1.png",320,240 L,71922,26 F,0,0,1263,0.40728 M,0,0,1894,431,-375,186,891 F,0,1263,1894,0.40728,0 S,0,71922,,1.15
Sprite,Foreground,Centre,"rain1.png",320,240 L,70975,26 F,0,0,1263,0.40728 M,0,0,1894,431,-375,186,891 F,0,1263,1894,0.40728,0 S,0,70975,,1.15
Sprite,Foreground,Centre,"white.jpg",320,240 F,0,80959,,1 F,0,80959,81590,1,0
Sprite,Foreground,Centre,"white.jpg",320,240 F,0,91064,,1 F,0,91064,91695,1,0
Sprite,Foreground,Centre,"white.jpg",320,240 F,0,101169,,1 F,0,101169,101800,1,0
Sprite,Foreground,Centre,"white.jpg",320,240 F,0,111274,,1 F,0,111274,111905,1,0
Sprite,Foreground,Centre,"white.jpg",320,240 F,0,121380,122010,0.8,0.2 F,0,122010,123026,0.2,0
Sprite,Foreground,Centre,"white.jpg",320,240 F,0,9590,10217,0,0.2 F,0,10221,10853,0.6,0
Sprite,Foreground,Centre,"white.jpg",320,240 F,0,50011,50642,0,0.2 F,0,50642,51274,0.63,0
Sprite,Foreground,Centre,"sb1\1.png",320,240 M,0,121068,,320,240 F,0,121380,122022,0,1 F,0,122022,122843,1,0
Sprite,Foreground,Centre,"sb1\2.png",320,240 F,0,121380,122327,0,1 F,0,122327,123274,1,0
Sprite,Foreground,Centre,"sb1\3.png",320,240 F,0,121695,122327,0,0.8 F,0,122327,123890,0.8,0
Sprite,Foreground,Centre,"sb1\4.png",320,240 F,0,122011,122843,0,0.58528 F,0,122843,123619,0.58528,0
//Storyboard Sound Samples
//Background Colour Transformations
3,100,163,162,255

[TimingPoints]
117,631.578947368421,4,2,1,50,1,0
8959,-83.3333333333333,4,2,1,55,0,0
10222,-66.6666666666667,4,2,1,55,0,0
10538,-66.6666666666667,4,2,1,60,0,0
15116,-66.6666666666667,4,2,1,20,0,0
15274,-66.6666666666667,4,2,1,60,0,0
25222,-66.6666666666667,4,2,1,20,0,0
25380,-66.6666666666667,4,2,1,60,0,0
35327,-66.6666666666667,4,2,1,20,0,0
35485,-66.6666666666667,4,2,1,60,0,0
45432,-66.6666666666667,4,2,1,20,0,0
45511,-66.6666666666667,4,2,1,15,0,0
45590,-66.6666666666667,4,2,1,60,0,0
50643,-66.6666666666667,4,2,1,60,0,1
50722,-66.6666666666667,4,2,1,60,0,0
55539,-66.6666666666667,4,2,1,20,0,0
55695,-66.6666666666667,4,2,1,60,0,0
65643,-66.6666666666667,4,2,1,20,0,0
65722,-66.6666666666667,4,2,1,15,0,0
65801,-66.6666666666667,4,2,1,60,0,0
68327,-66.6666666666667,4,2,1,60,0,0
70853,-66.6666666666667,4,2,1,60,0,1
75748,-66.6666666666667,4,2,1,20,0,1
75827,-66.6666666666667,4,2,1,15,0,1
75906,-66.6666666666667,4,2,1,60,0,1
85853,-66.6666666666667,4,2,1,20,0,1
86011,-66.6666666666667,4,2,1,60,0,1
88064,-66.6666666666667,4,2,1,40,0,1
88222,-66.6666666666667,4,2,1,60,0,1
90590,-66.6666666666667,4,2,1,40,0,1
90748,-66.6666666666667,4,2,1,60,0,1
95643,-66.6666666666667,4,2,1,40,0,1
95801,-66.6666666666667,4,2,1,60,0,1
95959,-66.6666666666667,4,2,1,20,0,1
96116,-66.6666666666667,4,2,1,60,0,1
98169,-66.6666666666667,4,2,1,40,0,1
98327,-66.6666666666667,4,2,1,60,0,1
100695,-66.6666666666667,4,2,1,40,0,1
100853,-66.6666666666667,4,2,1,60,0,1
106064,-66.6666666666667,4,2,1,20,0,1
106222,-66.6666666666667,4,2,1,60,0,1
110801,-66.6666666666667,4,2,1,40,0,1
110959,-66.6666666666667,4,2,1,60,0,1
116169,-66.6666666666667,4,2,1,20,0,1
116327,-66.6666666666667,4,2,1,60,0,1
118380,-66.6666666666667,4,2,1,40,0,1
118538,-66.6666666666667,4,2,1,60,0,1
121064,-66.6666666666667,4,2,1,30,0,1
121222,-66.6666666666667,4,2,1,40,0,1
121380,-66.6666666666667,4,2,1,60,0,0

[Colours]
Combo1 : 250,95,207
Combo2 : 45,247,181
Combo3 : 115,41,252
Combo4 : 253,214,57
SliderBorder : 255,255,255

[HitObjects]
437,268,117,2,0,P|471:188|466:139,2,136.5,0|0|0,0:0|0:0|0:0,0:0:0:0:
352,300,1380,1,0,0:0:0:0:
264,276,1695,1,0,0:0:0:0:
188,326,2011,1,0,0:0:0:0:
100,302,2327,1,0,0:0:0:0:
28,211,2643,6,0,P|64:144|40:40,1,182
332,124,3906,2,0,L|241:136,1,91
179,44,4538,2,0,L|270:32,1,91
408,103,5169,6,0,P|360:129|332:203,2,136.5,0|0|0,0:0|0:0|0:0,0:0:0:0:
493,135,6432,1,0,0:0:0:0:
496,225,6748,1,0,0:0:0:0:
417,270,7064,1,0,0:0:0:0:
332,236,7380,1,0,0:0:0:0:
332,144,7695,6,0,L|293:337,1,182
376,376,8643,1,0,0:0:0:0:
201,346,8959,6,0,L|225:240,1,109.199996667481
199,27,9590,2,0,L|177:134,1,109.199996667481
70,208,10222,6,0,P|124:160|188:156,1,136.500005207062,4|0,0:0|0:0,0:0:0:0:
263,184,10695,1,8,0:0:0:0:
377,308,10853,2,0,L|253:374,1,136.500005207062,0|0,0:0|0:0,0:0:0:0:
435,167,11485,6,0,L|496:136,1,68.250002603531,0|8,0:0|0:0,0:0:0:0:
356,110,11801,2,0,L|417:79,1,68.250002603531,8|0,0:0|0:0,0:0:0:0:
221,29,12117,2,0,L|98:87,1,136.500005207062,0|8,0:0|0:0,0:0:0:0:
300,51,12590,1,8,0:0:0:0:
203,140,12748,6,0,L|233:212,1,68.250002603531
325,218,13064,2,0,L|295:146,1,68.250002603531,0|8,0:0|0:0,0:0:0:0:
364,302,13380,1,0,0:0:0:0:
398,146,13695,1,0,0:0:0:0:
92,95,14011,6,0,L|117:168,1,68.250002603531,0|8,0:0|0:0,0:0:0:0:
41,211,14327,2,0,L|66:284,1,68.250002603531,8|0,0:0|0:0,0:0:0:0:
127,345,14643,1,0,0:0:0:0:
221,324,14801,1,8,0:0:0:0:
213,303,14880,1,8,0:0:0:0:
206,284,14959,1,8,0:0:0:0:
280,223,15117,1,12,0:0:0:0:
255,62,15274,6,0,P|187:90|151:148,1,136.500005207062,4|0,0:0|0:0,0:0:0:0:
161,222,15748,1,8,0:0:0:0:
99,67,15906,6,0,P|71:138|86:204,2,136.500005207062,0|8|0,0:0|0:0|0:0,0:0:0:0:
169,22,16695,1,8,0:0:0:0:
165,107,16853,1,8,0:0:0:0:
240,76,17011,1,0,0:0:0:0:
235,157,17169,1,0,0:0:0:0:
311,127,17327,1,8,0:0:0:0:
311,208,17485,1,8,0:0:0:0:
383,169,17643,1,8,0:0:0:0:
392,276,17801,6,0,P|421:201|374:76,1,204.750007810593,0|8,0:0|0:0,0:0:0:0:
315,28,18432,1,0,0:0:0:0:
129,80,18748,1,0,0:0:0:0:
272,204,19064,1,0,0:0:0:0:
216,40,19380,1,8,0:0:0:0:
101,166,19695,1,0,0:0:0:0:
232,134,20011,5,8,0:0:0:0:
57,32,20169,1,8,0:0:0:0:
49,54,20248,1,8,0:0:0:0:
41,76,20327,6,0,L|98:203,1,136.500005207062,4|0,0:0|0:0,0:0:0:0:
136,283,20801,1,8,0:0:0:0:
10,287,20959,2,0,L|121:372,1,136.500005207062
364,372,21590,6,0,L|441:348,1,68.250002603531,0|8,0:0|0:0,0:0:0:0:
381,284,21906,2,0,L|458:260,1,68.250002603531,8|0,0:0|0:0,0:0:0:0:
383,170,22222,2,0,L|317:190,1,68.250002603531
400,82,22538,2,0,L|334:102,1,68.250002603531,8|8,0:0|0:0,0:0:0:0:
243,134,22853,5,8,0:0:0:0:
161,121,23011,1,0,0:0:0:0:
147,202,23169,1,0,0:0:0:0:
227,216,23327,1,8,0:0:0:0:
140,191,23485,5,0,0:0:0:0:
48,233,23643,1,0,0:0:0:0:
90,321,23801,1,8,0:0:0:0:
178,281,23959,1,8,0:0:0:0:
292,321,24117,6,0,P|391:343|469:286,1,204.750007810593,0|8,0:0|0:0,0:0:0:0:
423,217,24748,1,8,0:0:0:0:
483,135,24906,1,8,0:0:0:0:
466,123,24985,1,8,0:0:0:0:
449,111,25064,1,8,0:0:0:0:
352,56,25222,1,4,0:0:0:0:
221,30,25380,6,0,L|71:79,1,136.500005207062,4|8,0:0|0:0,0:0:0:0:
45,140,25853,1,8,0:0:0:0:
73,231,26011,2,0,L|223:182,1,136.500005207062,8|8,0:0|0:0,0:0:0:0:
325,153,26485,1,8,0:0:0:0:
325,153,26643,5,8,0:0:0:0:
464,238,26959,1,8,0:0:0:0:
322,320,27274,1,8,0:0:0:0:
403,177,27590,1,0,0:0:0:0:
382,97,27748,1,8,0:0:0:0:
302,78,27906,6,0,L|232:111,1,68.250002603531,0|0,0:0|0:0,0:0:0:0:
157,216,28222,2,0,L|227:183,1,68.250002603531,8|8,0:0|0:0,0:0:0:0:
158,34,28538,2,0,L|88:67,1,68.250002603531,0|8,0:0|0:0,0:0:0:0:
98,151,28853,2,0,L|168:118,1,68.250002603531,0|8,0:0|0:0,0:0:0:0:
11,117,29169,5,8,0:0:0:0:
47,353,29485,1,0,0:0:0:0:
237,193,29801,1,8,0:0:0:0:
49,261,30117,1,8,0:0:0:0:
146,315,30274,1,8,0:0:0:0:
165,309,30353,1,8,0:0:0:0:
184,303,30432,6,0,L|254:299,1,68.250002603531,4|8,0:0|0:0,0:0:0:0:
317,237,30748,2,0,L|387:233,1,68.250002603531,0|8,0:0|0:0,0:0:0:0:
502,154,31064,2,0,L|434:158,1,68.250002603531
366,99,31380,2,0,L|296:103,1,68.250002603531,0|8,0:0|0:0,0:0:0:0:
208,36,31695,5,0,0:0:0:0:
151,131,31853,1,8,0:0:0:0:
151,131,32011,2,0,L|217:194,1,68.250002603531,8|0,0:0|0:0,0:0:0:0:
30,128,32327,1,0,0:0:0:0:
30,128,32485,2,0,L|96:191,1,68.250002603531,0|8,0:0|0:0,0:0:0:0:
39,316,32801,1,0,0:0:0:0:
39,316,32959,6,0,L|92:257,1,68.250002603531,0|8,0:0|0:0,0:0:0:0:
221,213,33274,2,0,L|168:272,1,68.250002603531,8|8,0:0|0:0,0:0:0:0:
210,384,33590,2,0,L|263:325,1,68.250002603531
344,372,33906,2,0,L|389:321,1,68.250002603531,8|8,0:0|0:0,0:0:0:0:
383,305,34143,1,8,0:0:0:0:
377,288,34222,5,8,0:0:0:0:
456,220,34380,1,8,0:0:0:0:
376,200,34538,5,0,0:0:0:0:
421,105,34695,1,8,0:0:0:0:
341,126,34853,5,0,0:0:0:0:
323,35,35011,1,8,0:0:0:0:
266,94,35169,5,8,0:0:0:0:
187,31,35327,1,4,0:0:0:0:
260,267,35485,6,0,L|132:207,1,136.500005207062,4|0,0:0|0:0,0:0:0:0:
293,174,35959,1,8,0:0:0:0:
64,76,36117,2,0,L|191:135,1,136.500005207062,8|0,0:0|0:0,0:0:0:0:
297,184,36590,6,0,L|355:127,1,68.250002603531,8|0,0:0|0:0,0:0:0:0:
396,217,36906,1,8,0:0:0:0:
396,217,37064,2,0,L|454:160,1,68.250002603531,8|0,0:0|0:0,0:0:0:0:
423,323,37380,1,0,0:0:0:0:
423,323,37538,2,0,L|481:266,1,68.250002603531,0|8,0:0|0:0,0:0:0:0:
338,349,37853,1,0,0:0:0:0:
338,349,38011,6,0,L|286:296,1,68.250002603531,0|8,0:0|0:0,0:0:0:0:
225,161,38327,2,0,L|172:213,1,68.250002603531,0|8,0:0|0:0,0:0:0:0:
32,216,38643,2,0,L|84:269,1,68.250002603531
175,384,38959,2,0,L|223:336,1,68.250002603531,8|0,0:0|0:0,0:0:0:0:
350,217,39274,5,0,0:0:0:0:
417,263,39432,1,8,0:0:0:0:
406,162,39590,5,8,0:0:0:0:
452,95,39748,1,0,0:0:0:0:
353,103,39906,5,0,0:0:0:0:
286,57,40064,1,8,0:0:0:0:
297,159,40222,5,0,0:0:0:0:
251,226,40380,1,8,0:0:0:0:
131,366,40538,6,0,L|275:313,1,136.500005207062,12|8,0:0|0:0,0:0:0:0:
30,225,41011,1,8,0:0:0:0:
10,326,41169,2,0,L|154:273,1,136.500005207062
251,226,41643,1,8,0:0:0:0:
194,100,41801,6,0,L|139:43,1,68.250002603531,0|8,0:0|0:0,0:0:0:0:
198,114,42117,5,8,0:0:0:0:
106,125,42274,1,0,0:0:0:0:
206,124,42432,5,0,0:0:0:0:
146,211,42590,1,8,0:0:0:0:
218,136,42748,5,0,0:0:0:0:
239,265,42906,1,8,0:0:0:0:
291,94,43064,6,0,L|346:41,1,68.250002603531,8|0,0:0|0:0,0:0:0:0:
243,279,43380,2,0,L|298:226,1,68.250002603531,0|8,0:0|0:0,0:0:0:0:
441,71,43695,2,0,L|386:124,1,68.250002603531,8|8,0:0|0:0,0:0:0:0:
393,252,44011,2,0,L|338:305,1,68.250002603531,0|8,0:0|0:0,0:0:0:0:
261,365,44327,5,0,0:0:0:0:
172,347,44485,1,8,0:0:0:0:
97,283,44643,1,8,0:0:0:0:
74,179,44801,1,0,0:0:0:0:
152,28,44959,2,0,L|119:93,1,68.250002603531,8|0,0:0|0:0,0:0:0:0:
188,232,45274,2,0,L|221:167,1,68.250002603531,8|4,0:0|0:0,0:0:0:0:
232,155,45511,1,4,0:0:0:0:
247,141,45590,6,0,P|302:106|444:122,1,204.750007810593,4|0,0:0|0:0,0:0:0:0:
499,168,46222,2,0,L|465:315,1,136.500005207062,8|8,0:0|0:0,0:0:0:0:
413,362,46695,1,8,0:0:0:0:
382,166,46853,6,0,L|412:237,1,68.250002603531,0|8,0:0|0:0,0:0:0:0:
277,199,47169,2,0,L|339:242,1,68.250002603531,8|0,0:0|0:0,0:0:0:0:
204,273,47485,2,0,L|274:289,1,68.250002603531,8|0,0:0|0:0,0:0:0:0:
164,372,47801,2,0,L|246:362,1,68.250002603531,8|8,0:0|0:0,0:0:0:0:
327,352,48117,5,8,0:0:0:0:
340,314,48590,5,8,0:0:0:0:
352,280,49064,5,8,0:0:0:0:
364,242,49538,5,8,0:0:0:0:
324,120,49695,1,8,0:0:0:0:
434,30,49853,1,8,0:0:0:0:
377,205,50011,5,0,0:0:0:0:
268,55,50169,1,8,0:0:0:0:
408,116,50327,1,8,0:0:0:0:
287,199,50485,1,8,0:0:0:0:
279,214,50564,1,8,0:0:0:0:
271,229,50643,6,0,L|131:284,1,136.500005207062,12|2,0:0|0:0,0:0:0:0:
68,242,51117,1,8,0:0:0:0:
85,48,51274,2,0,L|202:141,1,136.500005207062,8|10,0:0|0:0,0:0:0:0:
57,322,51748,1,8,0:0:0:0:
74,141,51906,6,0,L|138:195,1,68.250002603531,10|0,0:0|0:0,0:0:0:0:
225,372,52222,2,0,L|239:289,1,68.250002603531,8|8,0:0|0:0,0:0:0:0:
347,119,52538,2,0,L|268:147,1,68.250002603531,10|8,0:0|0:0,0:0:0:0:
264,131,52774,1,8,0:0:0:0:
246,121,52853,1,8,0:0:0:0:
183,191,53011,1,8,0:0:0:0:
306,43,53169,5,8,0:0:0:0:
347,202,53643,1,8,0:0:0:0:
435,100,53801,6,0,L|461:20,1,68.250002603531,8|8,0:0|0:0,0:0:0:0:
351,348,54274,1,8,0:0:0:0:
430,274,54432,6,0,L|501:256,1,68.250002603531,8|0,0:0|0:0,0:0:0:0:
354,209,54748,2,0,L|425:191,1,68.250002603531,8|8,0:0|0:0,0:0:0:0:
281,141,55064,2,8,L|352:123,1,68.250002603531,8|8,0:0|0:0,0:0:0:0:
177,42,55538,1,4,0:0:0:0:
95,40,55695,6,0,P|42:87|37:161,1,136.500005207062,4|10,0:0|0:0,0:0:0:0:
139,295,56327,2,0,P|192:248|197:174,1,136.500005207062,0|2,0:0|0:0,0:0:0:0:
138,131,56801,1,8,0:0:0:0:
8,273,56959,6,0,L|70:245,1,68.250002603531,2|8,0:0|0:0,0:0:0:0:
81,338,57274,2,0,L|143:310,1,68.250002603531,8|0,0:0|0:0,0:0:0:0:
407,322,57590,2,0,L|345:294,1,68.250002603531,10|8,0:0|0:0,0:0:0:0:
332,277,57827,1,8,0:0:0:0:
322,259,57906,2,0,L|260:231,1,68.250002603531,8|8,0:0|0:0,0:0:0:0:
211,62,58222,6,0,L|149:34,1,68.250002603531,0|8,0:0|0:0,0:0:0:0:
367,123,58695,1,8,0:0:0:0:
448,133,58853,1,8,0:0:0:0:
291,154,59011,6,0,P|241:216|258:294,1,136.500005207062,8|8,0:0|0:0,0:0:0:0:
290,337,59485,2,0,L|375:349,1,68.250002603531,0|8,0:0|0:0,0:0:0:0:
335,257,59801,2,0,L|420:269,1,68.250002603531,8|0,0:0|0:0,0:0:0:0:
472,325,60117,1,8,0:0:0:0:
501,181,60274,2,0,P|477:109|390:76,1,136.500005207062,8|8,0:0|0:0,0:0:0:0:
305,88,60748,6,0,L|251:139,1,68.250002603531,4|8,0:0|0:0,0:0:0:0:
174,121,61064,2,0,L|124:167,1,68.250002603531,10|0,0:0|0:0,0:0:0:0:
42,179,61380,2,0,P|24:246|59:323,1,136.500005207062,8|10,0:0|0:0,0:0:0:0:
100,368,61853,1,0,0:0:0:0:
299,317,62011,6,0,L|240:284,1,68.250002603531,2|8,0:0|0:0,0:0:0:0:
266,201,62327,2,0,L|331:237,1,68.250002603531,0|8,0:0|0:0,0:0:0:0:
397,273,62643,1,10,0:0:0:0:
210,370,62801,2,0,P|155:311|156:257,1,136.500005207062,8|8,0:0|0:0,0:0:0:0:
237,87,63274,6,0,L|379:42,2,136.500005207062,0|8|0,0:0|0:0|0:0,0:0:0:0:
165,47,64064,1,8,0:0:0:0:
91,83,64222,1,0,0:0:0:0:
86,164,64380,1,8,0:0:0:0:
154,209,64538,1,0,0:0:0:0:
333,372,64853,5,8,0:0:0:0:
417,343,65011,1,8,0:0:0:0:
426,254,65169,1,0,0:0:0:0:
351,203,65327,1,0,0:0:0:0:
255,283,65643,1,4,0:0:0:0:
261,298,65722,1,4,0:0:0:0:
268,313,65801,6,0,P|342:308|387:269,1,136.500005207062,4|10,0:0|0:0,0:0:0:0:
309,60,66432,1,0,0:0:0:0:
93,112,66748,1,10,0:0:0:0:
248,268,67064,1,2,0:0:0:0:
309,60,67380,5,8,0:0:0:0:
227,50,67538,1,8,0:0:0:0:
145,38,67695,2,0,L|63:69,1,68.250002603531,2|8,0:0|0:0,0:0:0:0:
19,224,68011,2,0,L|101:193,1,68.250002603531,0|8,0:0|0:0,0:0:0:0:
156,234,68327,6,0,L|238:203,1,68.250002603531,0|0,0:0|0:0,0:0:0:0:
122,342,68801,1,8,0:0:0:0:
184,130,68959,6,0,L|266:99,1,68.250002603531
214,302,69432,1,8,0:0:0:0:
335,71,69590,6,0,L|474:23,2,136.500005207062,0|8|8,0:0|0:0|0:0,0:0:0:0:
309,188,70380,1,8,0:0:0:0:
329,184,70459,1,8,0:0:0:0:
348,179,70538,1,8,0:0:0:0:
424,263,70695,1,8,0:0:0:0:
436,247,70774,1,8,0:0:0:0:
448,230,70853,5,4,0:0:0:0:
367,352,71169,1,0,0:0:0:0:
287,332,71327,1,8,0:0:0:0:
207,310,71485,1,2,0:0:0:0:
27,153,71801,2,0,L|95:181,1,68.250002603531,8|8,0:0|0:0,0:0:0:0:
165,212,72117,5,0,0:0:0:0:
238,177,72274,1,8,0:0:0:0:
239,95,72432,1,8,0:0:0:0:
167,55,72590,1,8,0:0:0:0:
94,92,72748,2,0,L|26:64,1,68.250002603531,2|0,0:0|0:0,0:0:0:0:
22,242,73222,1,8,0:0:0:0:
106,274,73380,6,0,P|124:307|128:342,1,68.250002603531
212,380,73695,2,0,P|245:361|280:357,1,68.250002603531,8|8,0:0|0:0,0:0:0:0:
340,288,74011,2,0,P|321:254|317:219,1,68.250002603531,2|0,0:0|0:0,0:0:0:0:
232,169,74327,2,0,P|198:187|163:191,1,68.250002603531,0|8,0:0|0:0,0:0:0:0:
39,153,74643,6,0,P|26:54|43:24,2,136.500005207062,0|8|2,0:0|0:0|0:0,0:0:0:0:
92,216,75432,1,0,0:0:0:0:
27,266,75590,1,8,0:0:0:0:
82,325,75748,1,4,0:0:0:0:
78,345,75827,1,4,0:0:0:0:
74,365,75906,6,0,P|174:369|212:266,1,204.750007810593,4|8,0:0|0:0,0:0:0:0:
191,207,76538,1,2,0:0:0:0:
382,323,76853,1,8,0:0:0:0:
354,238,77011,1,8,0:0:0:0:
328,152,77169,6,0,L|260:96,1,68.250002603531,0|8,0:0|0:0,0:0:0:0:
348,58,77485,2,0,L|280:2,1,68.250002603531,0|8,0:0|0:0,0:0:0:0:
426,33,77801,2,0,L|494:89,1,68.250002603531,2|0,0:0|0:0,0:0:0:0:
406,127,78117,2,0,L|474:183,1,68.250002603531,8|8,0:0|0:0,0:0:0:0:
481,309,78432,6,0,L|365:213,1,136.500005207062,0|0,0:0|0:0,0:0:0:0:
11,215,79064,2,0,L|127:311,1,136.500005207062,2|8,0:0|0:0,0:0:0:0:
44,352,79538,1,8,0:0:0:0:
95,95,79695,6,0,L|159:231,1,136.500005207062,0|8,0:0|0:0,0:0:0:0:
191,298,80169,1,0,0:0:0:0:
238,86,80327,6,0,L|239:236,1,136.500005207062,10|8,0:0|0:0,0:0:0:0:
236,378,80801,1,8,0:0:0:0:
325,159,80959,6,0,P|404:163|465:232,1,136.500005207062,4|8,0:0|0:0,0:0:0:0:
403,334,81590,2,0,P|323:329|262:260,1,136.500005207062,10|8,0:0|0:0,0:0:0:0:
210,138,82064,1,8,0:0:0:0:
245,56,82222,6,0,L|331:27,1,68.250002603531,0|8,0:0|0:0,0:0:0:0:
100,52,82538,2,0,L|186:23,1,68.250002603531,8|0,0:0|0:0,0:0:0:0:
75,145,82853,2,0,L|-11:174,1,68.250002603531,10|0,0:0|0:0,0:0:0:0:
220,149,83169,2,0,L|134:178,1,68.250002603531,8|8,0:0|0:0,0:0:0:0:
9,251,83485,5,0,0:0:0:0:
92,221,83643,1,8,0:0:0:0:
180,255,83801,1,0,0:0:0:0:
263,225,83959,1,8,0:0:0:0:
112,301,84117,6,0,L|140:364,1,68.250002603531,10|0,0:0|0:0,0:0:0:0:
83,135,84432,2,0,L|55:72,1,68.250002603531,8|0,0:0|0:0,0:0:0:0:
160,70,84748,6,0,L|232:39,1,68.250002603531,0|8,0:0|0:0,0:0:0:0:
236,58,84985,1,8,0:0:0:0:
250,71,85064,2,0,L|322:40,1,68.250002603531,0|8,0:0|0:0,0:0:0:0:
500,100,85380,2,0,L|428:131,1,68.250002603531,2|0,0:0|0:0,0:0:0:0:
198,234,85853,1,4,0:0:0:0:
338,236,86011,6,0,P|388:292|384:359,1,136.500005207062,4|8,0:0|0:0,0:0:0:0:
302,323,86485,1,8,0:0:0:0:
193,248,86643,2,0,P|143:192|147:125,1,136.500005207062,10|0,0:0|0:0,0:0:0:0:
204,68,87117,1,8,0:0:0:0:
332,53,87274,6,0,L|398:74,1,68.250002603531,0|8,0:0|0:0,0:0:0:0:
273,125,87590,2,0,L|339:146,1,68.250002603531,8|0,0:0|0:0,0:0:0:0:
277,222,87906,2,0,L|342:242,1,68.250002603531,2|2,0:0|0:0,0:0:0:0:
218,293,88222,2,0,L|283:313,1,68.250002603531,8|8,0:0|0:0,0:0:0:0:
388,364,88538,5,0,0:0:0:0:
465,284,88695,1,0,0:0:0:0:
387,330,88853,5,8,0:0:0:0:
424,208,89011,1,0,0:0:0:0:
370,297,89169,5,10,0:0:0:0:
362,148,89327,1,0,0:0:0:0:
340,271,89485,5,8,0:0:0:0:
276,116,89643,1,8,0:0:0:0:
251,256,89801,6,0,P|211:260|184:272,1,68.250002603531,0|8,0:0|0:0,0:0:0:0:
128,70,90117,2,0,P|168:66|195:54,1,68.250002603531,8|0,0:0|0:0,0:0:0:0:
283,105,90432,2,0,P|287:145|299:172,1,68.250002603531,10|2,0:0|0:0,0:0:0:0:
97,228,90748,2,0,P|93:188|81:161,1,68.250002603531,8|0,0:0|0:0,0:0:0:0:
58,310,91064,5,4,0:0:0:0:
182,172,91380,1,0,0:0:0:0:
253,119,91538,1,8,0:0:0:0:
341,121,91695,1,2,0:0:0:0:
102,136,92011,5,8,0:0:0:0:
182,172,92169,1,0,0:0:0:0:
208,256,92327,2,0,L|177:328,1,68.250002603531,0|8,0:0|0:0,0:0:0:0:
288,210,92643,2,0,L|319:282,1,68.250002603531,8|0,0:0|0:0,0:0:0:0:
422,164,92959,2,0,L|391:236,1,68.250002603531,2|0,0:0|0:0,0:0:0:0:
341,355,93274,1,8,0:0:0:0:
419,315,93432,1,8,0:0:0:0:
493,105,93590,6,0,L|426:67,1,68.250002603531,0|8,0:0|0:0,0:0:0:0:
350,89,93906,2,0,L|283:51,1,68.250002603531,8|0,0:0|0:0,0:0:0:0:
182,89,94222,2,0,L|241:122,1,68.250002603531,2|0,0:0|0:0,0:0:0:0:
34,99,94538,2,0,L|93:132,1,68.250002603531,8|0,0:0|0:0,0:0:0:0:
185,192,94853,5,0,0:0:0:0:
209,285,95011,1,8,0:0:0:0:
117,309,95169,1,0,0:0:0:0:
93,217,95327,1,8,0:0:0:0:
196,205,95485,5,2,0:0:0:0:
154,318,95643,1,2,0:0:0:0:
42,277,95801,1,8,0:0:0:0:
85,166,95959,1,4,0:0:0:0:
205,216,96117,6,0,L|355:224,1,136.500005207062,4|8,0:0|0:0,0:0:0:0:
420,183,96590,1,8,0:0:0:0:
310,146,96748,2,0,P|266:196|276:268,1,136.500005207062,2|8,0:0|0:0,0:0:0:0:
339,320,97222,1,0,0:0:0:0:
422,289,97380,6,0,L|480:244,1,68.250002603531
473,59,97695,2,0,L|415:104,1,68.250002603531,8|8,0:0|0:0,0:0:0:0:
356,46,98011,2,0,L|298:91,1,68.250002603531,2|10,0:0|0:0,0:0:0:0:
225,59,98327,2,0,L|167:104,1,68.250002603531,8|0,0:0|0:0,0:0:0:0:
62,174,98643,5,2,0:0:0:0:
127,29,98959,1,8,0:0:0:0:
225,59,99117,1,8,0:0:0:0:
280,144,99274,1,2,0:0:0:0:
148,294,99590,5,8,0:0:0:0:
174,198,99748,1,0,0:0:0:0:
280,144,99906,1,0,0:0:0:0:
390,167,100064,1,8,0:0:0:0:
402,183,100143,1,8,0:0:0:0:
411,201,100222,2,0,L|428:267,1,68.250002603531,8|0,0:0|0:0,0:0:0:0:
466,78,100538,2,0,L|483:144,1,68.250002603531,10|10,0:0|0:0,0:0:0:0:
339,299,100853,2,0,L|356:365,1,68.250002603531,0|8,0:0|0:0,0:0:0:0:
302,112,101169,6,0,P|330:56|402:32,1,136.500005207062,4|8,0:0|0:0,0:0:0:0:
466,78,101643,1,8,0:0:0:0:
396,135,101801,2,0,P|368:191|296:215,1,136.500005207062,2|8,0:0|0:0,0:0:0:0:
225,184,102274,1,8,0:0:0:0:
188,67,102432,6,0,L|117:28,1,68.250002603531,0|8,0:0|0:0,0:0:0:0:
27,92,102748,2,0,L|98:131,1,68.250002603531,8|0,0:0|0:0,0:0:0:0:
112,226,103064,2,0,L|171:258,1,68.250002603531,10|0,0:0|0:0,0:0:0:0:
74,316,103380,2,0,L|14:283,1,68.250002603531,8|8,0:0|0:0,0:0:0:0:
154,358,103695,5,0,0:0:0:0:
312,145,104011,1,8,0:0:0:0:
379,98,104169,1,0,0:0:0:0:
445,49,104327,2,0,L|514:89,1,68.250002603531,2|8,0:0|0:0,0:0:0:0:
220,52,104801,1,8,0:0:0:0:
181,159,104959,6,0,L|250:199,1,68.250002603531,0|8,0:0|0:0,0:0:0:0:
234,275,105274,2,0,L|303:315,1,68.250002603531,8|0,0:0|0:0,0:0:0:0:
372,285,105590,1,2,0:0:0:0:
444,323,105748,1,8,0:0:0:0:
150,293,106064,1,4,0:0:0:0:
24,322,106222,6,0,P|19:248|56:197,1,136.500005207062,4|8,0:0|0:0,0:0:0:0:
291,343,106853,1,2,0:0:0:0:
33,115,107169,2,0,L|91:63,1,68.250002603531,8|0,0:0|0:0,0:0:0:0:
178,91,107485,5,0,0:0:0:0:
247,133,107643,1,8,0:0:0:0:
375,38,107801,5,8,0:0:0:0:
333,107,107959,1,0,0:0:0:0:
427,233,108117,5,2,0:0:0:0:
358,191,108274,1,0,0:0:0:0:
230,286,108432,5,8,0:0:0:0:
272,217,108590,1,8,0:0:0:0:
154,256,108748,6,0,L|93:296,1,68.250002603531,2|8,0:0|0:0,0:0:0:0:
323,290,109064,2,0,L|363:350,1,68.250002603531,0|8,0:0|0:0,0:0:0:0:
347,115,109380,2,0,L|407:74,1,68.250002603531,2|0,0:0|0:0,0:0:0:0:
177,80,109695,2,0,L|136:19,1,68.250002603531,8|8,0:0|0:0,0:0:0:0:
17,163,110011,5,0,0:0:0:0:
116,140,110169,1,8,0:0:0:0:
166,204,110327,5,8,0:0:0:0:
265,181,110485,1,0,0:0:0:0:
334,224,110643,5,2,0:0:0:0:
433,201,110801,1,10,0:0:0:0:
285,289,110959,5,0,0:0:0:0:
202,117,111117,1,8,0:0:0:0:
214,100,111195,1,8,0:0:0:0:
227,84,111274,6,0,L|304:54,1,68.250002603531,4|0,0:0|0:0,0:0:0:0:
271,312,111590,2,0,L|194:342,1,68.250002603531,8|0,0:0|0:0,0:0:0:0:
364,122,111906,2,0,L|494:73,1,136.500005207062,2|8,0:0|0:0,0:0:0:0:
106,332,112538,5,0,0:0:0:0:
34,111,112853,1,8,0:0:0:0:
254,39,113169,1,2,0:0:0:0:
326,260,113485,1,8,0:0:0:0:
106,332,113801,6,0,L|190:358,1,68.250002603531,0|8,0:0|0:0,0:0:0:0:
77,228,114117,2,0,L|161:254,1,68.250002603531,8|0,0:0|0:0,0:0:0:0:
149,148,114432,2,0,L|233:174,1,68.250002603531,2|0,0:0|0:0,0:0:0:0:
111,40,114748,2,0,L|195:66,1,68.250002603531,8|0,0:0|0:0,0:0:0:0:
369,188,115064,6,0,P|436:157|459:88,1,136.500005207062,0|8,0:0|0:0,0:0:0:0:
406,40,115538,1,0,0:0:0:0:
326,58,115695,2,0,L|242:32,1,68.250002603531,2|8,0:0|0:0,0:0:0:0:
44,111,116169,1,4,0:0:0:0:
80,184,116327,6,0,L|32:248,1,68.250002603531,4|8,0:0|0:0,0:0:0:0:
185,169,116643,2,0,L|233:105,1,68.250002603531,8|0,0:0|0:0,0:0:0:0:
251,216,116959,2,0,L|315:264,1,68.250002603531,10|0,0:0|0:0,0:0:0:0:
184,289,117274,2,0,L|120:241,1,68.250002603531,8|0,0:0|0:0,0:0:0:0:
238,363,117590,5,0,0:0:0:0:
414,323,117748,1,8,0:0:0:0:
327,331,117906,5,0,0:0:0:0:
446,222,118064,1,8,0:0:0:0:
367,252,118222,5,10,0:0:0:0:
385,97,118380,1,2,0:0:0:0:
344,172,118538,5,8,0:0:0:0:
308,34,118695,1,8,0:0:0:0:
291,46,118774,1,8,0:0:0:0:
274,58,118853,6,0,L|205:29,1,68.250002603531,0|8,0:0|0:0,0:0:0:0:
200,185,119169,2,0,L|269:214,1,68.250002603531,0|8,0:0|0:0,0:0:0:0:
116,103,119485,2,0,L|47:74,1,68.250002603531,2|8,0:0|0:0,0:0:0:0:
116,253,119801,2,0,L|185:282,1,68.250002603531,8|8,0:0|0:0,0:0:0:0:
336,360,120117,5,0,0:0:0:0:
440,304,120274,1,8,0:0:0:0:
336,232,120432,1,0,0:0:0:0:
336,360,120590,5,8,0:0:0:0:
421,203,120748,1,10,0:0:0:0:
284,75,120906,1,0,0:0:0:0:
237,147,121064,5,10,0:0:0:0:
336,232,121222,1,10,0:0:0:0:
362,105,121380,1,4,0:0:0:0:
