osu file format v12

[General]
AudioFilename: -insturmental version- Otokaze.mp3
AudioLeadIn: 2000
PreviewTime: 10238
Countdown: 0
SampleSet: Soft
StackLeniency: 0.7
Mode: 0
LetterboxInBreaks: 0
EpilepsyWarning: 1
WidescreenStoryboard: 0

[Editor]
DistanceSpacing: 1.3
BeatDivisor: 4
GridSize: 4

[Metadata]
Title:Ame Michi
TitleUnicode:雨道
Artist:Otokaze
ArtistUnicode:Otokaze
Creator:Flower
Version:Hard
Source:
Tags:in the rain insturmental instrumental jazz hiphop spboxer3 DangYang_shushu
BeatmapID:193469
BeatmapSetID:65545

[Difficulty]
HPDrainRate:5
CircleSize:4
OverallDifficulty:5
ApproachRate:7
SliderMultiplier:1.22
SliderTickRate:2

[Events]
//Background and Video events
0,0,"rain.jpg",0,0
//Break Periods
//Storyboard Layer 0 (Background)
//Storyboard Layer 1 (Fail)
//Storyboard Layer 2 (Pass)
//Storyboard Layer 3 (Foreground)
Sprite,Foreground,Centre,"rain1.png",320,240 L,-2000,6 F,0,0,1263,0.40728 M,0,0,1894,431,-375,186,891 F,0,1263,1894,0.40728,0 S,0,-2000,,1.15
Sprite,Foreground,Centre,"rain1.png",320,240 L,-1053,6 F,0,0,1263,0.40728 M,0,0,1894,431,-375,186,891 F,0,1263,1894,0.40728,0 S,0,-1053,,1.15
Sprite,Foreground,Centre,"sb1\1.png",320,240 F,0,10853,12116,0,1 M,0,10854,,320,240
Sprite,Foreground,Centre,"sb1\2.png",320,240 F,0,11169,12116,0,1 F,0,12116,13063,1,0
Sprite,Foreground,Centre,"sb1\3.png",320,240 F,0,11485,12117,0,0.6666667 F,0,12117,13380,0.6666667,0
Sprite,Foreground,Centre,"sb1\4.png",320,240 F,0,11801,12433,0,0.58528 F,0,12433,13064,0.58528,0 M,0,121226,,320,240
Sprite,Foreground,Centre,"rain-blur.jpg",320,240 F,0,10222,11170,1,0
Sprite,Foreground,Centre,"rain-blur.jpg",320,240 F,0,15274,15906,1,0
Sprite,Foreground,Centre,"rain-blur.jpg",320,240 F,0,20327,20959,1,0
Sprite,Foreground,Centre,"rain-blur.jpg",320,240 F,0,25380,26012,1,0
Sprite,Foreground,Centre,"rain-blur.jpg",320,240 F,0,30432,31064,1,0
Sprite,Foreground,Centre,"rain-blur.jpg",320,240 F,0,35485,36117,1,0
Sprite,Foreground,Centre,"rain-blur.jpg",320,240 F,0,40538,41170,1,0
Sprite,Foreground,Centre,"rain-blur.jpg",320,240 F,0,45590,46222,1,0
Sprite,Foreground,Centre,"rain-blur.jpg",320,240 F,0,55695,56327,1,0
Sprite,Foreground,Centre,"rain-blur.jpg",320,240 F,0,60748,61380,1,0
Sprite,Foreground,Centre,"rain-blur.jpg",320,240 F,0,65801,66433,1,0
Sprite,Foreground,Centre,"rain-blur.jpg",320,240 F,0,91064,91696,1,0
Sprite,Foreground,Centre,"rain-blur.jpg",320,240 F,0,96116,96748,1,0
Sprite,Foreground,Centre,"rain-blur.jpg",320,240 F,0,101169,101801,1,0
Sprite,Foreground,Centre,"rain-blur.jpg",320,240 F,0,106222,106854,1,0
Sprite,Foreground,Centre,"rain-blur.jpg",320,240 F,0,116327,116959,1,0
Sprite,Foreground,Centre,"rain-blur.jpg",320,240 F,0,111274,111906,1,0
Sprite,Foreground,Centre,"rain-blur.jpg",320,240 F,0,70853,71485,1,0
Sprite,Foreground,Centre,"rain-blur.jpg",320,240 F,0,121380,122012,1,0
Sprite,Foreground,Centre,"rain-blur.jpg",320,240 F,0,50643,51275,1,0
Sprite,Foreground,Centre,"rain-blur.jpg",320,240 F,0,75906,76538,1,0
Sprite,Foreground,Centre,"rain-blur.jpg",320,240 F,0,80959,81591,1,0
Sprite,Foreground,Centre,"rain-blur.jpg",320,240 F,0,86011,86643,1,0
Sprite,Foreground,Centre,"white.jpg",320,240 F,0,70222,70849,0,0.3123199 F,0,70222,70853,0.04824761,0.1654402 F,0,70849,70853,0.3123199,0.5699201 F,0,70853,71485,1,0
Sprite,Foreground,Centre,"rain1.png",320,240 L,71922,26 F,0,0,1263,0.40728 M,0,0,1894,431,-375,186,891 F,0,1263,1894,0.40728,0 S,0,71922,,1.15
Sprite,Foreground,Centre,"rain1.png",320,240 L,70975,26 F,0,0,1263,0.40728 M,0,0,1894,431,-375,186,891 F,0,1263,1894,0.40728,0 S,0,70975,,1.15
Sprite,Foreground,Centre,"white.jpg",320,240 F,0,80959,,1 F,0,80959,81590,1,0
Sprite,Foreground,Centre,"white.jpg",320,240 F,0,91064,,1 F,0,91064,91695,1,0
Sprite,Foreground,Centre,"white.jpg",320,240 F,0,101169,,1 F,0,101169,101800,1,0
Sprite,Foreground,Centre,"white.jpg",320,240 F,0,111274,,1 F,0,111274,111905,1,0
Sprite,Foreground,Centre,"white.jpg",320,240 F,0,121380,122010,0.8,0.2 F,0,122010,123026,0.2,0
Sprite,Foreground,Centre,"white.jpg",320,240 F,0,9590,10217,0,0.2 F,0,10221,10853,0.6,0
Sprite,Foreground,Centre,"white.jpg",320,240 F,0,50011,50642,0,0.2 F,0,50642,51274,0.63,0
Sprite,Foreground,Centre,"sb1\1.png",320,240 M,0,121068,,320,240 F,0,121380,122022,0,1 F,0,122022,122843,1,0
Sprite,Foreground,Centre,"sb1\2.png",320,240 F,0,121380,122327,0,1 F,0,122327,123274,1,0
Sprite,Foreground,Centre,"sb1\3.png",320,240 F,0,121695,122327,0,0.8 F,0,122327,123890,0.8,0
Sprite,Foreground,Centre,"sb1\4.png",320,240 F,0,122011,122843,0,0.58528 F,0,122843,123619,0.58528,0
//Storyboard Sound Samples
//Background Colour Transformations
3,100,163,162,255

[TimingPoints]
117,631.578947368421,4,2,1,50,1,0
10222,-66.6666666666667,4,2,1,55,0,0
15116,-66.6666666666667,4,2,1,20,0,0
15274,-66.6666666666667,4,2,1,60,0,0
50643,-66.6666666666667,4,2,1,60,0,1
50722,-66.6666666666667,4,2,1,60,0,0
68327,-66.6666666666667,4,2,1,55,0,0
70853,-66.6666666666667,4,2,1,60,0,1
121380,-66.6666666666667,4,2,1,60,0,0

[Colours]
Combo1 : 250,95,207
Combo2 : 45,247,181
Combo3 : 115,41,252
Combo4 : 253,214,57
SliderBorder : 255,255,255

[HitObjects]
328,88,117,2,0,P|378:138|373:269,1,183
329,301,1380,2,0,L|214:345,1,122
135,341,2327,1,0,0:0:0:0:
73,290,2643,6,0,P|51:237|76:167,1,122
190,73,3906,1,0,0:0:0:0:
190,73,4538,1,0,0:0:0:0:
250,123,4853,1,0,0:0:0:0:
312,172,5169,6,0,P|374:188|459:108,1,183
426,42,6432,2,0,P|364:26|279:106,1,183
238,165,7695,6,0,P|221:201|171:239,2,91.5
312,192,8959,2,0,P|307:239|321:287,2,91.5
368,87,10222,6,0,P|445:104|500:200,1,183.000006980896,4|8,0:0|0:0,0:0:0:0:
412,256,11169,1,8,0:0:0:0:
317,199,11485,2,0,P|272:206|235:234,1,91.5000034904481,8|0,0:0|0:0,0:0:0:0:
256,356,12117,2,0,P|300:348|337:320,1,91.5000034904481,8|0,0:0|0:0,0:0:0:0:
317,199,12748,6,0,P|337:135|398:113,2,137.250005235672,8|8|8,0:0|0:0|0:0,0:0:0:0:
225,138,14011,2,0,L|180:150,1,45.7500017452241,0|8,0:0|0:0,0:0:0:0:
155,257,14485,2,0,L|200:245,1,45.7500017452241,0|8,0:0|0:0,0:0:0:0:
81,189,14959,5,0,0:0:0:0:
81,189,15117,1,4,0:0:0:0:
81,189,15274,2,0,P|53:258|112:352,1,183.000006980896,4|8,0:0|0:0,0:0:0:0:
210,368,16222,1,8,0:0:0:0:
277,281,16538,2,0,P|334:236|408:243,1,137.250005235672,8|0,0:0|0:0,0:0:0:0:
410,248,17169,1,8,0:0:0:0:
365,348,17485,1,0,0:0:0:0:
277,281,17801,6,0,P|236:234|244:152,2,137.250005235672,8|8|8,0:0|0:0|0:0,0:0:0:0:
345,194,19064,2,0,L|405:177,1,45.7500017452241,0|8,0:0|0:0,0:0:0:0:
418,75,19538,2,0,L|358:92,1,45.7500017452241,0|8,0:0|0:0,0:0:0:0:
272,36,20011,1,8,0:0:0:0:
256,164,20327,6,0,P|219:212|95:225,1,183.000006980896,4|8,0:0|0:0,0:0:0:0:
16,164,21274,1,8,0:0:0:0:
81,70,21590,2,0,L|174:56,1,91.5000034904481,0|8,0:0|0:0,0:0:0:0:
256,164,22222,2,0,L|163:178,1,91.5000034904481,8|0,0:0|0:0,0:0:0:0:
246,61,22853,6,0,P|313:41|388:83,1,137.250005235672,8|8,0:0|0:0,0:0:0:0:
378,83,23485,1,8,0:0:0:0:
409,188,23801,1,8,0:0:0:0:
321,253,24117,2,0,L|267:266,1,45.7500017452241,0|8,0:0|0:0,0:0:0:0:
256,299,24432,2,0,L|202:312,1,45.7500017452241,8|0,0:0|0:0,0:0:0:0:
184,341,24748,2,0,P|132:333|95:301,1,91.5000034904481,8|0,0:0|0:0,0:0:0:0:
173,226,25380,6,0,P|188:173|310:152,1,183.000006980896,4|8,0:0|0:0,0:0:0:0:
380,222,26327,1,8,0:0:0:0:
326,318,26643,1,0,0:0:0:0:
326,318,26801,1,8,0:0:0:0:
326,318,26959,2,0,P|263:342|240:340,1,91.5000034904481,8|0,0:0|0:0,0:0:0:0:
141,292,27590,1,8,0:0:0:0:
118,184,27906,6,0,P|147:119|212:80,1,137.250005235672,8|8,0:0|0:0,0:0:0:0:
220,88,28538,1,8,0:0:0:0:
328,108,28853,1,0,0:0:0:0:
362,215,29169,2,0,L|278:288,1,91.5000034904481,8|0,0:0|0:0,0:0:0:0:
184,256,29801,1,8,0:0:0:0:
124,44,30432,6,0,P|65:73|28:203,1,183.000006980896,4|8,0:0|0:0,0:0:0:0:
5,286,31380,1,8,0:0:0:0:
113,309,31695,2,0,P|187:336|294:281,1,183.000006980896,8|0,0:0|0:0,0:0:0:0:
239,196,32643,5,0,0:0:0:0:
239,196,32801,1,8,0:0:0:0:
239,196,32959,2,0,P|298:156|369:172,1,137.250005235672,0|8,0:0|0:0,0:0:0:0:
371,180,33590,2,0,P|431:195|466:180,1,91.5000034904481,8|0,0:0|0:0,0:0:0:0:
440,72,34222,2,0,L|496:62,2,45.7500017452241,8|0|8,0:0|0:0|0:0,0:0:0:0:
316,46,34853,2,0,L|224:68,1,91.5000034904481,8|0,0:0|0:0,0:0:0:0:
119,43,35485,6,0,P|77:83|116:196,1,183.000006980896,4|8,0:0|0:0,0:0:0:0:
215,169,36432,1,8,0:0:0:0:
324,174,36748,2,0,L|334:274,2,91.5000034904481,8|0|8,0:0|0:0|0:0,0:0:0:0:
409,105,37695,1,8,0:0:0:0:
409,105,38011,6,0,P|464:126|485:245,1,183.000006980896,8|0,0:0|0:0,0:0:0:0:
408,312,38959,1,8,0:0:0:0:
368,212,39274,2,0,P|324:236|300:316,2,137.250005235672,8|8|8,0:0|0:0|0:0,0:0:0:0:
232,232,40538,6,0,L|144:208,1,91.5000034904481,4|8,0:0|0:0,0:0:0:0:
24,112,41169,2,0,P|68:88|152:104,1,137.250005235672,8|8,0:0|0:0,0:0:0:0:
160,120,41801,2,0,P|200:140|256:136,1,91.5000034904481,0|8,0:0|0:0,0:0:0:0:
332,32,42432,1,8,0:0:0:0:
440,108,42748,5,0,0:0:0:0:
440,108,42906,1,8,0:0:0:0:
440,108,43064,2,0,L|416:204,1,91.5000034904481,8|0,0:0|0:0,0:0:0:0:
496,276,43695,2,0,L|416:328,1,91.5000034904481,8|0,0:0|0:0,0:0:0:0:
316,288,44327,2,0,P|251:281|153:354,1,183.000006980896,8|0,0:0|0:0,0:0:0:0:
88,260,45274,1,8,0:0:0:0:
180,204,45590,6,0,P|200:156|280:116,1,137.250005235672,4|8,0:0|0:0,0:0:0:0:
276,128,46222,2,0,L|368:168,1,91.5000034904481,8|8,0:0|0:0,0:0:0:0:
472,112,46853,2,0,L|380:72,1,91.5000034904481,0|8,0:0|0:0,0:0:0:0:
260,88,47485,2,0,L|168:48,1,91.5000034904481,8|0,0:0|0:0,0:0:0:0:
68,80,48117,6,0,P|28:132|32:204,2,137.250005235672,8|8|8,0:0|0:0|0:0,0:0:0:0:
272,172,49538,1,8,0:0:0:0:
272,172,49695,1,8,0:0:0:0:
356,96,50011,2,0,L|448:80,1,91.5000034904481,8|0,0:0|0:0,0:0:0:0:
504,204,50643,5,4,0:0:0:0:
388,256,50959,1,2,0:0:0:0:
296,196,51274,1,8,0:0:0:0:
180,248,51590,1,2,0:0:0:0:
192,140,51906,6,0,L|148:112,1,45.7500017452241,2|8,0:0|0:0,0:0:0:0:
136,96,52222,2,0,P|96:120|76:160,1,91.5000034904481,8|8,0:0|0:0,0:0:0:0:
100,284,52853,1,0,0:0:0:0:
228,228,53169,6,0,L|360:272,1,137.250005235672,8|8,0:0|0:0,0:0:0:0:
364,284,53801,2,0,P|404:256|420:208,1,91.5000034904481,8|0,0:0|0:0,0:0:0:0:
400,108,54432,2,0,L|448:92,1,45.7500017452241,8|8,0:0|0:0,0:0:0:0:
380,88,54748,2,0,L|408:44,1,45.7500017452241,0|8,0:0|0:0,0:0:0:0:
352,76,55064,2,0,P|302:72|256:88,1,91.5000034904481,8|0,0:0|0:0,0:0:0:0:
164,40,55695,5,4,0:0:0:0:
112,136,56011,1,2,0:0:0:0:
180,220,56327,1,8,0:0:0:0:
128,316,56643,1,2,0:0:0:0:
20,240,56959,6,0,L|212:188,1,183.000006980896,2|8,0:0|0:0,0:0:0:0:
300,224,57906,1,0,0:0:0:0:
412,152,58222,5,8,0:0:0:0:
488,332,58695,1,8,0:0:0:0:
488,332,58853,2,0,P|440:348|400:344,1,91.5000034904481,8|0,0:0|0:0,0:0:0:0:
284,252,59485,2,0,P|332:236|372:240,1,91.5000034904481,8|0,0:0|0:0,0:0:0:0:
456,136,60117,2,0,L|488:48,1,91.5000034904481,8|8,0:0|0:0,0:0:0:0:
336,104,60748,5,4,0:0:0:0:
260,28,61064,1,2,0:0:0:0:
252,160,61380,1,8,0:0:0:0:
144,164,61695,1,2,0:0:0:0:
237,264,62011,2,0,P|200:291|176:339,1,91.5000034904481,2|8,0:0|0:0,0:0:0:0:
361,262,62643,2,0,P|353:213|324:178,1,91.5000034904481,8|0,0:0|0:0,0:0:0:0:
304,344,63274,6,0,L|452:344,1,137.250005235672,8|8,0:0|0:0,0:0:0:0:
460,332,63906,2,0,P|484:292|476:236,1,91.5000034904481,8|0,0:0|0:0,0:0:0:0:
436,136,64538,2,0,L|392:164,1,45.7500017452241,0|8,0:0|0:0,0:0:0:0:
372,156,64853,2,0,L|328:184,1,45.7500017452241,0|8,0:0|0:0,0:0:0:0:
304,172,65169,2,0,P|284:216|288:268,1,91.5000034904481,8|0,0:0|0:0,0:0:0:0:
396,236,65801,5,4,0:0:0:0:
320,88,66117,1,2,0:0:0:0:
232,228,66432,1,8,0:0:0:0:
396,236,66748,1,2,0:0:0:0:
292,164,67064,6,0,P|248:148|200:152,1,91.5000034904481,2|8,0:0|0:0,0:0:0:0:
60,236,67695,2,0,P|104:252|152:248,1,91.5000034904481,8|0,0:0|0:0,0:0:0:0:
256,236,68327,6,0,P|276:284|252:368,2,137.250005235672,8|8|8,0:0|0:0|0:0,0:0:0:0:
188,152,69590,2,0,L|84:164,1,91.5000034904481
152,56,70222,2,0,L|256:44,1,91.5000034904481,8|0,0:0|0:0,0:0:0:0:
396,48,70853,6,0,P|428:88|424:176,1,137.250005235672,4|0,0:0|0:0,0:0:0:0:
408,188,71485,2,0,L|312:168,1,91.5000034904481,8|0,0:0|0:0,0:0:0:0:
200,268,72117,2,0,L|296:248,1,91.5000034904481,0|8,0:0|0:0,0:0:0:0:
400,268,72748,2,0,P|412:316|388:360,1,91.5000034904481,8|0,0:0|0:0,0:0:0:0:
200,268,73380,5,8,0:0:0:0:
264,168,73695,1,10,0:0:0:0:
264,168,73853,1,8,0:0:0:0:
264,168,74011,2,0,L|360:152,1,91.5000034904481,8|2,0:0|0:0,0:0:0:0:
200,268,74643,2,0,P|156:232|144:196,1,91.5000034904481,8|2,0:0|0:0,0:0:0:0:
140,36,75274,2,0,P|184:72|196:104,1,91.5000034904481,8|0,0:0|0:0,0:0:0:0:
80,140,75906,6,0,L|36:228,1,91.5000034904481,4|0,0:0|0:0,0:0:0:0:
104,360,76538,2,0,L|148:272,1,91.5000034904481,8|0,0:0|0:0,0:0:0:0:
228,204,77169,1,8,0:0:0:0:
228,204,77485,1,0,0:0:0:0:
328,252,77801,1,8,0:0:0:0:
328,252,78117,1,0,0:0:0:0:
312,136,78432,6,0,P|356:140|404:120,1,91.5000034904481,8|10,0:0|0:0,0:0:0:0:
504,248,79064,2,0,P|460:244|412:264,1,91.5000034904481,0|10,0:0|0:0,0:0:0:0:
340,340,79695,1,10,0:0:0:0:
244,284,80011,1,0,0:0:0:0:
144,332,80327,1,10,0:0:0:0:
48,276,80643,1,0,0:0:0:0:
140,216,80959,6,0,P|168:176|176:132,1,91.5000034904481,4|8,0:0|0:0,0:0:0:0:
88,28,81590,2,0,P|60:68|52:112,1,91.5000034904481,8|0,0:0|0:0,0:0:0:0:
172,60,82222,2,0,L|264:60,1,91.5000034904481,8|0,0:0|0:0,0:0:0:0:
448,108,82853,2,0,L|356:108,1,91.5000034904481,8|0,0:0|0:0,0:0:0:0:
244,144,83485,6,0,P|232:196|276:276,1,137.250005235672,8|10,0:0|0:0,0:0:0:0:
292,272,84117,2,0,L|388:252,1,91.5000034904481,8|0,0:0|0:0,0:0:0:0:
336,148,84748,1,2,0:0:0:0:
336,148,84906,1,8,0:0:0:0:
336,148,85064,1,8,0:0:0:0:
448,188,85380,2,0,P|473:229|472:277,1,91.5000034904481,10|0,0:0|0:0,0:0:0:0:
352,264,86011,6,0,P|296:268|248:328,1,137.250005235672,4|8,0:0|0:0,0:0:0:0:
252,348,86643,2,0,L|144:316,1,91.5000034904481,8|0,0:0|0:0,0:0:0:0:
32,192,87274,2,0,L|140:224,1,91.5000034904481,8|0,0:0|0:0,0:0:0:0:
216,164,87906,2,0,L|324:196,1,91.5000034904481,8|0,0:0|0:0,0:0:0:0:
408,156,88538,6,0,P|440:112|432:24,2,137.250005235672,8|10|10,0:0|0:0|0:0,0:0:0:0:
320,76,89801,2,0,L|272:88,1,45.7500017452241,0|10,0:0|0:0,0:0:0:0:
260,80,90117,2,0,P|240:132|201:156,1,91.5000034904481,8|10,0:0|0:0,0:0:0:0:
56,136,90748,1,8,0:0:0:0:
136,48,91064,6,0,P|172:92|168:184,1,137.250005235672,4|8,0:0|0:0,0:0:0:0:
160,188,91695,2,0,P|136:224|136:280,1,91.5000034904481,8|0,0:0|0:0,0:0:0:0:
308,248,92327,2,0,L|408:280,1,91.5000034904481,8|0,0:0|0:0,0:0:0:0:
248,360,92959,2,0,P|215:317|211:272,1,91.5000034904481,8|0,0:0|0:0,0:0:0:0:
256,176,93590,5,8,0:0:0:0:
444,80,94064,1,8,0:0:0:0:
444,80,94222,2,0,L|352:40,1,91.5000034904481,10|0,0:0|0:0,0:0:0:0:
256,80,94853,2,0,L|204:92,1,45.7500017452241,0|10,0:0|0:0,0:0:0:0:
184,64,95169,2,0,L|132:76,1,45.7500017452241,8|0,0:0|0:0,0:0:0:0:
104,60,95485,2,0,P|76:108|76:152,1,91.5000034904481,10|0,0:0|0:0,0:0:0:0:
196,200,96117,6,0,P|196:252|112:348,1,183.000006980896,4|8,0:0|0:0,0:0:0:0:
68,228,97064,1,0,0:0:0:0:
168,124,97380,2,0,P|220:124|264:148,1,91.5000034904481,8|0,0:0|0:0,0:0:0:0:
332,220,98011,2,0,P|376:240|432:236,1,91.5000034904481,8|0,0:0|0:0,0:0:0:0:
504,168,98643,5,8,0:0:0:0:
444,76,98959,1,2,0:0:0:0:
444,76,99117,1,8,0:0:0:0:
444,76,99274,1,8,0:0:0:0:
340,108,99590,1,10,0:0:0:0:
256,36,99906,1,8,0:0:0:0:
192,128,100222,1,0,0:0:0:0:
252,220,100538,1,10,0:0:0:0:
188,312,100853,1,0,0:0:0:0:
84,284,101169,6,0,L|164:228,1,91.5000034904481,4|8,0:0|0:0,0:0:0:0:
152,112,101801,2,0,L|72:168,1,91.5000034904481,0|8,0:0|0:0,0:0:0:0:
232,184,102432,2,0,P|288:204|332:196,1,91.5000034904481,8|0,0:0|0:0,0:0:0:0:
488,172,103064,2,0,P|432:152|388:160,1,91.5000034904481,8|0,0:0|0:0,0:0:0:0:
336,68,103695,6,0,P|272:104|208:100,1,137.250005235672,8|8,0:0|0:0,0:0:0:0:
192,80,104327,1,10,0:0:0:0:
240,200,104643,1,8,0:0:0:0:
104,156,104959,2,0,L|56:144,1,45.7500017452241,0|10,0:0|0:0,0:0:0:0:
84,196,105274,2,0,L|36:204,1,45.7500017452241,8|0,0:0|0:0,0:0:0:0:
88,232,105590,2,0,P|128:231|185:260,1,91.5000034904481,10|0,0:0|0:0,0:0:0:0:
264,316,106222,6,0,P|312:348|352:352,1,91.5000034904481,4|0,0:0|0:0,0:0:0:0:
452,336,106853,1,8,0:0:0:0:
492,232,107169,1,0,0:0:0:0:
432,140,107485,1,8,0:0:0:0:
432,140,107643,1,8,0:0:0:0:
432,140,107801,1,8,0:0:0:0:
320,92,108117,2,0,L|228:112,1,91.5000034904481,8|8,0:0|0:0,0:0:0:0:
96,184,108748,6,0,P|152:188|192:216,1,91.5000034904481,8|2,0:0|0:0,0:0:0:0:
340,208,109380,2,0,P|286:226|255:263,1,91.5000034904481,8|2,0:0|0:0,0:0:0:0:
220,352,110011,1,8,0:0:0:0:
220,352,110169,1,10,0:0:0:0:
220,352,110327,1,8,0:0:0:0:
104,288,110643,2,0,P|68:248|62:194,1,91.5000034904481,10|0,0:0|0:0,0:0:0:0:
136,116,111274,6,0,P|160:68|244:44,1,137.250005235672,4|8,0:0|0:0,0:0:0:0:
252,52,111906,2,0,L|344:72,1,91.5000034904481,8|0,0:0|0:0,0:0:0:0:
488,132,112538,2,0,L|388:156,1,91.5000034904481,8|0,0:0|0:0,0:0:0:0:
379,261,113169,2,0,L|468:240,1,91.5000034904481,8|0,0:0|0:0,0:0:0:0:
300,188,113801,5,8,0:0:0:0:
192,216,114117,1,2,0:0:0:0:
192,216,114274,1,8,0:0:0:0:
192,216,114432,2,0,P|168:268|176:308,1,91.5000034904481,8|2,0:0|0:0,0:0:0:0:
288,360,115064,2,0,P|312:308|304:268,1,91.5000034904481,8|0,0:0|0:0,0:0:0:0:
268,172,115695,2,0,P|263:139|287:87,1,91.5000034904481,10|0,0:0|0:0,0:0:0:0:
384,32,116327,5,4,0:0:0:0:
460,260,116959,1,8,0:0:0:0:
500,160,117274,1,0,0:0:0:0:
448,64,117590,2,0,P|404:40|360:40,1,91.5000034904481,8|0,0:0|0:0,0:0:0:0:
200,64,118222,2,0,P|244:88|288:88,1,91.5000034904481,8|8,0:0|0:0,0:0:0:0:
376,148,118853,5,8,0:0:0:0:
324,244,119169,1,0,0:0:0:0:
324,244,119327,1,10,0:0:0:0:
324,244,119485,1,8,0:0:0:0:
216,260,119801,1,2,0:0:0:0:
124,204,120117,6,0,L|160:168,1,45.7500017452241,0|10,0:0|0:0,0:0:0:0:
104,152,120432,2,0,L|140:116,1,45.7500017452241,8|0,0:0|0:0,0:0:0:0:
160,88,120748,1,2,0:0:0:0:
184,112,120906,1,8,0:0:0:0:
216,120,121064,1,0,0:0:0:0:
248,120,121222,1,10,0:0:0:0:
280,112,121380,1,4,0:0:0:0:
