osu file format v14

[General]
AudioFilename: -insturmental version- Otokaze.mp3
AudioLeadIn: 2000
PreviewTime: 10222
Countdown: 0
SampleSet: Soft
StackLeniency: 0.3
Mode: 0
LetterboxInBreaks: 0
WidescreenStoryboard: 0

[Editor]
DistanceSpacing: 1.5
BeatDivisor: 4
GridSize: 4
TimelineZoom: 0.7999997

[Metadata]
Title:Amamichi
TitleUnicode:雨道 -amamichi-
Artist:Otokaze
ArtistUnicode:Otokaze
Creator:UnLock-
Version:Normal
Source:
Tags:rain road insturmental bbj0920 Sangzin
BeatmapID:757807
BeatmapSetID:323010

[Difficulty]
HPDrainRate:2
CircleSize:3
OverallDifficulty:3
ApproachRate:4
SliderMultiplier:1.3
SliderTickRate:2

[Events]
//Background and Video events
0,0,"BG.jpg",0,0
//Break Periods
2,30708,34241
//Storyboard Layer 0 (Background)
//Storyboard Layer 1 (Fail)
//Storyboard Layer 2 (Pass)
//Storyboard Layer 3 (Foreground)
//Storyboard Sound Samples

[TimingPoints]
193,631.578947368421,4,2,1,45,1,0
10298,-100,4,2,2,60,0,0
10456,-100,4,2,4,60,0,0
10771,-100,4,2,1,60,0,0
12982,-100,4,2,4,60,0,0
13298,-100,4,2,1,60,0,0
15508,-100,4,2,4,60,0,0
15824,-100,4,2,1,60,0,0
18035,-100,4,1,1,60,0,0
18350,-100,4,2,1,60,0,0
19298,-100,4,1,1,60,0,0
19614,-100,4,2,1,60,0,0
20403,-100,4,2,2,60,0,0
20561,-100,4,2,4,60,0,0
20877,-100,4,2,1,60,0,0
23087,-100,4,2,4,60,0,0
23403,-100,4,2,1,60,0,0
25614,-100,4,2,4,60,0,0
25929,-100,4,2,1,60,0,0
28140,-100,4,2,4,60,0,0
28456,-100,4,2,1,60,0,0
30508,-100,4,2,1,40,0,0
35561,-100,4,2,1,50,0,0
35719,-100,4,2,4,50,0,0
36035,-100,4,2,1,50,0,0
38245,-100,4,1,1,50,0,0
38561,-100,4,2,1,50,0,0
39508,-100,4,1,1,50,0,0
39824,-100,4,2,1,50,0,0
40771,-100,4,2,4,50,0,0
41087,-100,4,2,1,50,0,0
43298,-100,4,2,4,50,0,0
43614,-100,4,2,1,50,0,0
45666,-100,4,2,1,60,0,0
45824,-100,4,2,4,60,0,0
46140,-100,4,2,1,60,0,0
48193,-100,4,2,1,30,0,0
50719,-100,4,2,2,75,0,0
50877,-100,4,2,1,60,0,0
52140,-100,4,2,4,60,0,0
52456,-100,4,2,1,60,0,0
54666,-100,4,2,4,60,0,0
54982,-100,4,2,1,60,0,0
55929,-100,4,2,4,60,0,0
56245,-100,4,2,1,60,0,0
56561,-100,4,2,4,60,0,0
56877,-100,4,2,1,60,0,0
62245,-100,4,2,4,60,0,0
62561,-100,4,2,1,60,0,0
63508,-100,4,2,4,60,0,0
63824,-100,4,2,1,60,0,0
66035,-100,4,2,4,60,0,0
66350,-100,4,2,1,60,0,0
68403,-100,4,2,1,70,0,0
70298,-100,4,2,1,75,0,0
70929,-100,4,2,2,80,0,1
71087,-100,4,2,4,80,0,1
71403,-100,4,2,1,80,0,1
73614,-100,4,2,4,80,0,1
73929,-100,4,2,1,80,0,1
76140,-100,4,2,4,80,0,1
76456,-100,4,2,1,80,0,1
78666,-100,4,1,1,80,0,1
78982,-100,4,2,1,80,0,1
79929,-100,4,1,1,80,0,1
80245,-100,4,2,1,80,0,1
81035,-100,4,2,2,80,0,1
81271,-100,4,2,1,80,0,1
83719,-100,4,2,4,80,0,1
84035,-100,4,2,1,80,0,1
84350,-100,4,2,4,80,0,1
84666,-100,4,2,1,80,0,1
86245,-100,4,2,4,80,0,1
86561,-100,4,2,1,80,0,1
91140,-100,4,2,2,80,0,1
91298,-100,4,2,4,80,0,1
91614,-100,4,2,1,80,0,1
91929,-100,4,2,4,80,0,1
92245,-100,4,2,1,80,0,1
93824,-100,4,2,4,80,0,1
94140,-100,4,2,1,80,0,1
94456,-100,4,2,4,80,0,1
94771,-100,4,2,1,80,0,1
96350,-100,4,2,4,80,0,1
96666,-100,4,2,1,80,0,1
98877,-100,4,1,1,80,0,1
99192,-100,4,2,1,80,0,1
100140,-100,4,1,1,80,0,1
100456,-100,4,2,1,80,0,1
101245,-100,4,2,2,80,0,1
101403,-100,4,2,1,80,0,1
102666,-100,4,2,4,80,0,1
102982,-100,4,2,1,80,0,1
106456,-100,4,2,4,80,0,1
106771,-100,4,2,1,80,0,1
111350,-100,4,2,2,60,0,1
111508,-100,4,2,4,60,0,1
111824,-100,4,2,1,60,0,1
112771,-100,4,2,4,60,0,1
113087,-100,4,2,1,60,0,1
113877,-100,4,2,2,60,0,1
114035,-100,4,2,4,60,0,1
114350,-100,4,2,1,60,0,1
115298,-100,4,2,4,60,0,1
115614,-100,4,2,1,60,0,1
116403,-100,4,2,2,60,0,1
116561,-100,4,2,4,60,0,1
116877,-100,4,2,1,60,0,1
117824,-100,4,2,4,60,0,1
118140,-100,4,2,1,60,0,1
121456,-100,4,2,3,60,0,0

[Colours]
Combo1 : 251,140,220
Combo2 : 45,247,181
Combo3 : 164,115,253
Combo4 : 0,191,191
SliderBorder : 255,255,255

[HitObjects]
251,103,193,6,0,P|193:131|131:117,2,130,0|0|0,2:0|0:0|0:0,0:0:0:0:
320,36,1771,1,0,0:0:0:0:
416,36,2087,1,4,0:0:0:0:
424,232,2719,6,0,L|444:312,2,65,0|0|0,0:0|0:0|0:0,0:0:0:0:
332,200,3666,1,0,0:0:0:0:
260,264,3982,2,0,L|280:344,2,65,0|0|4,0:0|0:0|0:0,0:0:0:0:
84,176,5245,6,0,P|98:238|86:302,2,130,0|0|0,0:0|0:0|0:0,0:0:0:0:
28,95,6824,1,0,0:0:0:0:
124,83,7140,1,4,0:0:0:0:
316,51,7771,6,0,L|380:41,2,65
220,67,8719,1,0,0:0:0:0:
124,83,9035,2,0,P|117:114|121:146,1,65,0|0,0:0|0:0,0:0:0:0:
192,215,9666,2,0,P|198:246|194:278,1,65,4|0,0:0|0:0,0:0:0:0:
144,364,10298,6,0,P|232:336|296:356,1,130,4|10,0:0|0:0,0:0:0:0:
364,364,11245,1,0,0:0:0:0:
460,344,11561,2,0,L|456:268,1,65,8|8,0:0|0:0,0:0:0:0:
472,184,12192,1,10,0:0:0:0:
327,52,12824,6,0,P|273:86|209:89,1,130,8|10,0:0|0:0,0:0:0:0:
116,52,13771,1,8,0:0:0:0:
24,88,14087,2,0,L|32:152,1,65,8|8,0:0|0:0,0:0:0:0:
128,164,14719,2,0,L|120:228,1,65,10|8,0:0|0:0,0:0:0:0:
64,307,15350,6,0,P|123:285|183:306,1,130,8|10,0:0|0:0,0:0:0:0:
260,368,16298,1,8,0:0:0:0:
348,328,16614,2,0,B|353:297|353:297|348:264,1,65,8|8,0:0|0:0,0:0:0:0:
280,196,17245,2,0,B|274:165|274:165|280:132,1,65,10|8,0:0|0:0,0:0:0:0:
336,52,17877,6,0,P|277:78|215:65,1,130,2|2,0:1|0:1,0:0:0:0:
60,180,19140,2,0,P|118:153|180:166,1,130,2|2,0:1|0:1,0:0:0:0:
356,256,20403,6,0,P|336:168|364:128,1,130,4|2,0:0|0:0,0:0:0:0:
432,80,21350,1,8,0:0:0:0:
344,40,21666,2,0,L|260:40,1,65,8|8,0:0|0:0,0:0:0:0:
208,108,22298,2,0,L|124:108,1,65,2|8,0:0|0:0,0:0:0:0:
64,52,22929,6,0,P|87:111|76:175,1,130,8|10,0:0|0:0,0:0:0:0:
44,268,23877,1,8,0:0:0:0:
140,248,24193,2,0,L|205:248,1,65,8|8,0:0|0:0,0:0:0:0:
296,280,24824,1,10,0:0:0:0:
488,264,25456,6,0,P|465:203|469:139,1,130,8|10,0:0|0:0,0:0:0:0:
500,48,26403,1,8,0:0:0:0:
404,68,26719,2,0,L|332:60,1,65,8|8,0:0|0:0,0:0:0:0:
252,16,27350,1,10,0:0:0:0:
160,48,27666,1,8,0:0:0:0:
68,80,27982,6,0,P|85:143|68:205,1,130,8|10,0:0|0:0,0:0:0:0:
96,296,28929,1,8,0:0:0:0:
188,324,29245,2,0,B|219:328|219:328|251:324,1,65,8|8,0:0|0:0,0:0:0:0:
344,288,29877,2,0,B|375:283|375:283|407:288,1,65,10|8,0:0|0:0,0:0:0:0:
500,320,30508,1,4,0:0:0:0:
287,64,35561,6,0,P|266:124|282:186,1,130,8|10,0:0|0:0,0:0:0:0:
368,236,36508,1,8,0:0:0:0:
448,179,36824,2,0,P|452:147|448:115,2,65,8|8|10,0:0|0:0|0:0,0:0:0:0:
456,276,37771,1,8,0:0:0:0:
375,331,38087,6,0,P|316:308|254:324,1,130,2|2,0:1|0:1,0:0:0:0:
68,272,39350,2,0,P|127:248|189:264,1,130,2|2,0:1|0:1,0:0:0:0:
375,331,40614,6,0,L|387:179,1,130,4|10,0:0|0:0,0:0:0:0:
440,120,41561,1,8,0:0:0:0:
344,108,41877,2,0,L|282:86,1,65,8|8,0:0|0:0,0:0:0:0:
208,20,42508,1,10,0:0:0:0:
24,88,43140,6,0,P|52:160|40:220,1,130,8|10,0:0|0:0,0:0:0:0:
8,300,44087,1,0,0:0:0:0:
100,332,44403,2,0,L|164:364,2,65,8|8|10,0:0|0:0|0:0,0:0:0:0:
172,148,45666,6,0,P|236:157|299:144,1,130,8|10,0:0|0:0,0:0:0:0:
388,104,46614,1,8,0:0:0:0:
456,36,46929,2,0,P|476:64|484:100,1,65,8|8,0:0|0:0,0:0:0:0:
456,188,47561,2,0,P|434:211|424:242,1,65,10|8,0:0|0:0,0:0:0:0:
360,316,48193,6,0,B|396:340|396:340|456:340,2,97.5,8|0|8,0:0|0:0|0:0,0:0:0:0:
320,228,49456,2,0,P|259:207|236:212,1,65,8|8,0:0|0:0,0:0:0:0:
176,256,50087,1,2,0:1:0:0:
112,332,50403,1,2,0:1:0:0:
24,296,50719,6,0,B|12:264|12:264|12:233,1,65,4|8,0:0|0:0,0:0:0:0:
76,160,51350,2,0,B|88:128|88:128|88:97,1,65,10|8,0:0|0:0,0:0:0:0:
40,12,51982,2,0,P|92:40|166:34,1,130,8|10,0:0|0:0,0:0:0:0:
256,12,52929,1,8,0:0:0:0:
348,44,53245,6,0,L|360:124,1,65,8|8,0:0|0:0,0:0:0:0:
452,132,53877,2,0,L|440:212,1,65,10|8,0:0|0:0,0:0:0:0:
496,276,54508,2,0,P|435:257|371:264,1,130,8|10,0:0|0:0,0:0:0:0:
276,292,55456,1,8,0:0:0:0:
183,263,55771,6,0,P|120:255|58:275,2,130,8|10|8,0:0|0:0|0:0,0:0:0:0:
276,292,57350,1,8,0:0:0:0:
370,264,57666,2,0,L|393:203,1,65,10|8,0:0|0:0,0:0:0:0:
460,132,58298,5,2,0:1:0:0:
363,110,58614,1,2,0:1:0:0:
429,39,58929,1,2,0:1:0:0:
293,178,59561,5,2,0:1:0:0:
227,249,59876,1,2,0:1:0:0:
324,270,60192,1,2,0:1:0:0:
132,232,60824,6,0,L|132:329,2,65,4|8|10,0:0|0:0|0:0,0:0:0:0:
76,152,61771,1,8,0:0:0:0:
116,64,62087,2,0,P|171:97|235:102,1,130,8|10,0:0|0:0,0:0:0:0:
332,84,63035,1,8,0:0:0:0:
428,64,63350,6,0,P|415:127|428:204,1,130,8|10,0:0|0:0,0:0:0:0:
484,268,64298,1,8,0:0:0:0:
420,344,64614,2,0,L|340:336,1,65,8|8,0:0|0:0,0:0:0:0:
256,336,65245,2,0,L|191:342,1,65,10|8,0:0|0:0,0:0:0:0:
92,348,65877,6,0,P|112:256|96:204,1,130,8|10,0:0|0:0,0:0:0:0:
64,136,66824,1,8,0:0:0:0:
112,52,67140,2,0,L|204:44,1,65,8|8,0:0|0:0,0:0:0:0:
276,48,67771,2,0,L|340:53,1,65,10|8,0:0|0:0,0:0:0:0:
428,96,68403,5,2,0:1:0:0:
408,296,70298,2,0,L|332:304,1,65,2|2,0:1|0:1,0:0:0:0:
248,328,70929,6,0,P|256:236|228:188,1,130,4|10,0:0|0:0,0:0:0:0:
184,124,71877,1,8,0:0:0:0:
256,60,72192,2,0,L|328:72,2,65,8|8|10,0:0|0:0|0:0,0:0:0:0:
164,28,73140,1,8,0:0:0:0:
72,64,73456,6,0,P|88:126|77:189,1,130,8|10,0:0|0:0,0:0:0:0:
40,280,74403,1,8,0:0:0:0:
136,268,74719,2,0,L|216:284,1,65,8|8,2:0|0:0,0:0:0:0:
280,336,75350,1,10,0:0:0:0:
356,276,75666,1,8,0:0:0:0:
452,300,75982,6,0,P|432:212|456:160,1,130,12|10,0:0|0:0,0:0:0:0:
484,88,76929,1,8,0:0:0:0:
388,96,77245,2,0,L|323:92,1,65,8|8,0:0|0:0,0:0:0:0:
232,56,77877,1,10,0:0:0:0:
136,76,78192,1,8,0:0:0:0:
40,96,78508,6,0,L|40:256,1,130,2|2,0:1|0:1,0:0:0:0:
196,340,79771,2,0,L|196:210,1,130,2|2,0:1|0:1,0:0:0:0:
276,152,80719,1,0,0:0:0:0:
372,156,81035,6,0,P|376:188|368:224,2,65,4|8|2,0:0|0:0|0:0,0:0:0:0:
372,60,81982,1,8,0:0:0:0:
276,36,82298,1,8,0:0:0:0:
180,40,82614,1,8,0:0:0:0:
88,72,82929,2,0,P|82:104|90:136,1,65,10|8,0:0|0:0,0:0:0:0:
112,228,83561,6,0,P|94:293|48:348,2,130,8|10|8,0:0|0:0|0:0,0:0:0:0:
180,156,85140,1,8,0:0:0:0:
268,196,85456,2,0,L|352:196,1,65,10|8,0:0|0:0,0:0:0:0:
416,248,86087,6,0,P|396:152|412:116,1,130,4|10,0:0|0:0,0:0:0:0:
472,52,87035,1,8,0:0:0:0:
376,32,87350,2,0,L|300:32,1,65,8|8,0:0|0:0,0:0:0:0:
232,88,87982,2,0,L|156:88,1,65,10|8,0:0|0:0,0:0:0:0:
72,68,88614,5,8,0:0:0:0:
100,160,88929,1,8,0:0:0:0:
4,144,89245,1,10,0:0:0:0:
196,172,89877,5,8,0:0:0:0:
292,188,90192,1,8,0:0:0:0:
224,264,90508,1,10,0:0:0:0:
352,116,91140,6,0,P|400:184|464:216,2,130,4|10|8,0:0|0:0|0:0,0:0:0:0:
276,52,92719,1,8,0:0:0:0:
180,72,93035,1,10,0:0:0:0:
80,240,93666,6,0,P|72:152|48:104,2,130,8|10|8,0:0|0:0|0:0,0:0:0:0:
44,332,95245,1,8,0:0:0:0:
140,320,95561,1,10,0:0:0:0:
332,292,96192,6,0,P|312:216|340:156,1,130,4|10,0:0|0:0,0:0:0:0:
392,96,97140,1,8,0:0:0:0:
295,75,97456,2,0,P|288:44|294:12,2,65,8|8|10,0:0|0:0|0:0,0:0:0:0:
236,152,98403,1,8,0:0:0:0:
156,96,98719,6,0,P|92:92|45:48,1,130,2|2,0:1|0:1,0:0:0:0:
155,208,99982,2,0,P|91:211|44:255,1,130,2|2,0:1|0:1,0:0:0:0:
228,319,101245,6,0,L|312:320,1,65,4|8,0:0|0:0,0:0:0:0:
384,356,101877,1,10,0:0:0:0:
368,260,102192,1,8,0:0:0:0:
355,163,102508,2,0,P|297:137|232:134,1,130,8|10,0:0|0:0,0:0:0:0:
136,160,103456,1,8,0:0:0:0:
60,100,103771,6,0,P|63:67|59:35,2,65,8|8|10,0:0|0:0|0:0,0:0:0:0:
44,196,104719,1,8,0:0:0:0:
28,292,105035,2,0,P|24:324|28:356,1,65,8|8,0:0|0:0,0:0:0:0:
124,356,105666,2,0,P|128:323|124:291,1,65,10|8,0:0|0:0,0:0:0:0:
116,196,106298,6,0,P|208:228|256:216,1,130,4|10,0:0|0:0,0:0:0:0:
324,176,107245,1,8,0:0:0:0:
376,260,107561,2,0,P|382:308|376:348,2,65,8|8|10,0:0|0:0|0:0,0:0:0:0:
460,208,108508,1,8,0:0:0:0:
476,112,108824,5,8,0:0:0:0:
288,64,109456,1,10,0:0:0:0:
112,148,110087,1,8,0:0:0:0:
84,340,110719,1,10,0:0:0:0:
264,264,111350,6,0,L|416:284,1,130,4|10,0:0|0:0,0:0:0:0:
480,232,112298,1,8,0:0:0:0:
408,164,112614,2,0,L|279:147,1,130,8|10,0:0|0:0,0:0:0:0:
112,244,113877,6,0,P|88:184|97:120,1,130,4|10,0:0|0:0,0:0:0:0:
168,51,114824,1,8,0:0:0:0:
252,103,115140,2,0,P|275:163|266:227,1,130,8|10,0:0|0:0,0:0:0:0:
72,240,116403,6,0,B|89:301|89:301|146:337,1,130,4|10,0:0|0:0,0:0:0:0:
240,360,117350,1,8,0:0:0:0:
333,333,117666,2,0,B|390:296|390:296|406:236,1,130,8|10,0:0|0:0,0:0:0:0:
255,111,118929,6,0,P|248:80|255:49,2,65,8|8|10,0:0|0:0|0:0,0:0:0:0:
336,164,119877,1,8,0:0:0:0:
255,216,120192,2,0,P|264:247|255:278,2,65,8|8|10,0:0|0:0|0:0,0:0:0:0:
172,164,121140,1,8,0:0:0:0:
256,112,121456,1,4,0:0:0:0:
