osu file format v14

[General]
AudioFilename: -insturmental version- Otokaze.mp3
AudioLeadIn: 2000
PreviewTime: 10222
Countdown: 0
SampleSet: Soft
StackLeniency: 0.3
Mode: 0
LetterboxInBreaks: 0
WidescreenStoryboard: 0

[Editor]
DistanceSpacing: 1.3
BeatDivisor: 4
GridSize: 4
TimelineZoom: 0.7999997

[Metadata]
Title:Amamichi
TitleUnicode:雨道 -amamichi-
Artist:Otokaze
ArtistUnicode:Otokaze
Creator:UnLock-
Version:Light Hard
Source:
Tags:rain road insturmental bbj0920 Sangzin
BeatmapID:854708
BeatmapSetID:323010

[Difficulty]
HPDrainRate:2
CircleSize:3.5
OverallDifficulty:3
ApproachRate:4
SliderMultiplier:1.4
SliderTickRate:2

[Events]
//Background and Video events
0,0,"BG.jpg",0,0
//Break Periods
2,30708,34241
//Storyboard Layer 0 (Background)
//Storyboard Layer 1 (Fail)
//Storyboard Layer 2 (Pass)
//Storyboard Layer 3 (Foreground)
//Storyboard Sound Samples

[TimingPoints]
193,631.578947368421,4,2,1,45,1,0
10298,-100,4,2,2,60,0,0
10456,-100,4,2,4,60,0,0
10771,-100,4,2,1,60,0,0
12982,-100,4,2,4,60,0,0
13298,-100,4,2,1,60,0,0
15508,-100,4,2,4,60,0,0
15824,-100,4,2,1,60,0,0
18035,-100,4,1,1,60,0,0
18350,-100,4,2,1,60,0,0
19298,-100,4,1,1,60,0,0
19614,-100,4,2,1,60,0,0
20403,-100,4,2,2,60,0,0
20561,-100,4,2,4,60,0,0
20877,-100,4,2,1,60,0,0
23087,-100,4,2,4,60,0,0
23403,-100,4,2,1,60,0,0
25614,-100,4,2,4,60,0,0
25929,-100,4,2,1,60,0,0
28140,-100,4,2,4,60,0,0
28456,-100,4,2,1,60,0,0
29403,-100,4,2,4,60,0,0
29719,-100,4,2,1,60,0,0
30508,-100,4,2,1,40,0,0
35561,-100,4,2,1,50,0,0
36982,-100,4,2,4,50,0,0
37298,-100,4,2,1,50,0,0
38324,-100,4,2,4,50,0,0
38482,-100,4,2,1,50,0,0
40771,-100,4,2,4,50,0,0
41087,-100,4,2,1,50,0,0
43298,-100,4,2,4,50,0,0
43614,-100,4,2,1,50,0,0
45666,-100,4,2,1,60,0,0
45824,-100,4,2,4,60,0,0
46140,-100,4,2,1,60,0,0
48193,-100,4,2,1,45,0,0
48429,-100,4,2,4,45,0,0
48587,-100,4,2,1,45,0,0
48745,-100,4,1,1,45,0,0
48903,-100,4,2,1,45,0,0
49614,-100,4,2,4,45,0,0
49929,-100,4,1,1,60,0,0
50719,-100,4,2,2,75,0,0
50877,-100,4,2,4,60,0,0
51193,-100,4,2,1,60,0,0
53403,-100,4,2,4,60,0,0
53719,-100,4,2,1,60,0,0
54666,-100,4,2,4,60,0,0
54982,-100,4,2,1,60,0,0
55929,-100,4,2,4,60,0,0
56245,-100,4,2,1,60,0,0
60982,-100,4,2,4,60,0,0
61298,-100,4,2,1,60,0,0
63508,-100,4,2,4,60,0,0
63824,-100,4,2,1,60,0,0
66035,-100,4,2,4,60,0,0
66350,-100,4,2,1,60,0,0
68403,-100,4,2,1,70,0,0
68561,-100,4,2,1,7,0,0
68877,-100,4,2,1,70,0,0
69192,-100,4,2,1,7,0,0
69508,-100,4,2,1,70,0,0
70298,-100,4,2,1,75,0,0
70929,-100,4,2,2,80,0,1
71087,-100,4,2,4,80,0,1
71403,-100,4,2,1,80,0,1
73614,-100,4,2,4,80,0,1
73929,-100,4,2,1,80,0,1
76140,-100,4,2,4,80,0,1
76456,-100,4,2,1,80,0,1
78666,-100,4,1,1,80,0,1
78982,-100,4,2,1,80,0,1
79929,-100,4,1,1,80,0,1
80245,-100,4,2,1,80,0,1
81035,-100,4,2,2,80,0,1
81192,-100,4,2,4,80,0,1
81508,-100,4,2,1,80,0,1
83719,-100,4,2,4,80,0,1
84035,-100,4,2,1,80,0,1
86245,-100,4,2,4,80,0,1
86561,-100,4,2,1,80,0,1
88771,-100,4,2,4,80,0,1
89087,-100,4,2,1,80,0,1
91140,-100,4,2,2,80,0,1
91298,-100,4,2,4,80,0,1
91614,-100,4,2,1,80,0,1
93824,-100,4,2,4,80,0,1
94140,-100,4,2,1,80,0,1
96350,-100,4,2,4,80,0,1
96666,-100,4,2,1,80,0,1
98877,-100,4,1,1,80,0,1
99192,-100,4,2,1,80,0,1
100140,-100,4,1,1,80,0,1
100456,-100,4,2,1,80,0,1
101245,-100,4,2,2,80,0,1
101403,-100,4,2,4,80,0,1
101719,-100,4,2,1,80,0,1
103929,-100,4,2,4,80,0,1
104245,-100,4,2,1,80,0,1
106456,-100,4,2,4,80,0,1
106771,-100,4,2,1,80,0,1
108982,-100,4,2,4,80,0,1
109298,-100,4,2,1,80,0,1
111350,-100,4,2,2,60,0,1
111508,-100,4,2,4,60,0,1
111824,-100,4,2,1,60,0,1
113877,-100,4,2,2,60,0,1
114035,-100,4,2,4,60,0,1
114350,-100,4,2,1,60,0,1
116403,-100,4,2,2,60,0,1
116561,-100,4,2,4,60,0,1
116877,-100,4,2,1,60,0,1
119087,-100,4,2,4,60,0,1
119403,-100,4,2,1,60,0,1
120350,-100,4,2,4,60,0,1
120666,-100,4,2,1,60,0,1
121456,-100,4,2,3,60,0,0

[Colours]
Combo1 : 251,140,220
Combo2 : 45,247,181
Combo3 : 164,115,253
Combo4 : 0,191,191
SliderBorder : 255,255,255

[HitObjects]
72,68,193,6,0,P|104:112|188:124,1,140,0|0,2:0|0:0,2:2:0:0:
276,108,1140,1,0,2:0:0:0:
364,84,1456,2,0,L|448:84,2,70,0|0|4,0:0|0:0|0:0,0:0:0:0:
364,84,2719,6,0,P|408:116|420:200,1,140,0|0,0:0|0:0,0:0:0:0:
372,276,3666,1,0,0:0:0:0:
280,288,3982,2,0,L|280:372,2,70,0|0|4,0:0|0:0|0:0,0:0:0:0:
280,288,5245,6,0,P|196:304|184:348,1,140,0|0,0:0|0:0,0:0:0:0:
92,360,6193,1,0,0:0:0:0:
52,280,6508,2,0,L|60:192,1,70,0|0,0:0|0:0,0:0:0:0:
24,124,7140,1,4,0:0:0:0:
24,124,7771,6,0,P|96:132|172:88,1,140,0|0,0:0|0:0,0:0:0:0:
232,56,8719,1,0,0:0:0:0:
324,48,9035,2,0,L|404:48,1,70
408,140,9666,2,0,L|338:140,1,70,4|0,0:0|0:0,0:0:0:0:
284,216,10298,6,0,P|234:169|167:178,1,140,4|10,0:0|0:0,0:0:0:0:
124,99,11245,1,0,0:0:0:0:
124,99,11561,2,0,P|97:121|80:156,1,70,8|8,0:0|0:0,0:0:0:0:
20,220,12192,2,0,P|46:242|64:277,1,70,10|8,0:0|0:0,0:0:0:0:
80,316,12666,1,0,0:0:0:0:
80,359,12824,6,0,P|146:339|215:346,1,140,0|10,0:0|0:0,0:0:0:0:
304,320,13771,1,8,0:0:0:0:
396,320,14087,2,0,P|404:353|425:381,2,70,8|8|10,0:0|0:0|0:0,0:0:0:0:
436,240,15035,1,0,0:0:0:0:
428,196,15192,1,0,0:0:0:0:
408,156,15350,6,0,P|340:208|276:192,1,140,8|10,0:0|0:0,0:0:0:0:
204,172,16298,1,8,0:0:0:0:
116,192,16614,2,0,L|112:268,1,70,8|8,0:0|0:0,0:0:0:0:
96,352,17245,1,10,0:0:0:0:
184,336,17561,1,8,0:0:0:0:
228,348,17719,1,0,0:0:0:0:
272,360,17877,6,0,P|344:328|408:352,1,140,2|2,0:1|0:1,0:0:0:0:
492,188,19140,2,0,P|420:220|356:196,1,140,2|2,0:1|0:1,0:0:0:0:
280,168,20087,1,8,0:0:0:0:
200,208,20403,6,0,P|168:136|188:68,1,140,4|2,0:0|0:0,0:0:0:0:
108,28,21350,1,8,0:0:0:0:
32,76,21666,2,0,P|33:113|56:156,1,70,8|8,0:0|0:0,0:0:0:0:
36,232,22298,2,0,P|53:261|60:296,1,70,2|8,0:0|0:0,0:0:0:0:
56,340,22771,1,0,0:0:0:0:
40,384,22929,6,0,B|108:360|108:360|175:360,1,140,8|10,0:0|0:0,0:0:0:0:
264,328,23877,1,8,0:0:0:0:
348,296,24193,2,0,L|348:368,2,70,8|8|2,0:0|0:0|0:0,0:0:0:0:
416,232,25140,1,8,0:0:0:0:
360,160,25456,6,0,P|288:204|228:180,1,140,8|10,0:0|0:0,0:0:0:0:
188,264,26403,1,8,0:0:0:0:
100,240,26719,2,0,L|100:168,1,70,8|8,0:0|0:0,0:0:0:0:
64,88,27350,1,10,0:0:0:0:
144,48,27666,1,8,0:0:0:0:
184,68,27824,1,0,0:0:0:0:
228,80,27982,6,0,L|384:80,1,140,8|10,0:0|0:0,0:0:0:0:
440,136,28929,1,8,0:0:0:0:
368,192,29245,2,0,L|228:192,1,140,8|10,0:0|0:0,0:0:0:0:
152,140,30193,1,8,0:0:0:0:
68,176,30508,5,4,0:0:0:0:
88,308,35561,5,8,0:0:0:0:
164,260,35877,1,8,0:0:0:0:
164,260,36193,2,0,L|248:256,1,70,10|8,0:0|0:0,0:0:0:0:
320,284,36824,2,0,P|304:200|340:148,1,140,8|10,0:0|0:0,0:0:0:0:
412,120,37771,1,8,0:0:0:0:
340,68,38087,6,0,P|260:48|224:64,1,105,8|8,0:0|0:0,0:0:0:0:
200,76,38719,2,0,P|166:85|132:77,1,70,2|8,0:0|0:0,0:0:0:0:
40,80,39350,2,0,L|16:40,2,35,8|8|8,0:0|0:0|0:0,0:0:0:0:
12,168,39982,2,0,P|15:202|29:234,1,70,2|8,0:0|0:0,0:0:0:0:
108,180,40614,6,0,P|188:172|236:228,1,140,4|10,0:0|0:0,0:0:0:0:
316,232,41561,1,8,0:0:0:0:
380,168,41877,2,0,P|372:129|392:96,1,70,8|8,0:0|0:0,0:0:0:0:
380,12,42508,2,0,L|308:28,1,70,10|8,0:0|0:0,0:0:0:0:
268,40,42982,1,0,0:0:0:0:
224,52,43140,6,0,P|152:44|96:92,1,140,8|8,0:0|0:0,0:0:0:0:
44,156,44087,1,8,0:0:0:0:
8,239,44403,2,0,P|1:274|9:308,2,70,8|8|10,0:0|0:0|0:0,0:0:0:0:
92,272,45350,1,8,0:0:0:0:
116,312,45508,1,0,0:0:0:0:
144,348,45666,6,0,B|164:336|196:336|196:336|241:347|281:336,1,140,8|10,0:0|0:0,0:0:0:0:
364,296,46614,1,8,0:0:0:0:
292,244,46929,2,0,L|292:156,1,70,8|8,0:0|0:0,0:0:0:0:
260,88,47561,1,10,0:0:0:0:
168,84,47877,1,8,0:0:0:0:
124,160,48193,6,0,B|132:184|124:212|124:212|116:240|124:264,2,105,2|0|8,0:1|0:0|0:0,0:0:0:0:
103,72,49456,2,0,P|171:81|212:136,1,140,2|2,0:1|0:1,0:0:0:0:
240,220,50403,1,2,0:1:0:0:
320,264,50719,6,0,B|348:252|348:220|348:220|348:134,1,140,4|10,0:0|0:0,0:0:0:0:
360,44,51666,1,8,0:0:0:0:
276,80,51982,2,0,L|204:112,1,70,8|8,0:0|0:0,0:0:0:0:
140,52,52614,2,0,L|105:122,1,70,10|8,0:0|0:0,0:0:0:0:
88,156,53087,1,0,0:0:0:0:
64,196,53245,6,0,P|44:252|56:336,1,140,8|10,0:0|0:0,0:0:0:0:
128,384,54193,1,8,0:0:0:0:
172,304,54508,2,0,P|240:276|308:296,1,140,8|10,0:0|0:0,0:0:0:0:
380,340,55456,1,8,0:0:0:0:
448,284,55771,6,0,B|448:180|448:180|428:148,1,140,8|10,0:0|0:0,0:0:0:0:
340,128,56719,1,8,0:0:0:0:
256,164,57035,2,0,B|256:200|256:200|244:232,1,70,8|8,0:0|0:0,0:0:0:0:
152,232,57666,2,0,B|140:200|140:200|140:164,1,70,10|8,0:0|0:0,0:0:0:0:
168,128,58140,1,0,0:0:0:0:
196,92,58298,5,2,0:1:0:0:
108,76,58614,1,2,0:1:0:0:
20,60,58929,2,0,L|20:136,1,70,2|8,0:1|0:0,0:0:0:0:
20,220,59561,1,2,0:1:0:0:
108,204,59877,1,2,0:1:0:0:
196,188,60192,2,0,L|196:264,1,70,2|8,0:1|0:0,0:0:0:0:
188,304,60666,1,0,0:0:0:0:
171,348,60824,6,0,P|237:326|305:340,1,140,4|10,0:0|0:0,0:0:0:0:
392,308,61771,1,8,0:0:0:0:
476,340,62087,2,0,L|476:264,1,70,8|8,0:0|0:0,0:0:0:0:
404,212,62719,2,0,L|404:136,1,70,10|8,0:0|0:0,0:0:0:0:
432,104,63193,1,0,0:0:0:0:
459,67,63350,6,0,P|400:32|333:42,1,140,8|10,0:0|0:0,0:0:0:0:
244,64,64298,1,8,0:0:0:0:
159,95,64614,2,0,P|170:129|168:163,1,70,8|8,0:0|0:0,0:0:0:0:
88,204,65245,2,0,P|85:238|96:271,1,70,10|8,0:0|0:0,0:0:0:0:
80,312,65719,1,0,0:0:0:0:
60,352,65877,6,0,P|127:362|183:323,1,140,8|10,0:0|0:0,0:0:0:0:
268,360,66824,1,8,0:0:0:0:
355,332,67140,2,0,P|368:299|370:264,1,70,8|8,0:0|0:0,0:0:0:0:
312,196,67771,2,0,P|299:163|297:128,1,70,10|8,0:0|0:0,0:0:0:0:
316,88,68245,1,0,0:0:0:0:
356,64,68403,6,0,B|384:48|420:64|420:64|460:80|492:64,2,140,2|2|2,0:1|0:1|0:1,0:0:0:0:
184,120,70298,1,2,0:1:0:0:
212,32,70614,1,2,0:1:0:0:
124,52,70929,6,0,B|85:68|85:104|85:104|85:173,1,140,4|10,0:0|0:0,0:0:0:0:
132,256,71877,1,8,0:0:0:0:
132,256,72192,2,0,B|144:292|144:292|144:324,1,70,8|8,0:0|0:0,0:0:0:0:
224,368,72824,2,0,B|224:335|224:335|236:299,1,70,10|8,0:0|0:0,0:0:0:0:
272,272,73298,1,0,0:0:0:0:
316,272,73456,6,0,P|284:204|316:140,1,140,8|10,0:0|0:0,0:0:0:0:
384,96,74403,1,8,0:0:0:0:
304,56,74719,2,0,P|269:57|235:68,1,70,8|8,2:0|0:0,2:2:0:0:
188,144,75350,2,0,P|153:142|119:131,1,70,10|8,0:0|0:0,0:0:0:0:
84,104,75824,1,8,0:0:0:0:
56,68,75982,6,0,L|56:208,1,140,12|10,0:0|0:0,0:0:0:0:
40,296,76929,1,8,0:0:0:0:
40,296,77245,2,0,P|80:284|120:296,1,70,8|8,0:0|0:0,0:0:0:0:
184,340,77877,2,0,P|224:352|264:340,1,70,10|8,0:0|0:0,0:0:0:0:
292,328,78350,1,0,0:0:0:0:
324,296,78508,6,0,P|300:232|320:148,1,140,2|2,0:1|0:1,0:0:0:0:
492,140,79771,2,0,P|516:204|496:288,1,140,2|2,0:1|0:1,0:0:0:0:
416,304,80719,1,0,0:0:0:0:
324,296,81035,6,0,P|259:275|176:292,1,140,4|10,0:0|0:0,0:0:0:0:
103,316,81982,1,8,0:0:0:0:
103,316,82298,2,0,P|113:282|106:248,1,70,8|8,0:0|0:0,0:0:0:0:
36,188,82929,2,0,P|26:154|33:120,1,70,10|8,0:0|0:0,0:0:0:0:
56,80,83403,1,0,0:0:0:0:
92,52,83561,6,0,L|248:52,1,140,8|10,0:0|0:0,0:0:0:0:
320,32,84508,1,8,0:0:0:0:
408,52,84824,2,0,B|416:86|416:86|411:120,1,70,8|8,0:0|0:0,0:0:0:0:
340,180,85456,2,0,B|331:214|331:214|336:248,1,70,10|8,0:0|0:0,0:0:0:0:
356,288,85929,1,8,0:0:0:0:
382,323,86087,6,0,P|322:355|253:345,1,140,4|10,0:0|0:0,0:0:0:0:
164,360,87035,1,8,0:0:0:0:
164,360,87350,2,0,L|164:290,1,70,8|8,0:0|0:0,0:0:0:0:
92,236,87982,2,0,L|92:166,1,70,10|8,0:0|0:0,0:0:0:0:
72,124,88456,1,0,0:0:0:0:
52,84,88614,6,0,P|136:120|196:108,1,140,8|10,0:0|0:0,0:0:0:0:
268,84,89561,1,8,0:0:0:0:
356,104,89877,2,0,L|356:28,2,70,8|8|10,0:0|0:0|0:0,0:0:0:0:
400,184,90824,1,8,0:0:0:0:
400,276,91140,6,0,P|316:252|264:304,1,140,4|10,0:0|0:0,0:0:0:0:
220,348,92087,1,8,0:0:0:0:
136,311,92403,2,0,P|127:345|134:379,2,70,8|8|2,0:0|0:0|0:0,0:0:0:0:
68,255,93350,1,8,0:0:0:0:
96,220,93508,1,0,0:0:0:0:
120,180,93666,6,0,P|187:201|255:188,1,140,8|10,0:0|0:0,0:0:0:0:
336,232,94614,1,8,0:0:0:0:
424,208,94929,2,0,P|428:242|415:274,2,70,8|8|10,0:0|0:0|0:0,0:0:0:0:
508,172,95877,1,8,0:0:0:0:
508,83,96192,6,0,P|453:40|384:38,1,140,4|10,0:0|0:0,0:0:0:0:
296,52,97140,1,8,0:0:0:0:
235,119,97456,2,0,P|241:154|237:189,1,70,8|8,0:0|0:0,0:0:0:0:
216,280,98087,1,2,0:0:0:0:
292,332,98403,1,8,0:0:0:0:
336,344,98561,1,0,0:0:0:0:
380,336,98719,6,0,L|380:196,1,140,2|2,0:1|0:1,0:0:0:0:
196,196,99982,2,0,L|196:336,1,140,2|2,0:1|0:1,0:0:0:0:
288,348,100929,1,8,0:0:0:0:
380,336,101245,6,0,P|361:269|376:201,1,140,4|10,0:0|0:0,0:0:0:0:
448,144,102192,1,8,0:0:0:0:
484,60,102508,2,0,P|450:51|416:58,1,70,8|8,0:0|0:0,0:0:0:0:
332,99,103140,2,0,P|298:108|264:101,1,70,10|8,0:0|0:0,0:0:0:0:
220,88,103614,1,0,0:0:0:0:
176,72,103771,6,0,P|204:164|172:204,1,140,8|10,0:0|0:0,0:0:0:0:
132,268,104719,1,8,0:0:0:0:
172,348,105035,2,0,P|206:358|256:352,1,70,8|8,0:0|0:0,0:0:0:0:
324,324,105666,2,0,P|358:322|392:332,1,70,2|8,0:0|0:0,0:0:0:0:
436,344,106140,1,8,0:0:0:0:
480,356,106298,6,0,P|448:280|464:204,1,140,4|10,0:0|0:0,0:0:0:0:
504,148,107245,1,8,0:0:0:0:
436,88,107561,2,0,P|423:55|428:21,1,70,8|8,0:0|0:0,0:0:0:0:
336,20,108192,2,0,P|341:54|328:86,1,70,10|8,0:0|0:0,0:0:0:0:
308,128,108666,1,0,0:0:0:0:
283,167,108824,6,0,P|239:115|244:47,1,140,8|10,0:0|0:0,0:0:0:0:
160,16,109771,1,8,0:0:0:0:
104,87,110087,2,0,P|106:122|119:155,1,70,8|8,0:0|0:0,0:0:0:0:
40,204,110719,2,0,P|56:234|63:268,1,70,10|8,0:0|0:0,0:0:0:0:
64,316,111192,1,8,0:0:0:0:
44,356,111350,6,0,P|104:323|169:342,1,140,4|10,0:0|0:0,0:0:0:0:
304,220,112614,2,0,L|304:148,1,70,8|8,0:0|0:0,0:0:0:0:
212,152,113245,2,0,L|212:222,1,70,10|8,0:0|0:0,0:0:0:0:
232,264,113719,1,0,0:0:0:0:
260,300,113877,6,0,P|316:268|400:300,1,140,4|10,0:0|0:0,0:0:0:0:
500,144,115140,2,0,L|500:74,1,70,8|8,0:0|0:0,0:0:0:0:
408,72,115771,2,0,L|408:142,1,70,10|8,0:0|0:0,0:0:0:0:
428,184,116245,1,0,0:0:0:0:
452,224,116403,6,0,P|396:192|312:224,1,140,4|10,0:0|0:0,0:0:0:0:
156,276,117666,2,0,L|226:276,1,70,8|8,0:0|0:0,0:0:0:0:
228,184,118298,2,0,L|158:184,1,70,10|8,0:0|0:0,0:0:0:0:
116,204,118771,1,0,0:0:0:0:
79,232,118929,6,0,P|116:173|119:104,1,140,8|10,0:0|0:0,0:0:0:0:
200,60,119877,1,0,0:0:0:0:
284,96,120192,2,0,P|286:165|323:223,1,140,8|8,0:0|0:0,0:0:0:0:
412,240,121140,1,8,0:0:0:0:
452,216,121298,1,0,0:0:0:0:
476,176,121456,5,4,0:0:0:0:
