osu file format v14

[General]
AudioFilename: Sea of Stars.mp3
AudioLeadIn: 0
PreviewTime: 38725
Countdown: 0
SampleSet: Soft
StackLeniency: 0.7
Mode: 0
LetterboxInBreaks: 1
WidescreenStoryboard: 1

[Editor]
DistanceSpacing: 1.1
BeatDivisor: 4
GridSize: 4
TimelineZoom: 1

[Metadata]
Title:NORNS
TitleUnicode:NORNS
Artist:Otoha Yuki
ArtistUnicode:音羽 雪
Creator:TicClick
Version:Normal
Source:Wadanohara and the Great Blue Sea
Tags:MIDI soundtrack OST 大海原と大海原 oounabara to wadanohara sea of stars (ノルン)ケルトの最高女神 amor kana 遊樹美夜
BeatmapID:710832
BeatmapSetID:319351

[Difficulty]
HPDrainRate:4
CircleSize:4
OverallDifficulty:4
ApproachRate:6
SliderMultiplier:1.5
SliderTickRate:2

[Events]
//Background and Video events
0,0,"asd.png",0,0
//Break Periods
//Storyboard Layer 0 (Background)
//Storyboard Layer 1 (Fail)
//Storyboard Layer 2 (Pass)
//Storyboard Layer 3 (Foreground)
//Storyboard Sound Samples

[TimingPoints]
1619,618.556701030928,3,2,1,20,1,0
4691,618.556701030928,3,2,1,20,1,0
5310,618.556701030928,3,2,1,20,1,0
5908,618.556701030928,3,2,1,20,1,0
7125,618.556701030928,3,2,1,20,1,0
8342,618.556701030928,3,2,1,20,1,0
8990,618.556701030928,3,2,1,20,1,0
10855,618.556701030928,3,2,1,20,1,0
12725,618.556701030928,3,2,1,20,1,0
16411,618.556701030928,3,2,1,20,1,0
16566,-100,3,2,2,25,0,0
16875,-100,3,2,2,40,0,0
18283,618.556701030928,3,2,2,40,1,0
18437,-100,3,2,2,25,0,0
18746,-100,3,2,2,40,0,0
22148,-100,3,2,2,25,0,0
22458,-100,3,2,2,40,0,0
26344,618.556701030928,3,2,2,40,1,0
27581,618.556701030928,3,2,2,40,1,0
38725,618.556701030928,3,2,2,40,1,0
55106,-125,3,2,2,30,0,0
60828,-125,3,2,2,15,0,0
61137,-125,3,2,2,30,0,0
75673,-125,3,2,2,15,0,0
75983,-125,3,2,2,30,0,0
79549,618.556701030928,3,2,2,30,1,0
79549,-125,3,2,2,30,0,0
84961,-166.666666666667,3,2,2,20,0,0
85270,-166.666666666667,3,2,2,30,0,0
85580,-166.666666666667,3,2,2,20,0,0
85889,-166.666666666667,3,2,2,30,0,0
86508,-166.666666666667,3,2,2,20,0,0
87126,-166.666666666667,3,2,2,30,0,0
87435,-166.666666666667,3,2,2,20,0,0
87745,-166.666666666667,3,2,2,30,0,0
88363,-166.666666666667,3,2,2,20,0,0
88673,-166.666666666667,3,2,2,30,0,0
89291,-166.666666666667,3,2,2,20,0,0
89600,-166.666666666667,3,2,2,30,0,0
90219,-166.666666666667,3,2,2,20,0,0
90837,-166.666666666667,3,2,2,30,0,0
91765,-166.666666666667,3,2,2,20,0,0
92075,-166.666666666667,3,2,2,30,0,0
92384,-166.666666666667,3,2,2,20,0,0
92693,-166.666666666667,3,2,2,30,0,0
93002,-166.666666666667,3,2,2,20,0,0
93312,-166.666666666667,3,2,2,30,0,0
93930,-166.666666666667,3,2,2,20,0,0
94549,-166.666666666667,3,2,2,30,0,0
94858,-166.666666666667,3,2,2,20,0,0
95167,-166.666666666667,3,2,2,30,0,0
95786,-166.666666666667,3,2,2,20,0,0
96260,618.556701030928,3,2,2,20,1,0
96260,-166.666666666667,3,2,2,30,0,0
96414,-166.666666666667,3,2,2,20,0,0
97033,-166.666666666667,3,2,2,30,0,0
97342,-166.666666666667,3,2,2,20,0,0
97651,-166.666666666667,3,2,2,30,0,0
97961,-166.666666666667,3,2,2,20,0,0
98270,-166.666666666667,3,2,2,30,0,0
98888,-166.666666666667,3,2,2,25,0,0
99507,-166.666666666667,3,2,2,30,0,0
100579,618.556701030928,3,2,2,30,1,0
100878,618.556701030928,3,2,2,30,1,0
101785,618.556701030928,3,2,2,40,1,0

[Colours]
Combo1 : 224,116,149
Combo2 : 115,202,171
Combo3 : 145,134,219
Combo4 : 165,206,220

[HitObjects]
480,252,8990,6,0,P|461:219|450:183,1,75,2|0,0:0|0:0,0:0:0:0:
460,100,9608,2,0,P|376:88|316:64,1,150,2|0,0:0|0:0,0:0:0:0:
140,80,10855,6,0,P|139:117|143:154,1,75,2|0,0:0|0:0,0:0:0:0:
220,180,11474,2,0,P|282:221|329:279,1,150,2|0,0:0|0:0,0:0:0:0:
356,116,12726,6,0,P|393:110|430:105,1,75,2|0,0:0|0:0,0:0:0:0:
484,172,13344,2,0,P|488:246|481:321,1,150,2|0,0:0|0:0,0:0:0:0:
320,348,14580,6,0,P|280:353|236:348,1,75,2|0,0:0|0:0,0:0:0:0:
164,324,15199,2,0,P|104:344|12:344,1,150,2|0,0:0|0:0,0:0:0:0:
36,188,16411,5,2,0:0:0:0:
116,200,16720,1,4,0:0:0:0:
199,196,17029,2,0,P|269:168|324:116,1,150,6|0,0:0|0:0,0:0:0:0:
404,124,17957,1,8,0:0:0:0:
455,187,18283,6,0,P|460:225|454:261,1,75,2|4,0:0|0:0,0:0:0:0:
448,344,18901,2,0,P|373:340|298:347,1,150,6|0,0:0|0:0,0:0:0:0:
220,368,19829,1,8,0:0:0:0:
140,348,20139,6,0,P|129:309|136:268,1,75,2|4,0:0|0:0,0:0:0:0:
175,204,20757,2,0,P|180:129|156:59,1,150,6|0,0:0|0:0,0:0:0:0:
224,8,21685,1,8,0:0:0:0:
300,40,21994,6,0,P|304:76|304:124,1,75,2|4,0:0|0:0,0:0:0:0:
264,187,22613,2,0,P|192:207|119:193,1,150,6|0,0:0|0:0,0:0:0:0:
56,140,23541,1,8,0:0:0:0:
4,196,23850,6,0,P|4:233|7:270,1,75,2|0,0:0|0:0,0:0:0:0:
67,324,24468,2,0,P|142:319|217:323,1,150,2|0,0:0|0:0,0:0:0:0:
300,308,25396,1,8,0:0:0:0:
336,232,25706,6,0,P|300:224|261:232,1,75,2|0,0:0|0:0,0:0:0:0:
231,155,26344,2,0,P|290:108|364:88,1,150,2|0,0:0|0:0,0:0:0:0:
444,104,27272,1,8,0:0:0:0:
432,184,27581,6,0,P|395:192|358:189,1,75,2|0,0:0|0:0,0:0:0:0:
380,267,28200,2,0,P|344:331|274:353,1,150,2|0,0:0|0:0,0:0:0:0:
200,312,29128,1,8,0:0:0:0:
188,232,29437,6,0,P|208:200|235:175,1,75,2|0,0:0|0:0,0:0:0:0:
228,92,30055,2,0,P|154:76|76:80,1,150,2|0,0:0|0:0,0:0:0:0:
24,16,30983,1,8,0:0:0:0:
0,96,31293,6,0,P|-4:132|1:170,1,75,2|0,0:0|0:0,0:0:0:0:
76,208,31911,2,0,P|136:251|167:318,1,150,2|0,0:0|0:0,0:0:0:0:
244,352,32839,1,8,0:0:0:0:
304,295,33148,6,0,P|299:258|285:224,1,75,2|0,0:0|0:0,0:0:0:0:
247,152,33767,2,0,P|299:98|369:73,1,150,2|0,0:0|0:0,0:0:0:0:
452,80,34695,1,8,0:0:0:0:
512,136,35004,5,2,0:0:0:0:
508,220,35313,1,0,0:0:0:0:
456,284,35622,1,2,0:0:0:0:
292,284,36241,1,2,0:0:0:0:
224,332,36550,1,8,0:0:0:0:
148,360,36860,6,0,P|48:264|124:148,1,300,2|0,0:0|0:0,0:0:0:0:
204,172,38406,1,8,0:0:0:0:
288,176,38725,6,0,P|325:176|362:169,1,75,2|0,0:0|0:0,0:0:0:0:
392,92,39344,2,0,P|321:84|244:104,1,150,2|0,0:0|0:0,0:0:0:0:
192,164,40272,1,8,0:0:0:0:
112,152,40581,6,0,P|87:125|70:92,1,75,2|0,0:0|0:0,0:0:0:0:
16,156,41199,2,0,P|22:231|18:306,1,150,2|0,0:0|0:0,0:0:0:0:
88,348,42127,1,8,0:0:0:0:
132,280,42437,6,0,P|169:276|206:277,1,75,2|0,0:0|0:0,0:0:0:0:
283,311,43055,2,0,P|357:312|410:262,1,150,2|0,0:0|0:0,0:0:0:0:
404,180,43983,1,8,0:0:0:0:
464,124,44292,6,0,P|460:86|444:53,1,75,2|0,0:0|0:0,0:0:0:0:
368,28,44911,2,0,P|293:36|218:39,1,150,2|0,0:0|0:0,0:0:0:0:
136,52,45839,1,8,0:0:0:0:
152,132,46148,6,0,P|189:128|225:120,1,75,2|0,0:0|0:0,0:0:0:0:
308,135,46766,2,0,P|316:212|312:285,1,150,2|0,0:0|0:0,0:0:0:0:
256,348,47694,1,8,0:0:0:0:
196,292,48004,6,0,P|188:256|184:216,1,75,2|0,0:0|0:0,0:0:0:0:
160,140,48622,2,0,P|86:140|28:186,1,150,2|0,0:0|0:0,0:0:0:0:
24,268,49550,1,8,0:0:0:0:
76,332,49859,5,2,0:0:0:0:
160,336,50169,1,0,0:0:0:0:
220,280,50478,1,2,0:0:0:0:
284,128,51096,1,2,0:0:0:0:
368,136,51406,1,8,0:0:0:0:
440,180,51715,6,0,P|464:317|337:373,1,300,2|0,0:0|0:0,0:0:0:0:
256,352,53261,1,8,0:0:0:0:
176,372,53571,2,0,P|48:316|72:179,1,300,2|0,0:0|0:0,0:0:0:0:
219,189,55426,6,0,P|248:181|275:167,1,60,2|0,0:0|0:0,0:0:0:0:
332,212,56045,2,0,P|386:186|431:148,1,120,2|8,0:0|0:0,0:0:0:0:
432,76,56973,1,2,0:0:0:0:
372,36,57282,2,0,P|340:36|312:44,1,60,2|0,0:0|0:0,0:0:0:0:
264,96,57900,2,0,P|212:107|144:108,1,120,2|8,0:0|0:0,0:0:0:0:
76,124,58828,1,2,0:0:0:0:
64,196,59138,5,0,0:0:0:0:
128,232,59447,1,2,0:0:0:0:
184,188,59756,1,2,0:0:0:0:
324,196,60375,1,2,0:0:0:0:
352,340,60993,5,4,0:0:0:0:
284,372,61303,1,2,0:0:0:0:
215,347,61612,2,0,P|204:320|203:290,1,60
236,228,62230,1,8,0:0:0:0:
128,132,62849,6,0,P|98:131|68:138,1,60,2|0,0:0|0:0,0:0:0:0:
20,192,63467,2,0,P|27:251|24:311,1,120,2|8,0:0|0:0,0:0:0:0:
84,348,64395,1,2,0:0:0:0:
148,312,64705,2,0,P|150:282|158:253,1,60,2|0,0:0|0:0,0:0:0:0:
228,248,65323,2,0,P|244:305|248:365,1,120,2|8,0:0|0:0,0:0:0:0:
320,380,66251,1,2,0:0:0:0:
392,364,66560,5,0,0:0:0:0:
384,292,66870,1,2,0:0:0:0:
392,220,67179,1,2,0:0:0:0:
304,104,67797,1,2,0:0:0:0:
411,8,68416,6,0,P|441:12|469:22,1,60,2|0,0:0|0:0,0:0:0:0:
500,88,69035,1,0,0:0:0:0:
492,160,69344,1,2,0:0:0:0:
436,208,69653,1,10,0:0:0:0:
364,212,69962,1,0,0:0:0:0:
300,176,70272,6,0,P|293:146|291:116,1,60,2|0,0:0|0:0,0:0:0:0:
219,132,70890,2,0,P|160:126|104:104,1,120,2|8,0:0|0:0,0:0:0:0:
48,152,71818,1,2,0:0:0:0:
52,224,72127,2,0,P|77:239|106:247,1,60,2|0,0:0|0:0,0:0:0:0:
180,240,72746,2,0,P|188:299|173:356,1,120,2|8,0:0|0:0,0:0:0:0:
104,368,73674,1,2,0:0:0:0:
40,332,73983,5,0,0:0:0:0:
40,260,74292,1,2,0:0:0:0:
104,224,74602,1,2,0:0:0:0:
192,108,75220,1,2,0:0:0:0:
68,32,75839,5,4,0:0:0:0:
24,88,76148,1,2,0:0:0:0:
27,159,76457,2,0,P|46:183|70:201,1,60
144,208,77076,1,8,0:0:0:0:
280,252,77694,6,0,P|287:280|288:310,1,60,2|0,0:0|0:0,0:0:0:0:
340,360,78313,2,0,P|399:361|453:337,1,120,2|8,0:0|0:0,0:0:0:0:
480,268,79241,1,2,0:0:0:0:
452,200,79549,2,0,P|451:170|455:140,1,60,2|0,0:0|0:0,0:0:0:0:
468,68,80167,2,0,P|409:67|352:49,1,120,2|8,0:0|0:0,0:0:0:0:
284,24,81095,1,2,0:0:0:0:
212,24,81404,5,0,0:0:0:0:
140,32,81713,1,2,0:0:0:0:
76,64,82023,2,0,P|76:90|72:124,1,60,2|0,0:0|0:0,0:0:0:0:
12,168,82641,2,0,P|9:195|12:232,1,60,2|0,0:0|0:0,0:0:0:0:
44,292,83260,6,0,P|145:351|264:332,1,240,2|8,0:0|0:0,0:0:0:0:
340,244,85116,6,0,P|346:224|350:197,1,44.999998626709,2|0,0:0|0:0,0:0:0:0:
348,140,85734,2,0,P|332:128|304:96,2,44.999998626709,2|0|0,0:0|0:0|0:0,0:0:0:0:
404,120,86662,1,2,0:0:0:0:
460,140,86971,2,0,P|469:160|472:182,1,44.999998626709,2|0,0:0|0:0,0:0:0:0:
456,240,87591,2,0,P|468:284|463:328,1,89.9999972534181,2|0,0:0|0:0,0:0:0:0:
408,352,88519,1,2,0:0:0:0:
352,344,88828,6,0,P|307:344|262:352,1,89.9999972534181,0|2,0:0|0:0,0:0:0:0:
148,368,90065,2,0,P|140:346|138:324,1,44.999998626709,0|2,0:0|0:0,0:0:0:0:
152,268,90684,5,4,0:0:0:0:
192,156,91301,1,0,0:0:0:0:
108,72,91921,2,0,P|86:71|64:76,1,44.999998626709,2|0,0:0|0:0,0:0:0:0:
20,108,92538,6,0,P|12:133|12:156,1,44.999998626709,2|0,0:0|0:0,0:0:0:0:
32,208,93158,2,0,P|31:238|28:264,2,44.999998626709,2|0|0,0:0|0:0|0:0,0:0:0:0:
88,188,94086,1,2,0:0:0:0:
144,208,94395,2,0,P|146:233|144:253,1,44.999998626709,2|0,0:0|0:0,0:0:0:0:
120,308,95012,2,0,P|164:309|208:320,1,89.9999972534181,2|0,0:0|0:0,0:0:0:0:
264,344,95940,1,2,0:0:0:0:
319,336,96261,6,0,P|340:326|357:312,1,44.999998626709,0|2,0:0|0:0,0:0:0:0:
388,264,96878,2,0,P|415:261|440:264,1,44.999998626709,2|0,0:0|0:0,0:0:0:0:
491,276,97497,2,0,P|502:256|507:234,1,44.999998626709,2|0,0:0|0:0,0:0:0:0:
508,176,98115,5,2,0:0:0:0:
484,124,98424,1,0,0:0:0:0:
440,84,98735,2,0,P|420:72|395:65,1,44.999998626709,0|2,0:0|0:0,0:0:0:0:
340,56,99352,2,0,P|315:59|291:71,1,44.999998626709,2|8,0:0|0:0,0:0:0:0:
264,112,99971,5,2,0:0:0:0:
212,140,100280,1,0,0:0:0:0:
156,148,100579,1,0,0:0:0:0:
100,140,100878,1,2,0:0:0:0:
48,116,101187,1,2,0:0:0:0:
32,60,101496,1,8,0:0:0:0:
72,16,101785,5,2,0:0:0:0:
