osu file format v10

[General]
AudioFilename: Otokaze - Sound Of North - 04 Snow Campus (by Otokaze) (short ver).mp3
AudioLeadIn: 0
PreviewTime: 28889
Countdown: 0
SampleSet: Soft
StackLeniency: 0.7
Mode: 0
LetterboxInBreaks: 0
EpilepsyWarning: 1

[Editor]
DistanceSpacing: 1
BeatDivisor: 2
GridSize: 4

[Metadata]
Title:Snow Campus
TitleUnicode:Snow Campus
Artist:OtoKaze & Hafuka
ArtistUnicode:OtoKaze & Hafuka
Creator:Kokatsu
Version:Hard
Source:
Tags:Sound of North Stefan TheNutritiousGuy DarkDunskin Saten Saten-San
BeatmapID:171102
BeatmapSetID:53051

[Difficulty]
HPDrainRate:6
CircleSize:4
OverallDifficulty:7
ApproachRate:8
SliderMultiplier:1.4
SliderTickRate:1

[Events]
//Background and Video events
0,0,"bg.jpg"
//Break Periods
//Storyboard Layer 0 (Background)
Sprite,Background,Centre,"bg.jpg",320,240 F,0,0,210,1,0 F,0,28899,,0,1 F,0,65940,66246,1,0 F,0,68083,68389,0,1 M,0,68389,107879,320,240 F,0,107879,109103,1,0
Sprite,Background,Centre,"SB\gray.png",320,240 F,0,0,210,0,1 M,0,210,28899,320,240 F,0,28899,,1,0 F,0,65940,66246,0,1 M,0,66246,68083,320,240
Sprite,Background,Centre,"SB\red.png",320,240 F,0,28899,29205,1,0 F,0,68083,68389,1,0
//Storyboard Layer 1 (Fail)
//Storyboard Layer 2 (Pass)
//Storyboard Layer 3 (Foreground)
Sprite,Foreground,Centre,"SB\redflash.png",320,240 F,0,28899,29205,0.1,0 F,0,68083,68389,0.1,0
Sprite,Foreground,Centre,"SB\gray2.png",320,240 F,0,11909,12215,0,0.7 S,0,11909,12215,1,1.01 F,0,12215,12522,0.7,0 S,0,12215,12522,1.01,1 F,0,14358,14664,0,0.7 S,0,14358,14664,1,1.01 F,0,14664,14971,0.7,0 S,0,14664,14971,1.01,1 F,0,16807,17113,0,0.7 S,0,16807,17113,1,1.01 F,0,17113,17420,0.7,0 S,0,17113,17420,1.01,1 F,0,21705,22011,0,0.7 S,0,21705,22011,1,1.01 F,0,22011,22317,0.7,0 S,0,22011,22317,1.01,1 F,0,24154,24460,0,0.7 S,0,24154,24460,1,1.01 F,0,24460,24766,0.7,0 S,0,24460,24766,1.01,1 F,0,26603,26909,0,0.7 S,0,26603,26909,1,1.01 F,0,26909,27215,0.7,0 S,0,26909,27215,1.01,1 F,0,107879,109103,0,1 M,0,109103,127513,320,240
Sprite,Foreground,Centre,"SB\flash.png",320,240 L,30124,30 F,0,0,153,0.07,0 M,0,153,1224,320,240 L,69307,32 F,0,0,153,0.07,0 M,0,153,1224,320,240 F,0,28899,29052,0.05,0.001 F,0,68083,68236,0.05,0.001
//Storyboard Sound Samples
//Background Colour Transformations
3,100,163,162,255

[TimingPoints]
124.117497516989,306.122448979592,4,2,1,45,1,0
10532,-100,4,2,1,40,0,0
11144,-100,4,2,1,35,0,0
11756,-100,4,2,1,30,0,0
12062,-100,4,2,1,55,0,0
12369,-100,4,2,1,45,0,0
12981,-100,4,2,1,40,0,0
13593,-100,4,2,1,35,0,0
14205,-100,4,2,1,30,0,0
14511,-100,4,2,1,55,0,0
14817,-100,4,2,1,45,0,0
15429,-100,4,2,1,40,0,0
16041,-100,4,2,1,35,0,0
16653,-100,4,2,1,30,0,0
16960,-100,4,2,1,55,0,0
17573,-100,4,2,1,45,0,0
17879,-100,4,2,1,40,0,0
18491,-100,4,2,1,35,0,0
19103,-100,4,2,1,30,0,0
19715,-100,4,2,1,45,0,0
20328,-100,4,2,1,40,0,0
20940,-100,4,2,1,35,0,0
21552,-100,4,2,1,30,0,0
21858,-100,4,2,1,55,0,0
22165,-100,4,2,1,45,0,0
22777,-100,4,2,1,40,0,0
23389,-100,4,2,1,35,0,0
24001,-100,4,2,1,30,0,0
24307,-100,4,2,1,45,0,0
24613,-100,4,2,1,35,0,0
25225,-100,4,2,1,30,0,0
25837,-100,4,2,1,25,0,0
26449,-100,4,2,1,20,0,0
26756,-100,4,2,1,45,0,0
27369,-100,4,2,1,35,0,0
27675,-100,4,2,1,30,0,0
28287,-100,4,2,1,25,0,0
28899,-100,4,2,2,50,0,1
29052,-100,4,2,2,45,0,0
66246,-100,4,2,1,35,0,0
66552,-100,4,2,1,30,0,0
66858,-100,4,2,1,25,0,0
67164,-100,4,2,1,20,0,0
68083,-100,4,2,2,50,0,1
68236,-100,4,2,2,45,0,0
88287,-100,4,2,2,45,0,1
88440,-100,4,2,2,55,0,1
107879,-100,4,2,0,35,0,0
108032,-100,4,2,0,30,0,0
108185,-100,4,2,0,25,0,0
108338,-100,4,2,0,20,0,0
108491,-100,4,2,0,15,0,0
108644,-100,4,2,0,10,0,0
108797,-100,4,2,0,5,0,0

[Colours]
Combo1 : 230,0,0
Combo2 : 199,250,244
Combo3 : 118,148,250
Combo4 : 107,87,221
Combo5 : 121,121,121
Combo6 : 229,229,229
Combo7 : 255,164,255

[HitObjects]
320,60,9920,54,0,B|384:12|451:55,1,140,0|0,0:0|0:0,0:0:0
392,116,10532,2,0,B|477:132|487:205,1,140
402,197,11144,2,0,B|451:270|408:328,1,140
345,269,11756,2,0,B|329:354|256:364,1,140,0|2,0:0|0:0,0:0:0
256,364,12215,1,0,0:0:0
256,364,12369,6,0,B|183:354|167:270,1,140,2|0,0:0|0:0,0:0:0
112,336,12981,2,0,B|69:278|117:206,1,140
32,212,13593,2,0,B|42:139|127:123,1,140
68,60,14205,2,0,B|127:17|199:65,1,140,0|2,0:0|0:0,0:0:0
198,64,14664,1,0,0:0:0
198,64,14817,1,2,0:0:0
260,192,15124,85,0,0:0:0
336,156,15430,1,0,0:0:0
392,96,15736,1,0,0:0:0
392,96,16042,1,0,0:0:0
408,180,16348,1,0,0:0:0
410,262,16654,1,0,0:0:0
344,312,16960,2,0,B|388:372,2,70,2|2|2,0:0|0:0|0:0,0:0:0
292,244,17573,5,0,0:0:0
212,224,17879,1,0,0:0:0
172,152,18185,1,0,0:0:0
92,124,18491,1,0,0:0:0
56,48,18797,1,0,0:0:0
140,56,19103,1,0,0:0:0
220,36,19409,1,0,0:0:0
296,72,19715,86,0,B|346:128|320:204,1,140
386,87,20328,2,0,B|389:163|320:204,1,140
445,157,20940,2,0,B|399:217|320:204,1,140
256,256,21552,1,0,0:0:0
256,172,21858,2,0,B|256:104,2,70,2|0|2,0:0|0:0|0:0,0:0:0
256,256,22471,5,0,0:0:0
192,204,22777,2,0,B|154:135|188:68,1,140
104,175,23389,2,0,B|119:98|187:69,1,140
54,92,24001,2,0,B|115:43|186:69,1,140,0|2,0:0|0:0,0:0:0
185,68,24460,1,0,0:0:0
185,68,24613,1,2,0:0:0
256,144,24920,85,0,0:0:0
316,204,25226,1,0,0:0:0
376,144,25532,1,0,0:0:0
436,204,25838,1,0,0:0:0
496,264,26144,1,0,0:0:0
436,324,26450,1,0,0:0:0
352,324,26756,1,2,0:0:0
352,324,26909,1,2,0:0:0
352,324,27062,1,2,0:0:0
348,240,27369,6,0,B|268:232|232:152,2,140
217,83,28287,2,0,B|297:91|328:160,1,140
348,240,28899,21,6,0:0:0
348,240,29052,1,8,0:0:0
348,240,29205,1,2,0:0:0
464,164,29511,6,0,B|488:20,1,140
368,96,30124,1,2,0:0:0
260,188,30430,1,2,0:0:0
140,116,30736,2,0,B|108:88|116:40,2,70
64,232,31348,1,2,0:0:0
164,332,31654,1,2,0:0:0
232,328,31807,1,0,0:0:0
300,324,31960,1,0,0:0:0
416,248,32266,5,0,0:0:0
416,108,32573,2,0,B|348:160|272:104,1,140,0|2,0:0|0:0,0:0:0
152,76,33185,1,0,0:0:0
152,76,33338,1,0,0:0:0
152,76,33491,1,0,0:0:0
68,188,33797,1,2,0:0:0
68,257,33950,1,8,0:0:0
122,301,34103,2,0,B|89:344|21:314,2,70,2|2|2,0:0|0:0|0:0,0:0:0
248,240,34715,5,0,0:0:0
248,100,35022,1,2,0:0:0
369,170,35328,1,2,0:0:0
248,100,35634,1,0,0:0:0
127,30,35940,1,0,0:0:0
127,170,36246,1,2,0:0:0
248,240,36552,2,0,B|308:280,2,70,2|0|0,0:0|0:0|0:0,0:0:0
364,316,37164,69,0,0:0:0
464,220,37471,1,2,0:0:0
468,80,37777,1,2,0:0:0
332,56,38083,1,2,0:0:0
264,60,38236,1,0,0:0:0
196,64,38389,1,2,0:0:0
60,32,38695,1,2,0:0:0
24,92,38848,1,8,0:0:0
60,152,39001,1,2,0:0:0
24,212,39154,1,2,0:0:0
60,272,39307,1,2,0:0:0
188,212,39613,5,0,0:0:0
316,272,39920,2,0,B|408:248|392:156,1,140,2|2,0:0|0:0,0:0:0
324,52,40532,2,0,B|349:26|392:32,2,70
320,192,41144,1,2,0:0:0
220,92,41450,1,2,0:0:0
172,144,41603,1,0,0:0:0
188,212,41756,1,0,0:0:0
316,272,42062,6,0,B|272:332|180:360,2,140,0|2|2,0:0|0:0|0:0,0:0:0
412,168,42981,1,0,0:0:0
412,168,43134,1,0,0:0:0
412,168,43287,1,0,0:0:0
316,68,43593,2,0,B|252:36,1,70,2|8,0:0|0:0,0:0:0
244,108,43899,2,0,B|180:140,1,70,2|2,0:0|0:0,0:0:0
160,72,44205,1,2,0:0:0
68,180,44511,69,0,0:0:0
112,312,44817,1,2,0:0:0
250,338,45124,1,2,0:0:0
343,232,45430,1,0,0:0:0
297,100,45736,1,0,0:0:0
159,73,46042,1,2,0:0:0
204,204,46348,1,2,0:0:0
204,204,46501,1,0,0:0:0
204,204,46654,1,0,0:0:0
340,172,46960,5,0,0:0:0
452,88,47266,2,0,B|400:40|312:36,1,140,2|2,0:0|0:0,0:0:0
340,172,47879,2,0,B|384:236|364:320,1,140,2|2,0:0|0:0,0:0:0
236,260,48491,1,2,0:0:0
176,296,48644,1,8,0:0:0
108,304,48797,1,2,0:0:0
44,280,48950,1,2,0:0:0
1,224,49103,1,2,0:0:0
96,124,49409,6,0,B|71:99|73:51,2,70,0|0|2,0:0|0:0|0:0,0:0:0
220,60,50022,1,2,0:0:0
344,128,50328,2,0,B|365:98|401:91,2,70
444,228,50940,1,2,0:0:0
344,328,51246,2,0,B|323:362|288:368,2,70,2|0|0,0:0|0:0|0:0,0:0:0
244,228,51858,69,0,0:0:0
132,144,52164,1,2,0:0:0
232,44,52471,2,0,B|308:28|376:80,1,140,2|0,0:0|0:0,0:0:0
240,136,53083,1,0,0:0:0
360,212,53389,1,2,0:0:0
427,234,53542,1,8,0:0:0
427,304,53695,1,2,0:0:0
360,326,53848,1,2,0:0:0
316,268,54001,1,2,0:0:0
180,244,54307,5,0,0:0:0
100,128,54613,2,0,B|61:131|32:157,2,70,2|0|2,0:0|0:0|0:0,0:0:0
112,267,55226,1,0,0:0:0
251,255,55532,1,0,0:0:0
240,116,55838,2,0,B|279:107|319:129,2,70,2|0|2,0:0|0:0|0:0,0:0:0
340,264,56450,6,0,B|432:272|412:300|384:288|444:224,1,140
328,108,57062,2,0,B|336:16|364:36|352:64|288:4,1,140,2|2,0:0|0:0,0:0:0
172,120,57675,2,0,B|80:112|99:84|127:96|68:160,1,140,2|2,0:0|0:0,0:0:0
184,276,58287,2,0,B|169:321|117:316,2,70,2|8|2,0:0|0:0|0:0,0:0:0
120,248,58746,1,2,0:0:0
176,206,58899,1,2,0:0:0
316,224,59205,69,0,0:0:0
436,152,59511,1,2,0:0:0
420,84,59664,1,0,0:0:0
356,56,59817,1,2,0:0:0
216,44,60124,1,0,0:0:0
148,56,60277,2,0,B|106:41|71:70,2,70
120,124,60736,1,2,0:0:0
128,264,61042,1,2,0:0:0
180,312,61195,1,0,0:0:0
244,284,61348,1,0,0:0:0
372,224,61654,5,0,0:0:0
416,172,61807,1,0,0:0:0
408,104,61960,2,0,B|416:60|456:48,2,70,0|0|2,0:0|0:0|0:0,0:0:0
340,88,62420,1,0,0:0:0
312,24,62573,1,0,0:0:0
345,158,62879,5,0,0:0:0
208,187,63185,1,2,0:0:0
168,128,63338,1,8,0:0:0
176,57,63491,1,2,0:0:0
176,57,63644,1,2,0:0:0
176,57,63797,1,2,0:0:0
68,144,64103,70,0,B|56:224|76:296,1,140,0|2,0:0|0:0,0:0:0
204,316,64715,2,0,B|280:328|352:312,2,140,2|0|0,0:0|0:0|0:0,0:0:0
260,184,65634,1,2,0:0:0
356,84,65940,1,2,0:0:0
412,124,66093,1,0,0:0:0
468,168,66246,53,2,0:0:0
356,252,66552,1,2,0:0:0
216,252,66858,1,2,0:0:0
104,168,67164,1,2,0:0:0
208,72,67471,2,0,B|280:40|280:100|352:64,1,140,2|2,0:0|0:0,0:0:0
264,184,68083,21,6,0:0:0
264,184,68236,1,8,0:0:0
264,184,68389,1,2,0:0:0
404,204,68695,6,0,B|400:280|348:328,1,140
208,308,69307,1,2,0:0:0
140,292,69460,1,0,0:0:0
80,256,69613,1,2,0:0:0
68,116,69920,2,0,B|140:92|204:44,1,140
328,92,70532,2,0,B|336:24,2,70,2|0|2,0:0|0:0|0:0,0:0:0
320,161,70991,1,0,0:0:0
335,229,71144,1,0,0:0:0
200,276,71450,5,0,0:0:0
100,176,71756,2,0,B|69:200|64:236,2,70,2|0|2,0:0|0:0|0:0,0:0:0
184,64,72369,1,0,0:0:0
319,101,72675,1,0,0:0:0
388,116,72828,1,0,0:0:0
456,132,72981,1,2,0:0:0
472,200,73134,1,8,0:0:0
428,256,73287,2,0,B|392:228|402:184,2,70,2|2|2,0:0|0:0|0:0,0:0:0
284,276,73899,5,0,0:0:0
208,160,74205,1,2,0:0:0
92,236,74511,1,2,0:0:0
208,312,74817,1,0,0:0:0
284,196,75124,1,0,0:0:0
268,56,75430,1,2,0:0:0
128,76,75736,1,2,0:0:0
76,124,75889,1,0,0:0:0
52,192,76042,1,0,0:0:0
168,268,76348,70,0,B|232:236|236:296|304:260,1,140,0|2,0:0|0:0,0:0:0
428,196,76960,2,0,B|468:127|421:66,2,140,2|2|2,0:0|0:0|0:0,0:0:0
488,324,77879,1,2,0:0:0
436,276,78032,1,8,0:0:0
368,252,78185,1,2,0:0:0
324,196,78338,1,2,0:0:0
264,156,78491,1,2,0:0:0
168,52,78797,6,0,B|88:64|76:144,1,140,0|2,0:0|0:0,0:0:0
200,216,79409,1,2,0:0:0
80,288,79715,1,0,0:0:0
216,328,80022,1,0,0:0:0
352,304,80328,1,2,0:0:0
352,164,80634,1,2,0:0:0
332,96,80787,1,0,0:0:0
276,52,80940,6,0,B|200:80|124:64,1,140
48,176,81552,2,0,B|24:208|47:252,2,70,2|0|2,0:0|0:0|0:0,0:0:0
108,212,82011,1,0,0:0:0
176,228,82164,1,0,0:0:0
288,312,82471,1,0,0:0:0
412,252,82777,1,2,0:0:0
448,192,82930,2,0,B|420:172|380:188,2,70,8|2|2,0:0|0:0|0:0,0:0:0
464,120,83389,1,2,0:0:0
348,52,83695,70,0,B|280:72|196:48,1,140,0|2,0:0|0:0,0:0:0
96,132,84307,2,0,B|84:204|100:276,2,140,2|0|0,0:0|0:0|0:0,0:0:0
196,228,85226,1,2,0:0:0
296,132,85532,1,2,0:0:0
364,152,85685,1,0,0:0:0
432,176,85838,1,0,0:0:0
308,244,86144,5,0,0:0:0
168,252,86450,1,2,0:0:0
276,340,86756,1,2,0:0:0
168,252,87062,1,2,0:0:0
36,208,87369,1,2,0:0:0
92,80,87675,2,0,B|24:102,2,70,2|8|2,0:0|0:0|0:0,0:0:0
159,59,88134,1,2,0:0:0
227,63,88287,53,2,0:0:0
368,76,88593,2,0,B|412:136|376:208,1,140,0|2,0:0|0:0,0:0:0
468,312,89205,1,2,0:0:0
404,344,89358,1,0,0:0:0
340,316,89511,1,0,0:0:0
280,352,89664,1,0,0:0:0
216,324,89817,1,2,0:0:0
84,280,90124,2,0,B|64:212|108:212|84:140,1,140,2|2,0:0|0:0,0:0:0
84,142,90583,1,0,0:0:0
84,142,90736,1,0,0:0:0
192,52,91042,85,0,0:0:0
316,116,91348,1,2,0:0:0
196,184,91654,1,2,0:0:0
244,232,91807,1,0,0:0:0
308,256,91960,1,0,0:0:0
436,216,92266,1,2,0:0:0
452,356,92573,1,2,0:0:0
388,324,92726,1,8,0:0:0
320,348,92879,2,0,B|282:356|243:327,2,70,2|2|2,0:0|0:0|0:0,0:0:0
244,232,93491,37,0,0:0:0
384,216,93797,2,0,B|412:136|332:84,1,140,2|2,0:0|0:0,0:0:0
204,92,94409,2,0,B|171:72|161:38,2,70,0|0|2,0:0|0:0|0:0,0:0:0
288,204,95022,1,2,0:0:0
228,244,95175,1,0,0:0:0
165,275,95328,2,0,B|108:315,2,70,2|0|0,0:0|0:0|0:0,0:0:0
108,148,95940,69,0,0:0:0
216,60,96246,1,2,0:0:0
316,160,96552,1,2,0:0:0
416,64,96858,1,2,0:0:0
456,200,97164,1,2,0:0:0
416,336,97471,1,2,0:0:0
356,300,97624,1,8,0:0:0
316,244,97777,1,2,0:0:0
176,228,98083,86,0,B|169:267|194:311,2,70,0|0|0,0:0|0:0|0:0,0:0:0
76,132,98695,1,2,0:0:0
200,64,99001,1,2,0:0:0
264,96,99154,1,0,0:0:0
328,64,99307,1,0,0:0:0
444,144,99613,2,0,B|432:216|444:288,1,140,2|2,0:0|0:0,0:0:0
304,288,100226,1,2,0:0:0
240,316,100379,1,0,0:0:0
180,280,100532,1,0,0:0:0
60,212,100838,38,0,B|67:295,2,70,0|0|2,0:0|0:0|0:0,0:0:0
64,76,101450,1,2,0:0:0
200,52,101756,2,0,B|236:36|280:44,1,70,0|0,0:0|0:0,0:0:0
252,112,102062,2,0,B|291:112|327:138,1,70,2|0,0:0|0:0,0:0:0
268,184,102369,2,0,B|303:201|325:240,2,70,2|8|2,0:0|0:0|0:0,0:0:0
268,184,102828,1,2,0:0:0
268,184,102981,1,2,0:0:0
392,120,103287,69,0,0:0:0
460,240,103593,1,2,0:0:0
372,348,103899,1,2,0:0:0
312,308,104052,1,0,0:0:0
244,288,104205,2,0,B|172:256|172:312|104:280,1,140,0|2,0:0|0:0,0:0:0
120,144,104817,2,0,B|156:136|200:152,1,70,2|0,0:0|0:0,0:0:0
256,172,105124,1,2,0:0:0
320,200,105277,1,0,0:0:0
376,244,105430,1,0,0:0:0
428,112,105736,86,0,B|423:68|454:40,2,70,0|0|2,0:0|0:0|0:0,0:0:0
436,180,106195,1,0,0:0:0
465,243,106348,1,2,0:0:0
441,309,106501,1,0,0:0:0
378,338,106654,1,2,0:0:0
313,315,106807,1,0,0:0:0
283,252,106960,1,2,0:0:0
306,186,107113,1,0,0:0:0
370,156,107266,2,0,B|352:116|308:116,2,70,2|8|2,0:0|0:0|0:0,0:0:0
370,155,107726,1,2,0:0:0
256,192,107879,12,2,110328,0:0:0
