osu file format v14

[General]
AudioFilename: Otetsu -GUMI Yokuatsu Sakuran Girl.mp3
AudioLeadIn: 0
PreviewTime: 69940
Countdown: 0
SampleSet: Normal
StackLeniency: 0.7
Mode: 0
LetterboxInBreaks: 1
WidescreenStoryboard: 1

[Editor]
DistanceSpacing: 2
BeatDivisor: 4
GridSize: 4
TimelineZoom: 1

[Metadata]
Title:GUMI Yokuatsu Sakuran Girl
TitleUnicode:GUMI Yokuatsu Sakuran Girl
Artist:Otetsu
ArtistUnicode:Otetsu
Creator:Hisoka
Version:Extra
Source:
Tags:GUMI Otetsu Vocaloid
BeatmapID:647446
BeatmapSetID:286825

[Difficulty]
HPDrainRate:7
CircleSize:4
OverallDifficulty:8
ApproachRate:9
SliderMultiplier:0.999999999999999
SliderTickRate:1

[Events]
//Background and Video events
0,0,"gumi yokuatso.jpg",0,0
//Break Periods
2,30140,31522
2,81049,83886
2,145777,162431
2,195361,196383
//Storyboard Layer 0 (Background)
//Storyboard Layer 1 (Fail)
//Storyboard Layer 2 (Pass)
//Storyboard Layer 3 (Foreground)
//Storyboard Sound Samples

[TimingPoints]
1577,181.818181818182,4,1,0,100,1,0
67031,-66.6666666666667,4,1,0,100,0,0
69940,-74.0740740740741,4,1,0,100,0,1
81577,-133.333333333333,4,1,0,100,0,0
95577,-100,4,1,0,100,0,0
122304,-80,4,1,0,100,0,1
133940,-71.4285714285714,4,1,0,100,0,1
141213,-62.5,4,1,0,100,0,1
145577,363.636363636364,3,1,0,100,1,0
145577,-100,4,1,0,100,0,0
171761,150,4,1,0,100,1,0
171761,-76.9230769230769,4,1,0,100,0,0
177761,-57.1428571428571,4,1,0,100,0,0
178961,-76.9230769230769,4,1,0,100,0,0
180161,-57.1428571428571,4,1,0,100,0,0
181361,-76.9230769230769,4,1,0,100,0,0
194561,-57.1428571428571,4,1,0,100,0,0
196983,181.818181818182,4,1,0,100,1,0
196983,-100,4,1,0,100,0,0
210073,-71.4285714285714,4,1,0,100,0,1
221710,-60.6060606060606,4,1,0,100,0,1
231892,-83.3333333333333,4,1,0,100,0,0
234801,-83.3333333333333,4,1,0,100,0,0

[HitObjects]
256,192,5940,12,0,7031,0:0:0:0:
120,184,7395,6,0,L|224:148,1,99.9999999999999
148,76,7667,1,0,0:0:0:0:
244,44,7758,2,0,L|324:112,1,99.9999999999999
488,220,8122,2,0,P|436:204|388:216,1,99.9999999999999
436,304,8395,2,0,L|348:352,1,99.9999999999999
304,260,8667,1,0,0:0:0:0:
108,220,8849,6,0,L|164:304,1,99.9999999999999
308,164,9213,1,0,0:0:0:0:
308,164,9395,1,0,0:0:0:0:
208,152,9486,1,0,0:0:0:0:
168,64,9577,2,0,L|124:88,2,50
268,72,9849,2,0,L|372:88,1,99.9999999999999
366,87,10122,1,0,0:0:0:0:
216,324,10304,6,0,P|260:304|316:304,1,99.9999999999999
456,168,10667,1,0,0:0:0:0:
168,64,10849,1,0,0:0:0:0:
32,212,11031,2,0,P|96:232|140:256,1,99.9999999999999
176,332,11304,2,0,P|200:272|204:232,1,99.9999999999999
152,152,11577,5,0,0:0:0:0:
348,128,11758,2,0,P|356:180|388:228,2,99.9999999999999
416,316,12304,1,0,0:0:0:0:
416,316,12395,1,0,0:0:0:0:
416,316,12486,1,0,0:0:0:0:
36,200,12758,1,0,0:0:0:0:
448,64,13031,1,0,0:0:0:0:
204,336,13213,6,0,P|216:280|204:232,1,99.9999999999999
36,200,13577,1,0,0:0:0:0:
164,48,13758,1,0,0:0:0:0:
256,88,13849,1,0,0:0:0:0:
356,100,13940,2,0,P|368:160|436:212,2,150
404,296,14667,6,0,P|352:292|304:308,1,99.9999999999999
104,296,15031,2,0,P|156:292|204:308,1,99.9999999999999
272,120,15395,2,0,L|304:72,2,50
272,120,15667,2,0,P|228:160|176:168,1,99.9999999999999
104,112,15940,1,0,0:0:0:0:
244,256,16122,6,0,P|196:292|148:296,2,99.9999999999999
432,324,16667,1,0,0:0:0:0:
460,228,16758,1,0,0:0:0:0:
432,132,16849,2,0,P|376:84|300:92,2,150
88,192,17577,6,0,L|64:92,1,99.9999999999999
52,272,17940,2,0,P|104:276|160:244,1,99.9999999999999
200,172,18213,1,0,0:0:0:0:
200,172,18304,1,0,0:0:0:0:
400,188,18486,1,0,0:0:0:0:
360,280,18577,1,0,0:0:0:0:
264,304,18667,2,0,L|240:312,7,25
260,228,19031,6,0,L|160:264,2,99.9999999999999
408,92,19577,1,0,0:0:0:0:
64,72,19758,2,0,L|88:172,1,99.9999999999999
184,136,20031,2,0,L|144:232,1,99.9999999999999
56,272,20304,1,0,0:0:0:0:
56,272,20395,1,0,0:0:0:0:
152,296,20486,2,0,L|188:332,2,50
344,328,20849,2,0,L|288:244,1,99.9999999999999
288,244,21122,1,0,0:0:0:0:
288,244,21213,2,0,L|328:204,1,50
452,56,21486,2,0,P|400:72|348:80,1,99.9999999999999
256,64,21758,1,0,0:0:0:0:
288,160,21849,1,0,0:0:0:0:
188,144,21940,6,0,P|132:136|92:100,1,99.9999999999999
392,120,22304,1,0,0:0:0:0:
92,336,22486,1,0,0:0:0:0:
416,288,22667,2,0,P|336:304|264:268,1,150
275,278,23213,1,0,0:0:0:0:
112,76,23395,6,0,L|168:160,1,99.9999999999999
400,76,23758,2,0,L|344:160,1,99.9999999999999
256,108,24031,1,0,0:0:0:0:
256,108,24122,1,0,0:0:0:0:
448,312,24395,1,0,0:0:0:0:
48,168,24667,1,0,0:0:0:0:
248,264,24849,6,0,P|208:280|164:324,2,99.9999999999999
408,156,25395,1,0,0:0:0:0:
344,232,25486,1,0,0:0:0:0:
248,264,25577,2,0,P|180:256|140:184,2,150
380,64,26304,5,0,0:0:0:0:
132,64,26486,1,0,0:0:0:0:
460,336,26667,1,0,0:0:0:0:
52,336,26849,1,0,0:0:0:0:
292,192,27031,2,0,L|348:200,2,50
232,276,27304,2,0,L|184:184,1,99.9999999999999
185,187,27577,1,0,0:0:0:0:
368,88,27758,6,0,L|400:188,1,99.9999999999999
144,88,28122,2,0,L|112:188,1,99.9999999999999
113,183,28395,1,0,0:0:0:0:
256,192,28486,2,0,L|256:348,2,150
164,48,29213,1,0,0:0:0:0:
348,48,29395,1,0,0:0:0:0:
256,168,29577,1,0,0:0:0:0:
116,276,29758,1,0,0:0:0:0:
256,324,29849,1,0,0:0:0:0:
396,276,29940,1,0,0:0:0:0:
344,120,32122,6,0,L|404:144,2,50
228,284,32486,2,0,P|200:236|144:216,1,99.9999999999999
112,64,32849,2,0,P|140:112|196:132,1,99.9999999999999
200,40,33122,2,0,L|300:64,1,99.9999999999999
376,112,33395,1,0,0:0:0:0:
392,200,33486,1,0,0:0:0:0:
368,288,33577,6,0,L|416:312,2,50
192,244,33940,2,0,L|120:316,1,99.9999999999999
72,140,34304,2,0,L|144:68,1,99.9999999999999
228,36,34577,2,0,P|232:92|200:136,1,99.9999999999999
272,192,34849,1,0,0:0:0:0:
272,192,34940,1,0,0:0:0:0:
340,132,35031,6,0,L|412:212,1,99.9999999999999
105,206,35395,2,0,L|172:132,1,99.9999999999999
256,292,35758,1,0,0:0:0:0:
256,112,35940,1,0,0:0:0:0:
256,112,36031,1,0,0:0:0:0:
416,288,36213,1,0,0:0:0:0:
416,288,36304,1,0,0:0:0:0:
416,288,36395,1,0,0:0:0:0:
416,288,36486,2,0,B|464:240|456:192|456:192|400:164|388:112,1,200
236,36,37031,1,0,0:0:0:0:
80,88,37213,6,0,B|104:124|128:140|128:140|140:168|132:208,1,125
68,180,37486,2,0,B|62:204|74:232|74:232|98:248|122:284,1,125
176,244,37758,1,0,0:0:0:0:
328,336,37940,1,0,0:0:0:0:
416,132,38304,6,0,P|392:84|336:64,2,99.9999999999999
144,100,38940,1,0,0:0:0:0:
420,320,39213,1,0,0:0:0:0:
232,288,39395,5,0,0:0:0:0:
232,288,39486,1,0,0:0:0:0:
232,288,39577,1,0,0:0:0:0:
388,208,39758,1,0,0:0:0:0:
232,288,39940,1,0,0:0:0:0:
328,132,40122,1,0,0:0:0:0:
232,292,40304,1,0,0:0:0:0:
180,104,40486,6,0,P|116:155|194:181,1,200
352,76,41031,1,0,0:0:0:0:
456,220,41213,1,0,0:0:0:0:
304,316,41395,1,0,0:0:0:0:
124,304,41577,2,0,L|60:192,1,125
148,76,41849,2,0,L|212:188,1,125
136,192,42122,1,0,0:0:0:0:
256,64,42304,5,0,0:0:0:0:
256,64,42395,1,0,0:0:0:0:
256,64,42486,1,0,0:0:0:0:
356,220,42667,1,0,0:0:0:0:
256,64,42849,1,0,0:0:0:0:
156,220,43031,1,0,0:0:0:0:
372,76,43213,5,0,0:0:0:0:
364,88,43395,1,0,0:0:0:0:
356,100,43577,1,0,0:0:0:0:
464,192,43758,2,0,P|440:240|384:256,1,99.9999999999999
380,172,44031,1,0,0:0:0:0:
380,172,44122,2,0,L|272:232,1,99.9999999999999
236,292,44395,1,0,0:0:0:0:
236,292,44486,2,0,P|184:308|148:352,1,99.9999999999999
84,284,44758,2,0,L|92:184,1,99.9999999999999
140,108,45031,1,0,0:0:0:0:
220,68,45122,1,0,0:0:0:0:
308,76,45213,5,0,0:0:0:0:
396,68,45304,1,0,0:0:0:0:
440,148,45395,1,0,0:0:0:0:
424,236,45486,2,0,P|376:220|324:228,1,99.9999999999999
368,308,45758,1,0,0:0:0:0:
368,308,45849,1,0,0:0:0:0:
368,308,45940,2,0,L|328:386,2,66.6666666666666
248,304,46304,1,0,0:0:0:0:
248,304,46486,1,0,0:0:0:0:
84,232,46667,5,0,0:0:0:0:
84,232,46758,1,0,0:0:0:0:
96,144,46849,1,0,0:0:0:0:
96,144,46940,1,0,0:0:0:0:
176,104,47031,2,0,P|216:132|268:140,1,99.9999999999999
276,60,47304,1,0,0:0:0:0:
360,76,47395,2,0,L|400:36,2,50
404,156,47667,2,0,P|448:212|452:292,1,150
276,324,48122,5,0,0:0:0:0:
188,308,48213,1,0,0:0:0:0:
120,248,48304,1,0,0:0:0:0:
92,164,48395,2,0,P|144:140|156:100,1,99.9999999999999
155,102,48667,1,0,0:0:0:0:
157,102,48758,1,0,0:0:0:0:
248,120,48849,6,0,L|360:180,1,125
248,204,49122,2,0,L|360:264,1,125
420,224,49395,1,0,0:0:0:0:
72,248,49940,6,0,L|216:300,1,150
304,280,50304,1,0,0:0:0:0:
72,140,50577,1,0,0:0:0:0:
336,92,50849,1,0,0:0:0:0:
432,300,51577,5,0,0:0:0:0:
424,120,51758,2,0,P|420:172|368:208,2,99.9999999999999
256,52,52304,1,0,0:0:0:0:
80,80,52486,6,0,P|72:136|92:172,1,99.9999999999999
160,116,52758,1,0,0:0:0:0:
172,204,52849,2,0,L|104:280,1,99.9999999999999
264,192,53213,2,0,B|272:240|248:276|248:276|272:320|312:328,1,150
344,156,53577,2,0,P|396:176|424:232,1,99.9999999999999
320,64,53940,5,0,0:0:0:0:
300,64,54031,1,0,0:0:0:0:
284,64,54122,1,0,0:0:0:0:
268,64,54213,1,0,0:0:0:0:
188,80,54304,1,0,0:0:0:0:
171,89,54395,1,0,0:0:0:0:
156,96,54486,1,0,0:0:0:0:
144,104,54577,1,0,0:0:0:0:
108,188,54667,6,0,P|92:244|120:292,1,99.9999999999999
184,232,54940,1,0,0:0:0:0:
244,164,55031,1,0,0:0:0:0:
332,152,55122,1,0,0:0:0:0:
416,184,55213,1,0,0:0:0:0:
452,268,55304,1,0,0:0:0:0:
384,328,55395,6,0,P|308:320|232:328,1,150
235,327,55758,1,0,0:0:0:0:
404,88,55940,1,0,0:0:0:0:
228,56,56122,2,0,L|140:104,1,99.9999999999999
147,280,56486,2,0,L|235:328,1,99.9999999999999
288,156,56849,6,0,P|324:172|244:216,1,200
68,252,57395,2,0,B|68:192|32:156|32:156|44:104|80:72,1,200
384,112,57940,1,0,0:0:0:0:
232,268,58122,1,0,0:0:0:0:
216,96,58304,6,0,P|260:120|288:168,1,99.9999999999999
452,332,58667,1,0,0:0:0:0:
192,192,58849,1,0,0:0:0:0:
60,328,59031,2,0,L|52:220,1,99.9999999999999
452,328,59395,2,0,L|460:220,1,99.9999999999999
256,192,59758,12,0,60304,0:0:0:0:
352,96,61031,5,0,0:0:0:0:
360,316,61213,2,0,P|316:284|304:232,1,99.9999999999999
104,144,61577,2,0,P|136:100|188:88,1,99.9999999999999
200,280,61940,2,0,P|191:226|219:181,1,99.9999999999999
248,76,62304,1,0,0:0:0:0:
460,200,62486,1,0,0:0:0:0:
104,312,62667,6,0,P|56:224|64:112,1,200
136,228,63213,2,0,P|147:128|217:41,1,200
212,176,63758,2,0,P|248:136|296:116,1,99.9999999999999
360,64,64122,5,0,0:0:0:0:
378,97,64213,1,0,0:0:0:0:
393,132,64304,1,0,0:0:0:0:
403,169,64395,1,0,0:0:0:0:
407,207,64486,1,0,0:0:0:0:
406,246,64577,1,0,0:0:0:0:
398,283,64667,1,0,0:0:0:0:
382,314,64758,1,0,0:0:0:0:
345,302,64849,1,0,0:0:0:0:
308,296,64940,1,0,0:0:0:0:
269,294,65031,1,0,0:0:0:0:
231,298,65122,1,0,0:0:0:0:
193,305,65213,1,0,0:0:0:0:
157,316,65304,1,0,0:0:0:0:
121,329,65395,1,0,0:0:0:0:
86,345,65486,1,0,0:0:0:0:
64,308,65577,6,0,P|60:256|80:204,1,99.9999999999999
108,156,65849,1,0,0:0:0:0:
160,116,65940,1,0,0:0:0:0:
224,104,66031,1,0,0:0:0:0:
288,116,66122,1,0,0:0:0:0:
340,156,66213,1,0,0:0:0:0:
332,220,66304,1,0,0:0:0:0:
208,212,66667,1,0,0:0:0:0:
208,212,66849,1,0,0:0:0:0:
84,60,67031,6,0,P|232:84|384:84,1,300.000011444092
152,176,67758,2,0,P|304:180|452:200,1,300.000011444092
352,300,68486,1,0,0:0:0:0:
160,312,68667,5,0,0:0:0:0:
160,312,68758,1,0,0:0:0:0:
160,312,68849,1,0,0:0:0:0:
56,256,69031,5,0,0:0:0:0:
56,256,69122,1,0,0:0:0:0:
56,256,69213,1,0,0:0:0:0:
56,256,69304,1,0,0:0:0:0:
56,128,69486,5,0,0:0:0:0:
56,128,69577,1,0,0:0:0:0:
156,68,69758,5,0,0:0:0:0:
360,64,69940,6,0,L|412:112,3,67.500000257492
436,216,70304,1,0,0:0:0:0:
424,240,70395,1,0,0:0:0:0:
404,256,70486,1,0,0:0:0:0:
384,264,70577,1,0,0:0:0:0:
288,312,70667,2,0,P|232:276|156:280,1,135.000000514984
184,92,70940,2,0,P|175:158|132:208,1,135.000000514984
244,200,71213,1,0,0:0:0:0:
244,200,71304,1,0,0:0:0:0:
296,104,71395,6,0,L|432:120,1,135.000000514984
216,280,71758,2,0,L|80:264,1,135.000000514984
71,47,72122,2,0,P|63:112|112:172,1,135.000000514984
172,84,72395,2,0,L|212:212,1,135.000000514984
324,192,72667,1,0,0:0:0:0:
324,192,72758,1,0,0:0:0:0:
368,292,72849,6,0,P|432:264|468:184,1,135.000000514984
144,92,73213,2,0,P|80:120|44:200,1,135.000000514984
320,56,73577,2,0,L|392:172,1,135.000000514984
496,140,73849,2,0,P|488:224|428:272,1,135.000000514984
455,258,74122,1,0,0:0:0:0:
455,258,74213,1,0,0:0:0:0:
364,316,74304,6,0,L|292:196,1,135.000000514984
92,272,74667,1,0,0:0:0:0:
52,216,74758,1,0,0:0:0:0:
136,56,75031,1,0,0:0:0:0:
204,64,75122,1,0,0:0:0:0:
260,104,75213,1,0,0:0:0:0:
328,104,75304,1,0,0:0:0:0:
392,80,75395,5,0,0:0:0:0:
444,152,75486,1,0,0:0:0:0:
436,240,75577,1,0,0:0:0:0:
368,296,75667,1,0,0:0:0:0:
280,304,75758,6,0,L|208:312,3,67.500000257492
152,212,76122,2,0,L|220:224,1,67.500000257492
152,100,76304,2,0,L|212:132,1,67.500000257492
292,232,76486,2,0,P|336:184|340:104,1,135.000000514984
88,160,76758,2,0,L|272:76,1,202.500000772476
440,104,77213,6,0,P|392:152|384:240,1,135.000000514984
64,264,77577,2,0,L|200:320,1,135.000000514984
216,76,77940,2,0,P|176:104|156:144,2,67.500000257492
240,164,78213,2,0,B|192:204|136:216|116:168|48:192,1,202.500000772476
240,164,78667,6,0,P|280:108|352:80,1,135.000000514984
366,274,79031,2,0,P|338:214|284:176,1,135.000000514984
173,302,79395,2,0,P|233:274|272:220,1,135.000000514984
145,109,79758,2,0,P|173:169|228:208,1,135.000000514984
256,192,80122,12,0,80849,0:0:0:0:
84,108,84486,6,0,P|84:156|104:184,1,75.000002861023
124,316,84849,2,0,L|184:256,1,75.000002861023
208,148,85213,2,0,B|244:128|280:124|280:124|305:130|328:132,1,112.500004291534
420,60,85758,1,0,0:0:0:0:
408,308,85940,6,0,P|368:316|328:300,1,75.000002861023
156,224,86304,2,0,L|196:296,1,75.000002861023
276,204,86667,1,0,0:0:0:0:
64,92,86940,1,0,0:0:0:0:
480,224,87213,1,0,0:0:0:0:
384,72,87395,6,0,L|364:112,2,37.5000014305115
276,84,87758,2,0,L|276:128,2,37.5000014305115
192,152,88122,2,0,P|216:212|240:256,1,112.500004291534
191,78,88849,6,0,P|187:122|195:162,1,75.000002861023
321,306,89213,2,0,P|325:262|317:222,1,75.000002861023
200,252,89577,1,0,0:0:0:0:
328,84,89849,1,0,0:0:0:0:
52,252,90122,1,0,0:0:0:0:
376,168,90667,6,0,P|368:204|284:172,1,150.000005722046
120,104,91304,2,0,P|168:140|204:192,1,112.500004291534
96,244,91758,1,0,0:0:0:0:
184,328,91940,1,0,0:0:0:0:
304,328,92122,1,0,0:0:0:0:
400,256,92304,1,0,0:0:0:0:
288,212,92486,1,0,0:0:0:0:
380,136,92667,1,0,0:0:0:0:
264,100,92849,1,0,0:0:0:0:
264,100,93031,1,0,0:0:0:0:
148,76,93213,6,0,L|168:152,1,75.000002861023
364,308,93577,2,0,L|344:232,1,75.000002861023
124,256,93940,2,0,P|176:256|220:204,1,112.500004291534
148,188,94304,2,0,L|72:160,1,75.000002861023
156,68,94667,1,0,0:0:0:0:
172,80,94758,1,0,0:0:0:0:
192,84,94849,1,0,0:0:0:0:
216,80,94940,1,0,0:0:0:0:
232,68,95031,1,0,0:0:0:0:
352,72,95213,5,0,0:0:0:0:
368,88,95304,1,0,0:0:0:0:
372,108,95395,1,0,0:0:0:0:
400,224,95577,2,0,L|344:220,1,50
340,328,95758,2,0,L|288:288,1,50
220,344,95940,2,0,L|192:288,1,50
96,288,96122,6,0,L|68:192,1,99.9999999999999
60,92,96395,1,0,0:0:0:0:
140,32,96486,2,0,P|160:84|148:136,1,99.9999999999999
312,76,96849,2,0,P|302:130|265:169,1,99.9999999999999
160,216,97122,2,0,P|224:248|272:256,1,99.9999999999999
348,228,97395,1,0,0:0:0:0:
412,152,97486,1,0,0:0:0:0:
412,152,97577,6,0,L|456:244,1,99.9999999999999
80,280,97940,2,0,P|120:312|176:320,1,99.9999999999999
216,48,98304,2,0,B|224:52|224:52|224:104|224:136|224:136|232:140,1,99.9999999999999
324,100,98577,2,0,P|332:152|300:212,1,99.9999999999999
244,264,98849,1,0,0:0:0:0:
244,264,98940,1,0,0:0:0:0:
164,204,99031,6,0,P|128:168|60:152,2,99.9999999999999
352,280,99577,1,0,0:0:0:0:
412,92,99758,2,0,P|384:136|392:192,1,99.9999999999999
352,280,100031,2,0,L|260:324,1,99.9999999999999
160,320,100304,1,0,0:0:0:0:
80,260,100395,1,0,0:0:0:0:
72,160,100486,6,0,B|84:104|112:88|136:52|136:52|160:68|160:68|161:77|161:77|170:84|170:84|184:112|184:112|216:92|216:92|216:80|216:80|224:80|224:80|240:64|240:64|285:84|272:104|312:156,1,400
160,320,101486,1,0,0:0:0:0:
336,48,101758,1,0,0:0:0:0:
436,196,101940,5,0,0:0:0:0:
240,168,102122,1,0,0:0:0:0:
240,180,102213,1,0,0:0:0:0:
244,192,102304,2,0,P|276:244|312:264,1,99.9999999999999
376,76,102667,2,0,L|336:168,1,99.9999999999999
276,88,102940,1,0,0:0:0:0:
276,88,103031,2,0,P|224:80|176:80,1,99.9999999999999
76,252,103395,5,0,0:0:0:0:
84,260,103486,1,0,0:0:0:0:
96,260,103577,1,0,0:0:0:0:
200,232,103758,1,0,0:0:0:0:
216,336,103940,1,0,0:0:0:0:
264,328,104031,1,0,0:0:0:0:
308,344,104122,1,0,0:0:0:0:
460,324,104304,5,0,0:0:0:0:
372,276,104395,1,0,0:0:0:0:
352,176,104486,1,0,0:0:0:0:
292,96,104577,1,0,0:0:0:0:
196,72,104667,1,0,0:0:0:0:
100,100,104758,1,0,0:0:0:0:
60,192,104849,6,0,L|156:164,1,99.9999999999999
352,116,105213,1,0,0:0:0:0:
352,116,105395,1,0,0:0:0:0:
192,240,105577,2,0,L|100:296,2,99.9999999999999
192,240,106122,1,0,0:0:0:0:
384,296,106304,6,0,L|332:316,3,50
368,192,106667,2,0,L|324:227,3,50
300,108,107031,2,0,L|269:154,1,50
200,56,107213,2,0,L|185:109,1,50
84,80,107395,1,0,0:0:0:0:
80,108,107486,1,0,0:0:0:0:
88,144,107577,1,0,0:0:0:0:
120,176,107667,1,0,0:0:0:0:
164,192,107758,6,0,P|216:236|232:268,1,99.9999999999999
440,124,108122,2,0,P|396:176|364:192,1,99.9999999999999
93,258,108486,2,0,P|137:206|169:190,1,99.9999999999999
302,118,108849,2,0,P|328:160|369:190,1,99.9999999999999
228,332,109213,6,0,L|232:128,1,200
32,144,109758,2,0,P|128:112|212:56,1,200
408,88,110304,1,0,0:0:0:0:
412,100,110486,1,0,0:0:0:0:
424,292,110667,6,0,P|324:304|228:332,1,200
344,168,111213,1,0,0:0:0:0:
144,196,111395,2,0,P|212:122|268:39,1,200
256,192,112122,12,0,112667,0:0:0:0:
140,208,113577,6,0,P|112:164|72:136,2,99.9999999999999
272,56,114122,1,0,0:0:0:0:
424,188,114304,2,0,P|388:232|356:276,1,99.9999999999999
172,328,114667,2,0,P|208:284|240:240,1,99.9999999999999
148,68,115031,6,0,P|168:120|220:136,1,99.9999999999999
300,236,115395,1,0,0:0:0:0:
396,72,115577,2,0,P|320:148|300:236,1,200
104,272,116122,1,0,0:0:0:0:
104,272,116304,1,0,0:0:0:0:
300,324,116486,5,0,0:0:0:0:
348,304,116577,1,0,0:0:0:0:
384,272,116667,1,0,0:0:0:0:
404,224,116758,1,0,0:0:0:0:
404,172,116849,1,0,0:0:0:0:
256,192,117031,1,0,0:0:0:0:
232,96,117213,5,0,0:0:0:0:
232,96,117395,1,0,0:0:0:0:
92,76,117577,1,0,0:0:0:0:
68,140,117667,1,0,0:0:0:0:
72,212,117758,1,0,0:0:0:0:
104,272,117849,1,0,0:0:0:0:
164,308,117940,5,0,0:0:0:0:
232,320,118031,1,0,0:0:0:0:
300,304,118122,1,0,0:0:0:0:
352,256,118213,1,0,0:0:0:0:
376,192,118304,1,0,0:0:0:0:
376,192,118486,1,0,0:0:0:0:
240,224,118667,2,0,P|248:128|336:64,1,200
256,192,119395,12,0,120122,0:0:0:0:
76,68,120849,5,0,0:0:0:0:
92,64,120940,1,0,0:0:0:0:
112,68,121031,1,0,0:0:0:0:
128,88,121122,1,0,0:0:0:0:
140,120,121213,1,0,0:0:0:0:
144,164,121304,1,0,0:0:0:0:
144,220,121395,1,0,0:0:0:0:
172,280,121486,1,0,0:0:0:0:
240,312,121577,1,0,0:0:0:0:
324,308,121667,1,0,0:0:0:0:
408,264,121758,1,0,0:0:0:0:
432,160,121849,1,0,0:0:0:0:
368,64,121940,1,0,0:0:0:0:
368,64,122122,1,0,0:0:0:0:
292,72,122304,6,0,L|316:140,3,62.4999999999999
200,208,122667,2,0,L|220:144,1,62.4999999999999
312,276,122849,2,0,L|288:204,1,62.4999999999999
220,320,123031,2,0,P|152:328|88:300,1,125
116,196,123304,2,0,L|36:88,1,125
156,88,123577,1,0,0:0:0:0:
380,60,123758,6,0,P|408:116|448:164,1,125
132,324,124122,2,0,P|104:268|64:220,1,125
400,304,124486,2,0,P|336:312|268:272,1,125
352,216,124758,1,0,0:0:0:0:
312,124,124849,1,0,0:0:0:0:
220,88,124940,1,0,0:0:0:0:
124,108,125031,1,0,0:0:0:0:
64,188,125122,1,0,0:0:0:0:
64,188,125213,6,0,L|184:228,1,125
448,196,125577,2,0,L|328:156,1,125
324,332,125940,2,0,P|260:300|240:252,1,125
240,253,126213,2,0,P|214:197|158:173,1,125
220,88,126486,1,0,0:0:0:0:
220,88,126577,1,0,0:0:0:0:
292,156,126667,6,0,P|332:104|388:88,1,125
412,288,127031,1,0,0:0:0:0:
412,288,127122,1,0,0:0:0:0:
112,312,127395,5,0,0:0:0:0:
76,296,127486,1,0,0:0:0:0:
48,264,127577,1,0,0:0:0:0:
48,224,127667,1,0,0:0:0:0:
88,116,127758,1,0,0:0:0:0:
128,180,127849,1,0,0:0:0:0:
192,224,127940,1,0,0:0:0:0:
268,232,128031,1,0,0:0:0:0:
336,196,128122,6,0,P|392:160|448:140,1,125
368,268,128486,2,0,P|312:304|256:324,1,125
176,56,128849,2,0,P|192:116|244:148,1,125
260,64,129122,2,0,L|376:120,1,125
468,84,129395,1,0,0:0:0:0:
468,84,129486,1,0,0:0:0:0:
460,184,129577,6,0,L|472:316,2,125
260,192,130122,1,0,0:0:0:0:
72,108,130304,2,0,P|60:184|100:236,1,125
164,160,130577,2,0,L|240:332,1,187.5
328,152,131031,6,0,P|280:112|216:92,2,125
328,152,131577,1,0,0:0:0:0:
412,332,131758,2,0,L|276:296,1,125
64,296,132122,2,0,L|100:160,1,125
256,192,132486,12,0,133213,0:0:0:0:
256,192,133395,5,0,0:0:0:0:
256,192,133577,1,0,0:0:0:0:
256,192,133758,1,0,0:0:0:0:
76,60,133940,6,0,L|144:96,3,69.9999978637695
76,176,134304,2,0,L|152:180,1,69.9999978637695
120,280,134486,2,0,L|192:260,1,69.9999978637695
248,184,134667,2,0,L|288:244,1,69.9999978637695
364,304,134849,2,0,L|300:344,1,69.9999978637695
360,192,135031,2,0,L|432:192,1,69.9999978637695
312,100,135213,2,0,L|248:68,1,69.9999978637695
424,104,135395,6,0,P|456:168|460:240,1,139.999995727539
88,280,135758,2,0,P|56:216|52:144,1,139.999995727539
256,44,136122,2,0,L|156:148,1,139.999995727539
156,244,136395,1,0,0:0:0:0:
228,308,136486,1,0,0:0:0:0:
328,308,136577,1,0,0:0:0:0:
404,248,136667,1,0,0:0:0:0:
404,148,136758,1,0,0:0:0:0:
348,68,136849,6,0,L|416:44,3,69.9999978637695
304,160,137213,2,0,L|288:228,1,69.9999978637695
212,164,137395,2,0,L|196:96,1,69.9999978637695
128,120,137577,1,0,0:0:0:0:
112,128,137667,1,0,0:0:0:0:
96,136,137758,1,0,0:0:0:0:
80,144,137849,1,0,0:0:0:0:
56,216,137940,1,0,0:0:0:0:
72,224,138030,1,0,0:0:0:0:
88,232,138121,1,0,0:0:0:0:
104,240,138212,1,0,0:0:0:0:
144,304,138304,6,0,P|220:296|272:328,2,139.999995727539
212,92,138849,1,0,0:0:0:0:
212,92,138940,2,0,B|251:159|294:185|294:185|327:162|387:159,1,209.999993591309
332,352,139395,1,0,0:0:0:0:
240,324,139486,1,0,0:0:0:0:
168,256,139577,1,0,0:0:0:0:
136,152,139667,1,0,0:0:0:0:
136,152,139758,6,0,L|40:48,1,139.999995727539
376,152,140122,2,0,L|472:48,1,139.999995727539
308,120,140486,2,0,L|276:48,1,69.9999978637695
204,184,140667,2,0,L|236:112,1,69.9999978637695
308,248,140849,2,0,L|276:176,1,69.9999978637695
204,312,141031,2,0,L|236:240,1,69.9999978637695
308,364,141213,6,0,P|384:340|460:288,1,160
204,20,141577,2,0,P|128:44|52:96,1,160
80,232,141940,2,0,P|104:308|156:384,1,160
432,152,142304,2,0,P|408:76|356:0,1,160
80,152,142667,6,0,L|216:240,1,160
432,232,143031,2,0,L|296:144,1,160
296,16,143395,2,0,L|208:152,1,160
216,368,143758,2,0,L|304:232,1,160
256,192,144122,12,0,144667,0:0:0:0:
256,192,144849,5,0,0:0:0:0:
96,192,145577,5,0,0:0:0:0:
308,60,163031,5,0,0:0:0:0:
376,132,163213,1,0,0:0:0:0:
376,232,163395,1,0,0:0:0:0:
52,52,163758,1,0,0:0:0:0:
312,312,164122,2,0,P|256:324|220:304,1,99.9999999999999
256,56,164849,1,0,0:0:0:0:
88,308,165213,5,0,0:0:0:0:
88,308,165395,1,0,0:0:0:0:
88,308,165577,1,0,0:0:0:0:
448,192,165940,1,0,0:0:0:0:
88,76,166304,5,0,0:0:0:0:
88,76,166486,1,0,0:0:0:0:
88,76,166668,1,0,0:0:0:0:
376,192,167031,1,0,0:0:0:0:
256,112,167395,6,0,P|252:84|228:52,2,50
256,192,168122,1,0,0:0:0:0:
256,272,168486,2,0,P|260:300|284:332,2,50
256,192,169213,1,0,0:0:0:0:
60,192,169577,6,0,L|80:244,1,50
160,100,169940,1,0,0:0:0:0:
356,192,170304,1,0,0:0:0:0:
460,192,170667,2,0,L|440:244,1,50
356,104,171031,1,0,0:0:0:0:
160,192,171395,1,0,0:0:0:0:
192,48,171761,6,0,P|148:88|128:172,1,129.999994049072
320,336,172061,2,0,P|364:296|384:212,1,129.999994049072
320,48,172361,2,0,P|364:88|384:172,1,129.999994049072
192,336,172661,2,0,P|148:296|128:212,1,129.999994049072
204,120,172961,5,0,0:0:0:0:
312,268,173111,1,0,0:0:0:0:
120,96,173261,1,0,0:0:0:0:
396,308,173411,1,0,0:0:0:0:
256,192,173561,1,0,0:0:0:0:
256,192,173711,1,0,0:0:0:0:
256,192,173861,1,0,0:0:0:0:
256,192,174011,1,0,0:0:0:0:
40,192,174161,6,0,L|172:192,1,129.999994049072
472,192,174461,2,0,L|340:192,1,129.999994049072
292,56,174761,2,0,P|248:104|224:164,1,129.999994049072
220,328,175061,2,0,P|264:280|288:220,1,129.999994049072
420,60,175361,5,0,0:0:0:0:
352,172,175511,1,0,0:0:0:0:
420,284,175661,1,0,0:0:0:0:
168,248,175811,1,0,0:0:0:0:
168,248,175886,1,0,0:0:0:0:
168,248,175961,5,0,0:0:0:0:
80,152,176111,1,0,0:0:0:0:
152,44,176261,1,0,0:0:0:0:
240,140,176411,1,0,0:0:0:0:
352,352,176561,6,0,P|336:288|296:228,1,129.999994049072
160,32,176861,2,0,P|176:96|216:156,1,129.999994049072
312,140,177161,1,0,0:0:0:0:
312,140,177311,1,0,0:0:0:0:
200,244,177461,1,0,0:0:0:0:
200,244,177611,1,0,0:0:0:0:
80,72,177761,6,0,P|76:184|88:248,1,175.00000166893
152,127,178061,2,0,P|166:238|188:299,1,175.00000166893
432,72,178361,2,0,P|436:184|424:248,1,175.00000166893
359,127,178661,2,0,P|345:238|323:299,1,175.00000166893
196,48,178961,5,0,0:0:0:0:
316,48,179111,1,0,0:0:0:0:
152,128,179261,1,0,0:0:0:0:
360,128,179411,1,0,0:0:0:0:
368,328,179561,2,0,P|328:276|304:212,1,129.999994049072
144,328,179861,2,0,P|184:276|208:212,1,129.999994049072
432,312,180161,6,0,P|436:200|424:136,1,175.00000166893
360,257,180461,2,0,P|346:146|324:85,1,175.00000166893
80,312,180761,2,0,P|76:200|88:136,1,175.00000166893
153,257,181061,2,0,P|167:146|189:85,1,175.00000166893
324,212,181361,5,0,0:0:0:0:
276,124,181511,1,0,0:0:0:0:
188,172,181661,1,0,0:0:0:0:
236,260,181811,1,0,0:0:0:0:
356,136,181961,1,0,0:0:0:0:
200,92,182111,1,0,0:0:0:0:
156,248,182261,1,0,0:0:0:0:
312,292,182411,1,0,0:0:0:0:
408,208,182561,5,0,0:0:0:0:
408,208,182711,1,0,0:0:0:0:
408,208,182861,1,0,0:0:0:0:
408,208,183011,1,0,0:0:0:0:
104,176,183161,1,0,0:0:0:0:
104,176,183311,1,0,0:0:0:0:
104,176,183461,1,0,0:0:0:0:
104,176,183611,1,0,0:0:0:0:
212,36,183761,6,0,P|160:80|92:96,1,129.999994049072
300,348,184061,2,0,P|352:304|420:288,1,129.999994049072
100,236,184361,2,0,P|144:288|160:356,1,129.999994049072
412,148,184661,2,0,P|368:96|352:28,1,129.999994049072
256,128,184961,1,0,0:0:0:0:
256,256,185111,1,0,0:0:0:0:
176,152,185261,1,0,0:0:0:0:
336,232,185411,1,0,0:0:0:0:
132,312,185561,5,0,0:0:0:0:
188,328,185636,1,0,0:0:0:0:
244,340,185711,1,0,0:0:0:0:
300,352,185786,1,0,0:0:0:0:
352,328,185861,1,0,0:0:0:0:
400,292,185936,1,0,0:0:0:0:
420,236,186011,1,0,0:0:0:0:
408,180,186086,1,0,0:0:0:0:
372,136,186161,6,0,P|408:76|468:44,2,129.999994049072
144,72,186611,1,0,0:0:0:0:
52,288,186761,2,0,P|44:216|72:160,1,129.999994049072
152,204,186986,1,0,0:0:0:0:
236,164,187061,2,0,L|328:68,1,129.999994049072
344,332,187361,6,0,P|356:272|416:240,2,129.999994049072
212,208,187811,1,0,0:0:0:0:
184,296,187886,1,0,0:0:0:0:
96,312,187961,2,0,L|40:344,2,64.9999970245362
56,228,188186,2,0,P|64:160|64:96,1,129.999994049072
64,98,188411,1,0,0:0:0:0:
240,60,188561,6,0,L|352:132,1,129.999994049072
272,324,188861,2,0,L|160:252,1,129.999994049072
140,72,189161,2,0,P|164:136|208:176,1,129.999994049072
296,204,189386,1,0,0:0:0:0:
344,280,189461,2,0,L|464:344,1,129.999994049072
396,172,189761,6,0,L|448:220,3,64.9999970245362
376,96,190061,2,0,L|412:80,3,32.4999985122681
296,84,190211,2,0,L|304:52,3,32.4999985122681
220,60,190361,1,0,0:0:0:0:
296,336,190586,1,0,0:0:0:0:
20,216,190811,1,0,0:0:0:0:
316,160,190961,6,0,L|276:284,1,129.999994049072
148,116,191261,1,0,0:0:0:0:
172,348,191411,1,0,0:0:0:0:
188,260,191486,1,0,0:0:0:0:
120,200,191561,2,0,P|48:232|64:356,2,194.999991073609
408,68,192161,6,0,B|396:64|396:64|296:96|296:96|284:92,1,129.999994049072
104,128,192461,2,0,B|116:124|116:124|216:156|216:156|228:152,1,129.999994049072
312,188,192686,1,0,0:0:0:0:
352,268,192761,2,0,L|404:224,2,64.9999970245362
300,340,192986,2,0,P|232:352|168:352,1,129.999994049072
172,352,193211,1,0,0:0:0:0:
192,56,193361,6,0,L|208:188,1,129.999994049072
320,56,193661,2,0,L|304:188,1,129.999994049072
256,264,193886,1,0,0:0:0:0:
164,272,193961,2,0,P|72:248|8:144,2,194.999991073609
468,88,194561,6,0,P|388:132|340:208,1,175.00000166893
44,88,194861,2,0,P|124:132|172:208,1,175.00000166893
256,324,195086,1,0,0:0:0:0:
404,324,195161,1,0,0:0:0:0:
136,288,196983,6,0,P|168:248|172:192,1,99.9999999999999
376,288,197346,2,0,P|344:248|340:192,1,99.9999999999999
48,208,197710,2,0,P|96:191|130:147,1,99.9999999999999
164,72,197983,1,0,0:0:0:0:
244,36,198073,2,0,L|332:96,1,99.9999999999999
268,264,198437,6,0,P|252:216|216:176,2,99.9999999999999
408,148,198983,1,0,0:0:0:0:
408,148,199073,1,0,0:0:0:0:
408,148,199164,2,0,P|424:196|460:236,1,99.9999999999999
104,148,199528,2,0,P|88:196|52:236,1,99.9999999999999
256,324,199892,6,0,L|320:244,1,99.9999999999999
256,324,200255,2,0,L|192:244,1,99.9999999999999
256,180,200528,1,0,0:0:0:0:
210,100,200619,2,0,P|266:88|318:112,1,99.9999999999999
172,176,200983,1,0,0:0:0:0:
340,176,201164,1,0,0:0:0:0:
372,328,201346,6,0,L|448:256,1,99.9999999999999
140,56,201710,2,0,L|64:128,1,99.9999999999999
60,216,201983,2,0,B|100:216|124:240|124:240|124:248|124:248|132:248|132:248|132:256|132:256|140:256|140:256|160:344|264:320,1,250
316,72,202801,6,0,L|420:48,1,99.9999999999999
196,72,203164,2,0,L|92:48,1,99.9999999999999
160,160,203528,2,0,P|212:164|260:144,1,99.9999999999999
256,147,203801,2,0,B|305:176|353:160|353:160|373:184|365:228,1,150
196,264,204255,6,0,L|144:352,1,99.9999999999999
366,350,204619,2,0,L|316:264,1,99.9999999999999
80,252,204983,2,0,L|112:156,1,99.9999999999999
28,124,205255,2,0,P|76:72|164:84,1,150
324,128,205710,6,0,P|368:132|416:184,1,99.9999999999999
188,256,206073,2,0,P|144:252|96:200,1,99.9999999999999
320,260,206437,2,0,P|316:304|264:352,1,99.9999999999999
192,124,206801,2,0,P|196:80|248:32,1,99.9999999999999
356,168,207164,6,0,B|324:160|320:132|332:96|384:80|432:116|440:160|432:228|368:244|304:232,1,300
164,332,207892,1,0,0:0:0:0:
164,332,207983,1,0,0:0:0:0:
52,192,208164,1,0,0:0:0:0:
52,192,208255,1,0,0:0:0:0:
168,52,208437,1,0,0:0:0:0:
416,216,208619,5,0,0:0:0:0:
436,196,208710,1,0,0:0:0:0:
452,164,208801,1,0,0:0:0:0:
452,124,208892,1,0,0:0:0:0:
432,84,208983,1,0,0:0:0:0:
392,56,209073,1,0,0:0:0:0:
336,60,209164,1,0,0:0:0:0:
288,96,209255,1,0,0:0:0:0:
364,144,209346,5,0,0:0:0:0:
284,184,209437,1,0,0:0:0:0:
208,136,209528,1,0,0:0:0:0:
168,56,209619,1,0,0:0:0:0:
80,36,209710,1,0,0:0:0:0:
60,124,209801,1,0,0:0:0:0:
80,212,209892,1,0,0:0:0:0:
148,272,209983,1,0,0:0:0:0:
236,304,210073,6,0,L|272:364,3,69.9999978637695
348,280,210437,2,0,L|400:328,1,69.9999978637695
408,188,210619,2,0,L|476:212,1,69.9999978637695
392,68,210801,2,0,P|320:72|256:48,1,139.999995727539
216,184,211073,2,0,P|192:124|128:84,1,139.999995727539
108,192,211346,1,0,0:0:0:0:
108,192,211437,1,0,0:0:0:0:
184,272,211528,6,0,P|120:296|56:332,2,139.999995727539
328,100,212073,1,0,0:0:0:0:
352,336,212255,2,0,L|320:200,1,139.999995727539
224,152,212528,1,0,0:0:0:0:
196,52,212619,1,0,0:0:0:0:
104,100,212710,1,0,0:0:0:0:
84,204,212801,1,0,0:0:0:0:
132,300,212892,1,0,0:0:0:0:
228,340,212983,6,0,L|360:280,1,139.999995727539
284,44,213346,2,0,L|152:104,1,139.999995727539
404,220,213710,2,0,L|344:88,1,139.999995727539
211,243,213983,2,0,P|296:183|346:92,1,209.999993591309
68,92,214437,6,0,P|60:164|72:236,1,139.999995727539
444,291,214801,2,0,P|452:222|440:153,1,139.999995727539
440,153,215073,2,0,P|342:199|242:231,1,209.999993591309
64,340,215528,1,0,0:0:0:0:
36,240,215619,1,0,0:0:0:0:
68,140,215710,1,0,0:0:0:0:
160,92,215801,1,0,0:0:0:0:
252,140,215892,6,0,P|328:100|364:44,1,139.999995727539
260,244,216255,2,0,P|184:284|148:340,1,139.999995727539
204,196,216619,2,0,P|164:120|120:92,1,139.999995727539
326,48,216892,2,0,L|119:91,1,209.999993591309
424,316,217346,6,0,P|424:240|400:176,1,139.999995727539
88,68,217710,2,0,P|88:144|112:208,1,139.999995727539
132,360,218073,2,0,P|208:360|272:336,1,139.999995727539
169,153,218346,2,0,L|268:339,1,209.999993591309
344,112,218801,5,0,0:0:0:0:
328,100,218892,1,0,0:0:0:0:
312,88,218983,1,0,0:0:0:0:
296,76,219073,1,0,0:0:0:0:
216,76,219164,1,0,0:0:0:0:
200,88,219254,1,0,0:0:0:0:
184,100,219345,1,0,0:0:0:0:
168,112,219436,1,0,0:0:0:0:
228,160,219528,6,0,L|340:260,1,139.999995727539
100,336,219892,2,0,P|168:296|204:242,1,139.999995727539
60,76,220255,1,0,0:0:0:0:
384,48,220528,1,0,0:0:0:0:
272,336,220801,1,0,0:0:0:0:
256,188,220983,5,0,0:0:0:0:
264,108,221164,1,0,0:0:0:0:
208,116,221255,1,0,0:0:0:0:
168,188,221346,1,0,0:0:0:0:
240,272,221437,1,0,0:0:0:0:
344,184,221528,1,0,0:0:0:0:
320,68,221619,1,0,0:0:0:0:
160,48,221710,6,0,L|92:96,3,82.5000007867812
56,184,222073,1,0,0:0:0:0:
84,296,222164,1,0,0:0:0:0:
192,336,222255,1,0,0:0:0:0:
300,292,222346,1,0,0:0:0:0:
332,180,222437,2,0,P|416:212|440:308,1,165.000001573562
332,180,222710,2,0,P|364:96|460:72,1,165.000001573562
272,64,222983,1,0,0:0:0:0:
180,252,223164,6,0,P|112:204|60:136,1,165.000001573562
449,139,223528,2,0,P|399:204|332:252,1,165.000001573562
156,40,223892,2,0,P|158:122|185:199,1,165.000001573562
256,240,224164,1,0,0:0:0:0:
326,199,224255,2,0,P|353:122|356:40,1,165.000001573562
148,220,224619,6,0,L|16:332,1,165.000001573562
364,220,224983,2,0,L|496:332,1,165.000001573562
88,92,225346,2,0,P|180:104|244:180,1,165.000001573562
376,64,225619,2,0,P|320:140|260:296,1,247.500002360344
376,64,226073,6,0,P|424:136|496:188,1,165.000001573562
136,64,226437,2,0,P|88:136|16:188,1,165.000001573562
168,184,226710,2,0,P|112:240|224:328,1,247.500002360344
188,260,227073,1,0,0:0:0:0:
252,204,227164,1,0,0:0:0:0:
232,108,227255,1,0,0:0:0:0:
332,68,227346,1,0,0:0:0:0:
432,124,227437,1,0,0:0:0:0:
444,248,227528,6,0,P|372:200|312:144,1,165.000001573562
68,248,227892,2,0,P|140:200|200:144,1,165.000001573562
192,336,228255,2,0,P|200:296|312:336,1,206.250001966953
256,64,228801,1,0,0:0:0:0:
64,64,228983,6,0,P|100:140|160:208,1,165.000001573562
256,120,229255,1,0,0:0:0:0:
359,201,229346,2,0,P|413:138|448:64,1,165.000001573562
448,316,229710,2,0,B|424:328|392:308|392:308|392:320|392:320|376:320|376:320|372:332|372:332|340:324|284:340,1,165.000001573562
276,264,229983,2,0,B|248:272|248:272|240:268|240:268|240:276|240:276|232:272|232:272|224:280|224:280|200:284|184:300|184:300|152:292|152:292|144:296|144:296|144:288|144:288|112:288|104:272|104:272|104:264|104:264|76:224,1,247.500002360344
256,100,231528,5,0,0:0:0:0:
368,68,231892,2,0,P|360:128|320:180,1,119.999996337891
144,68,232255,2,0,P|152:128|192:180,1,119.999996337891
444,160,232619,2,0,P|404:205|342:227,1,119.999996337891
68,160,232983,2,0,P|107:205|169:227,1,119.999996337891
348,336,233346,6,0,P|312:276|308:216,1,119.999996337891
164,336,233710,2,0,P|200:276|204:216,1,119.999996337891
452,220,234073,2,0,P|384:203|338:163,1,119.999996337891
60,220,234437,2,0,P|127:203|173:163,1,119.999996337891
256,144,234801,1,0,0:0:0:0:
256,192,234823,12,0,235528,0:0:0:0:
116,88,236255,6,0,P|128:160|152:204,1,119.999996337891
396,88,236619,2,0,P|384:160|360:204,1,119.999996337891
368,312,236892,1,0,0:0:0:0:
260,296,236983,2,0,L|220:344,1,59.9999981689453
72,220,237255,2,0,P|60:280|92:336,1,119.999996337891
152,265,237528,1,0,0:0:0:0:
172,60,237710,5,0,0:0:0:0:
256,156,237892,1,0,0:0:0:0:
340,60,238073,1,0,0:0:0:0:
256,240,238255,1,0,0:0:0:0:
152,176,238437,2,0,B|160:220|148:304|148:300,1,119.999996337891
232,332,238710,2,0,P|328:336|412:320,1,179.999994506836
72,80,239164,6,0,L|44:196,1,119.999996337891
440,80,239528,2,0,L|468:196,1,119.999996337891
372,180,239801,1,0,0:0:0:0:
300,116,239892,1,0,0:0:0:0:
92,316,240164,1,0,0:0:0:0:
184,56,240437,1,0,0:0:0:0:
288,244,240619,6,0,L|412:264,2,119.999996337891
84,120,241164,1,0,0:0:0:0:
164,192,241255,1,0,0:0:0:0:
180,300,241346,2,0,P|268:336|352:328,2,179.999994506836
324,140,242073,6,0,P|396:160|432:196,1,119.999996337891
188,140,242437,2,0,P|116:160|80:196,1,119.999996337891
256,60,242801,1,0,0:0:0:0:
256,60,242892,1,0,0:0:0:0:
196,268,243073,2,0,P|256:256|316:268,1,119.999996337891
313,266,243346,1,0,0:0:0:0:
104,340,243528,6,0,P|92:280|44:236,1,119.999996337891
408,340,243892,2,0,P|420:280|468:236,1,119.999996337891
412,144,244164,1,0,0:0:0:0:
304,140,244255,2,0,P|344:60|428:36,2,179.999994506836
96,52,244983,6,0,P|112:112|148:160,1,119.999996337891
280,308,245346,2,0,P|264:248|228:200,1,119.999996337891
224,112,245619,1,0,0:0:0:0:
224,112,245710,1,0,0:0:0:0:
412,260,245892,1,0,0:0:0:0:
412,260,245983,1,0,0:0:0:0:
412,260,246073,2,0,L|412:140,1,119.999996337891
84,120,246437,6,0,P|128:156|188:188,1,119.999996337891
428,120,246801,2,0,P|384:156|324:188,1,119.999996337891
44,260,247164,2,0,P|102:281|160:296,1,119.999996337891
468,260,247528,2,0,P|409:281|352:296,1,119.999996337891
360,76,247892,6,0,P|312:104|288:168,1,119.999996337891
152,76,248255,2,0,P|200:104|224:168,1,119.999996337891
256,244,248528,1,0,0:0:0:0:
256,244,248619,1,0,0:0:0:0:
256,244,248710,1,0,0:0:0:0:
452,328,248892,1,0,0:0:0:0:
384,212,249073,1,0,0:0:0:0:
384,212,249164,1,0,0:0:0:0:
128,208,249346,6,0,P|96:256|48:300,1,119.999996337891
120,68,249710,2,0,P|75:108|42:158,1,119.999996337891
256,48,250073,2,0,L|256:232,1,179.999994506836
384,208,250437,2,0,P|416:256|464:300,1,119.999996337891
392,68,250801,6,0,P|436:108|469:158,1,119.999996337891
469,158,251164,1,0,0:0:0:0:
300,328,251346,1,0,0:0:0:0:
300,328,251437,1,0,0:0:0:0:
300,328,251528,1,0,0:0:0:0:
52,96,251801,1,0,0:0:0:0:
392,68,252073,1,0,0:0:0:0:
108,308,252255,6,0,B|92:296|92:296|96:216|96:216|80:200,1,119.999996337891
404,308,252619,2,0,B|420:296|420:296|416:216|416:216|432:200,1,119.999996337891
336,124,252892,1,0,0:0:0:0:
220,160,252983,2,0,P|240:256|304:320,2,179.999994506836
372,228,253710,6,0,P|338:284|289:315,1,119.999996337891
140,228,254073,2,0,P|173:284|222:315,1,119.999996337891
256,48,254437,1,0,0:0:0:0:
256,48,254528,1,0,0:0:0:0:
80,112,254710,1,0,0:0:0:0:
432,112,254892,1,0,0:0:0:0:
432,112,254983,1,0,0:0:0:0:
460,208,255164,6,0,P|464:276|488:328,1,119.999996337891
52,208,255528,2,0,P|48:276|24:328,1,119.999996337891
136,264,255801,1,0,0:0:0:0:
204,164,255892,2,0,P|144:92|64:48,2,179.999994506836
416,52,256619,5,0,0:0:0:0:
236,320,256801,1,0,0:0:0:0:
56,56,256983,1,0,0:0:0:0:
440,208,257164,1,0,0:0:0:0:
424,264,257255,1,0,0:0:0:0:
380,304,257346,1,0,0:0:0:0:
228,100,257665,1,0,0:0:0:0:
228,100,257710,1,0,0:0:0:0:
