osu file format v14

[General]
AudioFilename: Oskar Schuster - Fjarlaegur (Cypix Remix).mp3
AudioLeadIn: 0
PreviewTime: 63394
Countdown: 0
SampleSet: Soft
StackLeniency: 0.7
Mode: 0
LetterboxInBreaks: 0
WidescreenStoryboard: 0

[Editor]
Bookmarks: 6409,17838,29267,40695,52124,63552,67362,71171,74029,74981,78790,82600,86409,90219
DistanceSpacing: 1.2
BeatDivisor: 6
GridSize: 4
TimelineZoom: 1.6

[Metadata]
Title:Fjarlaegur (Cypix Remix)
TitleUnicode:Fjarlægur (Cypix Remix)
Artist:Oskar Schuster
ArtistUnicode:Oskar Schuster
Creator:Shadren
Version:Insane
Source:
Tags:FutureGarage fabuleuxLilly neo-classical classic ambient piano waltz liquid chill cut short version
BeatmapID:679485
BeatmapSetID:303189

[Difficulty]
HPDrainRate:7
CircleSize:4
OverallDifficulty:7
ApproachRate:9
SliderMultiplier:3.19999990463257
SliderTickRate:1

[Events]
//Background and Video events
0,0,"BG.jpg",0,0
//Break Periods
//Storyboard Layer 0 (Background)
//Storyboard Layer 1 (Fail)
//Storyboard Layer 2 (Pass)
//Storyboard Layer 3 (Foreground)
//Storyboard Sound Samples

[TimingPoints]
6410,952.380952380952,4,2,2,60,1,0
6410,-66.6666666666667,4,2,2,60,0,0
40695,-66.6666666666667,4,2,1,60,0,0
63552,-66.6666666666667,4,2,1,60,0,1
74029,-66.6666666666667,4,2,1,60,0,0
74981,-66.6666666666667,4,2,1,60,0,1
86409,-66.6666666666667,4,2,1,60,0,0
87362,-66.6666666666667,4,2,1,50,0,0
88314,-66.6666666666667,4,2,1,40,0,0
89267,-66.6666666666667,4,2,1,30,0,0
90219,-66.6666666666667,4,2,1,20,0,0

[Colours]
Combo1 : 255,255,159
Combo2 : 139,221,252
Combo3 : 255,164,255

[HitObjects]
124,176,6409,5,2,0:0:0:0:
140,192,6727,2,0,P|148:232|140:276,1,80
204,120,7044,2,0,P|196:80|204:36,1,80
336,196,7362,1,0,0:0:0:0:
320,216,7679,2,0,L|232:212,1,80
60,196,7997,2,0,L|148:192,1,80
324,312,8314,5,2,0:0:0:0:
340,332,8632,2,0,P|384:336|432:320,1,80
472,168,8949,2,0,P|428:164|380:180,1,80
304,208,9267,2,0,P|224:220|168:168,2,160
320,112,10060,1,2,0:0:0:0:
396,296,10219,5,2,0:0:0:0:
380,316,10536,2,0,L|300:312,1,80
168,268,10854,2,0,L|88:272,1,80
184,120,11171,1,0,0:0:0:0:
208,132,11489,2,0,P|252:128|288:96,1,80
380,260,11806,2,0,P|339:241|292:251,1,80
136,352,12124,5,2,0:0:0:0:
112,336,12441,2,0,L|104:248,1,80
208,88,12759,2,0,L|200:176,1,80
276,228,13076,2,0,P|360:236|416:172,2,160
200,168,13870,1,2,0:0:0:0:
392,80,14029,5,2,0:0:0:0:
412,100,14346,2,0,L|416:196,1,80
336,344,14663,2,0,L|339:264,1,80
200,168,14981,1,0,0:0:0:0:
180,188,15298,2,0,P|140:204|96:200,1,80
104,352,15616,2,0,P|130:318|170:299,1,80
336,344,15933,5,0,0:0:0:0:
356,320,16251,2,0,L|360:236,1,80
284,80,16568,2,0,L|292:164,1,80
176,288,16886,1,0,0:0:0:0:
156,312,17203,2,0,P|112:316|72:304,1,80
4,152,17521,2,0,P|48:148|88:160,1,80
216,192,17838,6,0,L|212:32,2,160,2|0|0,0:0|0:0|0:0,0:0:0:0:
232,212,18790,2,0,P|276:216|316:200,1,80
424,68,19108,2,0,P|383:86|357:120,1,80
456,264,19425,2,0,P|437:223|403:197,1,80
236,132,19743,5,2,0:0:0:0:
216,112,20060,2,0,L|132:116,1,80
20,32,20378,2,0,L|99:35,1,80
308,68,20695,2,0,P|332:148|272:220,2,160
236,132,21489,1,2,0:0:0:0:
360,284,21648,6,0,P|398:216|474:201,2,160,2|0|0,0:0|0:0|0:0,0:0:0:0:
336,264,22600,2,0,L|332:168,1,80
248,20,22917,2,0,L|244:100,1,80
420,144,23235,2,0,L|424:64,1,80
204,28,23552,5,2,0:0:0:0:
188,48,23870,2,0,P|140:56|104:52,1,80
48,180,24187,2,0,P|76:152|128:138,1,80
232,224,24505,2,0,P|312:220|360:144,2,160
184,132,25298,1,2,0:0:0:0:
144,348,25457,6,0,P|212:312|312:336,2,160,2|0|0,0:0|0:0|0:0,0:0:0:0:
44,268,26409,2,0,P|96:280|140:260,1,80
272,204,26727,2,0,P|232:192|176:200,1,80
264,336,27044,2,0,P|305:333|355:306,1,80
396,156,27362,5,0,0:0:0:0:
412,140,27679,2,0,L|416:52,1,80
272,204,27997,2,0,L|280:296,1,80.0000006675721
92,336,28314,1,0,0:0:0:0:
68,320,28632,2,0,P|60:272|72:228,1,80
88,72,28949,2,0,P|96:120|84:164,1,80
236,24,29267,6,0,P|256:100|344:128,1,160,4|0,0:3|0:0,0:0:0:0:
416,104,29743,1,4,0:3:0:0:
504,148,29902,2,0,P|512:188|504:236,1,79.9999976158142
344,328,30219,1,4,0:0:0:0:
324,344,30536,2,0,L|232:340,1,79.9999976158142
392,260,30854,2,0,L|484:256,1,79.9999976158142
312,212,31171,6,0,P|288:128|328:68,1,159.999995231628,4|0,0:3|0:0,0:0:0:0:
384,148,31648,1,4,0:3:0:0:
248,272,31806,2,0,B|160:272,1,80.0000006675721
24,116,32124,1,4,0:0:0:0:
48,132,32441,2,0,B|120:148|120:148|156:116|220:128,1,160.000001335144
184,220,32917,1,2,0:0:0:0:
180,36,33076,6,0,P|260:52|292:132,1,159.999995231628,4|0,0:3|0:0,0:0:0:0:
384,148,33552,1,4,0:3:0:0:
468,104,33711,2,0,L|472:8,1,79.9999976158142
464,248,34029,1,4,0:0:0:0:
436,272,34346,2,0,P|392:276|348:260,1,80.0000006675721
200,244,34663,2,0,P|237:225|281:225,1,80.0000006675721
184,160,34981,6,0,P|100:184|32:136,1,159.999995231628,4|0,0:3|0:0,0:0:0:0:
116,92,35457,1,4,0:3:0:0:
260,192,35616,2,0,B|356:184,1,80.0000006675721
484,52,35933,1,4,0:0:0:0:
500,76,36251,2,0,L|504:156,1,79.9999976158142
324,276,36568,1,0,0:0:0:0:
348,184,36727,1,2,0:0:0:0:
396,332,36886,6,0,P|324:368|244:320,1,159.999995231628,4|0,0:3|0:0,0:0:0:0:
184,276,37362,1,4,0:3:0:0:
104,328,37521,2,0,P|64:336|8:324,1,80.0000006675721
144,188,37838,2,0,P|180:180|240:196,1,80.0000006675721,4|0,0:0|0:0,0:0:0:0:
308,244,38156,2,0,P|364:244|396:228,1,79.9999976158142
508,120,38473,2,0,P|452:120|420:136,1,79.9999976158142
308,244,38790,6,0,P|232:268|168:228,1,159.999995231628,4|0,0:3|0:0,0:0:0:0:
116,148,39267,1,4,0:3:0:0:
16,260,39425,2,0,L|20:356,1,79.9999976158142
176,376,39743,1,4,0:0:0:0:
200,360,40060,2,0,P|240:348|288:352,1,79.9999976158142
440,304,40378,2,0,P|399:294|360:260,1,79.9999976158142
232,180,40695,6,0,P|192:200|148:200,1,79.9999976158142,4|0,0:3|0:0,0:0:0:0:
64,64,41013,1,0,0:0:0:0:
24,152,41171,1,0,0:0:0:0:
176,112,41330,1,0,0:0:0:0:
152,20,41489,1,0,0:0:0:0:
120,184,41648,2,0,B|104:224|120:260|120:260|148:308|120:360,1,159.999995231628,4|0,0:0|0:0,0:0:0:0:
36,312,42124,1,0,0:0:0:0:
212,220,42283,2,0,P|256:212|292:220,1,79.9999976158142
368,280,42600,6,0,P|444:296|512:232,1,159.999995231628,4|0,0:3|0:0,0:0:0:0:
422,200,43076,1,0,0:0:0:0:
284,328,43235,2,0,P|240:336|192:320,1,80.0000006675721
36,248,43552,2,0,P|72:240|132:252,1,80.0000006675721,4|0,0:0|0:0,0:0:0:0:
220,120,43870,1,0,0:0:0:0:
284,192,44029,1,0,0:0:0:0:
120,144,44187,1,0,0:0:0:0:
148,52,44346,1,2,0:0:0:0:
204,240,44505,6,0,P|264:284|348:260,1,159.999995231628,4|0,0:3|0:0,0:0:0:0:
400,188,44981,1,0,0:0:0:0:
336,116,45140,2,0,L|328:24,1,79.9999976158142
244,84,45457,2,0,L|260:256,1,159.999995231628,4|0,0:0|0:0,0:0:0:0:
176,292,45933,1,0,0:0:0:0:
84,268,46092,2,0,P|44:268|0:292,1,79.9999976158142
132,368,46409,6,0,P|168:380|220:368,1,79.9999976158142,4|0,0:3|0:0,0:0:0:0:
292,216,46727,1,0,0:0:0:0:
212,160,46886,1,0,0:0:0:0:
288,316,47044,1,0,0:0:0:0:
372,268,47203,1,0,0:0:0:0:
176,244,47362,2,0,P|124:184|140:104,1,159.999995231628,4|0,0:0|0:0,0:0:0:0:
224,72,47838,1,0,0:0:0:0:
304,124,47997,2,0,B|344:128|344:128|392:116,1,79.9999976158142,0|2,0:0|0:0,0:0:0:0:
432,200,48314,6,0,B|356:220|356:220|344:264|292:280,1,159.999995231628,4|0,0:3|0:0,0:0:0:0:
268,188,48790,1,0,0:0:0:0:
220,316,48949,2,0,P|248:352|300:364,1,79.9999976158142
180,232,49267,2,0,P|140:232|84:260,1,79.9999976158142,4|0,0:0|0:0,0:0:0:0:
304,276,49584,1,0,0:0:0:0:
268,188,49743,1,0,0:0:0:0:
132,308,49902,1,0,0:0:0:0:
220,348,50060,1,0,0:0:0:0:
192,148,50219,6,0,P|256:100|332:132,1,159.999995231628,4|0,0:3|0:0,0:0:0:0:
412,168,50695,1,0,0:0:0:0:
492,112,50854,2,0,L|496:24,1,79.9999976158142
412,168,51171,2,0,L|415:247,1,79.9999976158142,4|0,0:0|0:0,0:0:0:0:
296,344,51489,2,0,P|252:348|208:336,1,79.9999976158142
48,284,51806,2,0,P|92:280|136:292,1,79.9999976158142
260,172,52124,6,0,P|216:172|172:148,1,80.0000006675721,4|0,0:3|0:0,0:0:0:0:
312,44,52441,1,2,0:0:0:0:
344,136,52600,1,2,0:0:0:0:
212,40,52759,1,2,0:0:0:0:
384,8,52917,1,2,0:0:0:0:
428,176,53076,2,0,P|368:228|280:200,1,160.000001335144,4|0,0:0|0:0,0:0:0:0:
212,164,53552,2,0,P|172:160|128:172,1,80.0000006675721
76,248,53870,1,2,0:0:0:0:
100,68,54029,6,0,P|184:80|260:40,1,160.000001335144,4|0,0:3|0:0,0:0:0:0:
336,92,54505,2,0,L|340:180,1,80.0000006675721
276,244,54822,1,2,0:0:0:0:
428,176,54981,2,0,L|420:16,1,160.000001335144,4|0,0:0|0:0,0:0:0:0:
508,51,55457,2,0,L|512:139,1,80.0000006675721
428,176,55775,1,2,0:0:0:0:
336,148,55933,6,0,P|292:152|256:168,1,80.0000006675721,4|0,0:3|0:0,0:0:0:0:
232,324,56251,1,2,0:0:0:0:
324,292,56409,1,2,0:0:0:0:
168,248,56568,1,2,0:0:0:0:
136,344,56727,1,2,0:0:0:0:
264,220,56886,2,0,P|264:140|200:96,1,160.000001335144,4|0,0:0|0:0,0:0:0:0:
112,128,57362,2,0,P|72:136|24:128,1,80.0000006675721
4,36,57679,1,2,0:0:0:0:
64,224,57838,6,0,B|148:208|148:208|180:240|244:228,1,160.000001335144,4|0,0:3|0:0,0:0:0:0:
296,180,58314,2,0,P|304:136|292:92,1,80.0000006675721
208,140,58632,1,2,0:0:0:0:
308,276,58790,2,0,P|396:284|448:224,1,160.000001335144,4|0,0:0|0:0,0:0:0:0:
496,320,59267,2,0,P|460:336|428:376,1,80.0000006675721
360,200,59584,1,2,0:0:0:0:
436,140,59743,6,0,L|440:60,1,80.0000006675721,4|0,0:3|0:0,0:0:0:0:
260,32,60060,1,2,0:0:0:0:
304,120,60219,1,2,0:0:0:0:
168,4,60378,1,2,0:0:0:0:
344,20,60536,1,2,0:0:0:0:
360,200,60695,2,0,P|280:216|216:164,1,160.000001335144,4|0,0:0|0:0,0:0:0:0:
144,116,61171,2,0,P|104:112|56:124,1,80.0000006675721
112,204,61489,1,2,0:0:0:0:
240,80,61648,6,0,L|408:88,1,160.000001335144,4|0,0:3|0:0,0:0:0:0:
472,152,62124,2,0,P|476:200|464:236,1,80.0000006675721
384,184,62441,1,2,0:0:0:0:
420,356,62600,1,4,0:0:0:0:
496,296,62759,1,0,0:0:0:0:
324,332,62917,2,0,L|236:328,1,80.0000006675721
88,280,63235,2,0,L|176:276,1,80.0000006675721
288,192,63552,6,0,P|292:144|280:100,1,80.0000006675721,4|0,0:3|0:0,0:0:0:0:
120,64,63870,1,0,0:0:0:0:
156,152,64029,1,4,0:3:0:0:
200,8,64187,1,0,1:0:0:0:
32,36,64346,1,0,0:0:0:0:
208,88,64505,2,0,P|232:120|232:180,1,80.0000006675721,4|0,0:0|0:0,0:0:0:0:
128,276,64822,1,0,0:0:0:0:
128,180,64981,1,0,1:0:0:0:
208,328,65140,1,0,0:0:0:0:
124,372,65298,1,0,1:0:0:0:
216,228,65457,6,0,P|296:208|372:256,1,160.000001335144,4|0,0:3|0:0,0:0:0:0:
448,204,65933,2,0,L|452:112,1,80.0000006675721,0|0,1:0|0:0,0:0:0:0:
380,60,66251,1,0,1:0:0:0:
240,132,66409,2,0,P|200:144|148:136,1,80.0000006675721,6|0,0:0|0:0,0:0:0:0:
16,48,66727,2,0,P|56:57|97:90,1,80.0000006675721,0|0,1:0|0:0,0:0:0:0:
36,248,67044,2,0,P|45:207|78:166,1,80.0000006675721,2|0,0:0|1:0,0:0:0:0:
216,228,67362,6,0,P|260:228|308:200,1,80.0000006675721,4|0,0:3|0:0,0:0:0:0:
380,60,67679,1,0,0:0:0:0:
280,96,67838,1,4,0:3:0:0:
464,116,67997,1,0,1:0:0:0:
472,12,68156,1,0,0:0:0:0:
384,164,68314,2,0,P|380:212|388:248,1,80.0000006675721,4|0,0:0|0:0,0:0:0:0:
484,360,68632,1,0,0:0:0:0:
504,268,68790,1,0,1:0:0:0:
328,320,68949,1,0,0:0:0:0:
387,243,69108,1,0,1:0:0:0:
236,336,69267,6,0,P|159:351|92:304,1,160.000001335144,4|0,0:3|0:0,0:0:0:0:
104,212,69743,2,0,P|100:168|80:136,1,80.0000006675721,0|0,1:0|0:0,0:0:0:0:
8,200,70060,1,0,1:0:0:0:
192,256,70219,2,0,L|276:252,1,80.0000006675721,6|0,0:0|0:0,0:0:0:0:
316,168,70536,2,0,L|236:171,1,80.0000006675721,0|0,1:0|0:0,0:0:0:0:
144,340,70854,2,0,L|223:336,1,80.0000006675721,2|0,0:0|1:0,0:0:0:0:
408,252,71171,6,0,P|420:212|412:168,1,80.0000006675721,4|0,0:3|0:0,0:0:0:0:
228,100,71489,1,0,0:0:0:0:
252,192,71648,1,4,0:3:0:0:
308,36,71806,1,0,1:0:0:0:
216,8,71965,1,0,0:0:0:0:
316,128,72124,2,0,P|356:140|408:128,1,80.0000006675721,4|0,0:0|0:0,0:0:0:0:
480,16,72441,1,0,0:0:0:0:
388,40,72600,1,0,1:0:0:0:
472,180,72759,1,0,0:0:0:0:
512,92,72917,1,0,1:0:0:0:
376,196,73076,6,0,P|301:218|239:173,1,160.000001335144,4|0,0:3|0:0,0:0:0:0:
256,80,73552,2,0,P|231:49|195:32,1,80.0000006675721,0|0,1:0|0:0,0:0:0:0:
112,84,73870,1,0,1:0:0:0:
184,288,74029,2,0,P|224:300|276:296,1,80.0000006675721,6|0,0:0|0:0,0:0:0:0:
108,332,74346,2,0,P|68:332|16:316,1,80.0000006675721,0|0,1:0|0:0,0:0:0:0:
132,200,74663,2,0,P|169:185|208:189,1,80.0000006675721,2|0,0:0|1:0,0:0:0:0:
16,72,74981,6,0,P|52:88|100:88,1,80.0000006675721,4|0,0:3|0:0,0:0:0:0:
272,44,75298,1,0,0:0:0:0:
188,0,75457,1,4,0:3:0:0:
272,152,75616,1,0,1:0:0:0:
356,104,75775,1,0,0:0:0:0:
184,108,75933,2,0,P|172:156|184:200,1,80.0000006675721,4|0,0:0|0:0,0:0:0:0:
276,316,76251,1,0,0:0:0:0:
320,232,76409,1,0,1:0:0:0:
184,312,76568,1,0,0:0:0:0:
344,376,76727,1,0,1:0:0:0:
224,224,76886,6,0,L|232:60,1,160.000001335144,4|0,0:3|0:0,0:0:0:0:
320,24,77362,2,0,P|364:24|404:48,1,80.0000006675721,4|0,0:3|0:0,0:0:0:0:
340,120,77679,1,0,1:0:0:0:
164,28,77838,2,0,P|124:28|80:44,1,80.0000006675721,6|0,0:0|0:0,0:0:0:0:
188,148,78156,2,0,P|222:168|272:172,1,80.0000006675721,0|0,1:0|0:0,0:0:0:0:
128,260,78473,2,0,P|84:244|36:252,1,80.0000006675721,2|0,0:0|1:0,0:0:0:0:
244,344,78790,6,0,P|284:348|332:332,1,80.0000006675721,4|0,0:3|0:0,0:0:0:0:
380,172,79108,1,0,0:0:0:0:
296,220,79267,1,4,0:3:0:0:
456,236,79425,1,0,1:0:0:0:
400,84,79584,1,0,0:0:0:0:
296,220,79743,2,0,P|256:232|204:224,1,80.0000006675721,4|0,0:0|0:0,0:0:0:0:
88,128,80060,1,0,0:0:0:0:
180,96,80219,1,0,1:0:0:0:
128,260,80378,1,0,0:0:0:0:
204,316,80536,1,0,1:0:0:0:
383,213,80695,6,0,P|344:146|268:136,1,160.000001335144,4|0,0:3|0:0,0:0:0:0:
476,188,81171,2,0,L|484:104,1,80.0000006675721,0|0,1:0|0:0,0:0:0:0:
408,48,81489,1,0,1:0:0:0:
296,220,81648,2,0,P|256:236|208:232,1,80.0000006675721,6|0,0:0|0:0,0:0:0:0:
64,148,81965,2,0,P|106:154|146:181,1,80.0000006675721,0|0,1:0|0:0,0:0:0:0:
104,344,82283,2,0,P|110:301|137:261,1,80.0000006675721,2|0,0:0|1:0,0:0:0:0:
244,148,82600,6,0,P|252:100|244:60,1,80.0000006675721,4|0,0:3|0:0,0:0:0:0:
84,40,82917,1,0,0:0:0:0:
176,8,83076,1,4,0:3:0:0:
64,148,83235,1,0,1:0:0:0:
0,76,83394,1,0,0:0:0:0:
152,116,83552,2,0,P|192:128|232:168,1,80.0000006675721,4|0,0:0|0:0,0:0:0:0:
272,320,83870,1,0,0:0:0:0:
180,288,84029,1,0,1:0:0:0:
352,260,84187,1,0,0:0:0:0:
364,356,84346,1,0,1:0:0:0:
272,208,84505,6,0,P|348:164|416:192,1,160.000001335144,4|0,0:3|0:0,0:0:0:0:
480,120,84981,2,0,P|444:112|392:72,1,80.0000006675721,0|0,1:0|0:0,0:0:0:0:
352,260,85298,1,0,1:0:0:0:
196,180,85457,2,0,P|184:140|196:84,1,80.0000006675721,2|0,0:0|0:0,0:0:0:0:
84,24,85775,2,0,P|96:64|84:120,1,80.0000006675721,0|0,1:0|0:0,0:0:0:0:
272,132,86092,2,0,P|316:128|352:112,1,80.0000006675721,2|0,0:0|0:0,0:0:0:0:
112,320,86409,5,4,0:1:0:0:
256,192,86529,12,0,90219,0:0:0:0:
